osu file format v14

[General]
AudioFilename: audio.mp3
AudioLeadIn: 0
PreviewTime: -1
Countdown: 1
SampleSet: Normal
StackLeniency: 0.2
Mode: 0
LetterboxInBreaks: 0
WidescreenStoryboard: 1

[Editor]
DistanceSpacing: 0.6
BeatDivisor: 16
GridSize: 8
TimelineZoom: 3.899998

[Metadata]
Title:Windows 95 Startup Sound
TitleUnicode:Windows 95 Startup Sound
Artist:Brian Eno
ArtistUnicode:Brian Eno
Creator:Raikozen
Version:Jew
Source:
Tags:
BeatmapID:1561637
BeatmapSetID:740180

[Difficulty]
HPDrainRate:5
CircleSize:7
OverallDifficulty:5
ApproachRate:5
SliderMultiplier:3.59999990463257
SliderTickRate:1

[Events]
//Background and Video events
0,0,"Windows95.jpg",0,0
//Break Periods
//Storyboard Layer 0 (Background)
//Storyboard Layer 1 (Fail)
//Storyboard Layer 2 (Pass)
//Storyboard Layer 3 (Foreground)
//Storyboard Sound Samples

[TimingPoints]
335.910447761194,375,5,1,0,100,1,0
336,-50,5,1,0,100,0,0
401,-100,5,1,0,100,0,0
406,-100,5,1,0,5,0,0
1085,-100,5,1,0,100,0,0
2323,952.076923076923,4,1,0,100,1,0
3275,857.142857142857,4,1,0,100,1,0

[HitObjects]
133,0,335,5,0,0:0:0:0:
158,15,335,1,0,0:0:0:0:
183,30,335,1,0,0:0:0:0:
211,39,335,1,0,0:0:0:0:
236,42,335,1,0,0:0:0:0:
120,30,429,5,0,0:0:0:0:
198,69,429,1,0,0:0:0:0:
223,72,429,1,0,0:0:0:0:
170,60,429,1,0,0:0:0:0:
145,45,429,1,0,0:0:0:0:
107,62,523,5,0,0:0:0:0:
132,77,523,1,0,0:0:0:0:
157,92,523,1,0,0:0:0:0:
185,101,523,1,0,0:0:0:0:
210,104,523,1,0,0:0:0:0:
95,90,617,5,0,0:0:0:0:
173,129,617,1,0,0:0:0:0:
198,132,617,1,0,0:0:0:0:
145,120,617,1,0,0:0:0:0:
120,105,617,1,0,0:0:0:0:
80,117,710,5,0,0:0:0:0:
105,132,710,1,0,0:0:0:0:
130,147,710,1,0,0:0:0:0:
158,156,710,1,0,0:0:0:0:
183,159,710,1,0,0:0:0:0:
70,146,804,5,0,0:0:0:0:
148,185,804,1,0,0:0:0:0:
173,188,804,1,0,0:0:0:0:
120,176,804,1,0,0:0:0:0:
95,161,804,1,0,0:0:0:0:
60,176,898,5,0,0:0:0:0:
85,191,898,1,0,0:0:0:0:
110,206,898,1,0,0:0:0:0:
138,215,898,1,0,0:0:0:0:
163,218,898,1,0,0:0:0:0:
133,0,1273,5,0,0:0:0:0:
211,39,1273,1,0,0:0:0:0:
236,42,1273,1,0,0:0:0:0:
183,30,1273,1,0,0:0:0:0:
158,15,1273,1,0,0:0:0:0:
120,30,1320,5,0,0:0:0:0:
170,60,1320,1,0,0:0:0:0:
145,45,1320,1,0,0:0:0:0:
223,72,1320,1,0,0:0:0:0:
198,69,1320,1,0,0:0:0:0:
107,62,1371,5,0,0:0:0:0:
185,101,1371,1,0,0:0:0:0:
210,104,1371,1,0,0:0:0:0:
157,92,1371,1,0,0:0:0:0:
132,77,1371,1,0,0:0:0:0:
95,90,1414,5,0,0:0:0:0:
145,120,1414,1,0,0:0:0:0:
120,105,1414,1,0,0:0:0:0:
198,132,1414,1,0,0:0:0:0:
173,129,1414,1,0,0:0:0:0:
80,117,1460,5,0,0:0:0:0:
158,156,1460,1,0,0:0:0:0:
183,159,1460,1,0,0:0:0:0:
130,147,1460,1,0,0:0:0:0:
105,132,1460,1,0,0:0:0:0:
70,146,1507,5,0,0:0:0:0:
120,176,1507,1,0,0:0:0:0:
95,161,1507,1,0,0:0:0:0:
173,188,1507,1,0,0:0:0:0:
148,185,1507,1,0,0:0:0:0:
60,176,1554,5,0,0:0:0:0:
138,215,1554,1,0,0:0:0:0:
163,218,1554,1,0,0:0:0:0:
110,206,1554,1,0,0:0:0:0:
85,191,1554,1,0,0:0:0:0:
193,235,1601,6,0,B|263:60|263:60|351:59|412:106|412:106|343:278|343:278|285:224|193:235|193:235|230:142|230:142|321:140|381:186|381:186|343:278|343:278|301:246|279:241|279:241|346:72|346:72|328:66,1,1319.99996185303
196,235,2323,1,0,0:0:0:0:
196,235,3275,1,0,0:0:0:0:
196,235,4078,1,0,0:0:0:0:
196,235,4935,1,0,0:0:0:0:
