osu file format v14

[General]
AudioFilename: audio.mp3
AudioLeadIn: 0
PreviewTime: 4066
Countdown: 0
SampleSet: Normal
StackLeniency: 0.4
Mode: 0
LetterboxInBreaks: 0
WidescreenStoryboard: 1

[Editor]
DistanceSpacing: 1
BeatDivisor: 4
GridSize: 4
TimelineZoom: 1.7

[Metadata]
Title:Jimmy Neutron Theme (TV Size)
TitleUnicode:Jimmy Neutron Theme (TV Size)
Artist:Brian Causey
ArtistUnicode:Brian Causey
Creator:fieryrage
Version:Glaceon's Normal
Source:The Adventures of Jimmy Neutron: Boy Genius
Tags:nickelodeon cartoon animation movie opening op english rock charlie brissette glaceon mismagius blue dragon bd
BeatmapID:1954151
BeatmapSetID:933621

[Difficulty]
HPDrainRate:4
CircleSize:3
OverallDifficulty:4
ApproachRate:5.5
SliderMultiplier:0.999999999999999
SliderTickRate:1

[Events]
//Background and Video events
0,0,"i dont care fiery youre gay.jpg",0,0
Video,50,"Jimmy neutron goes to the store.mp4"
//Break Periods
//Storyboard Layer 0 (Background)
//Storyboard Layer 1 (Fail)
//Storyboard Layer 2 (Pass)
//Storyboard Layer 3 (Foreground)
//Storyboard Sound Samples

[TimingPoints]
233,295.566502463054,4,2,1,15,1,0
528,285.714285714286,4,2,1,15,1,0
813,300,4,2,1,15,1,0
1113,315.789473684211,4,2,1,15,1,0
1428,297.029702970297,4,2,1,15,1,0
2022,283.018867924528,4,2,1,15,1,0
2163,342.857142857143,4,2,1,15,1,0
2334,295.566502463054,4,2,1,15,1,0
2481,258.620689655172,4,2,1,15,1,0
2610,322.58064516129,4,2,1,15,1,0
2771,295.566502463054,4,2,1,15,1,0
3214,324.324324324324,4,2,1,15,1,0
3538,315.789473684211,4,2,1,15,1,0
3695,294.117647058824,4,2,1,15,1,0
3989,284.36018957346,4,2,1,20,1,0
4131,240,4,2,1,30,1,0
4611,333.333333333333,4,2,1,25,1,0
4694,379.746835443038,4,1,1,40,1,0
5073,382.165605095541,4,1,1,40,1,0
5265,319.148936170213,4,1,1,35,1,0
5424,267.857142857143,4,1,1,35,1,0
5424,-98.5221674876847,4,1,1,35,0,0
5557,332.409972299169,4,1,1,32,1,0
5889,295.566502463054,4,1,1,30,1,0
6184,301.7729158808,4,1,1,30,1,0
7089,285.714285714286,4,1,1,30,1,0
7374,306.122448979592,4,1,1,30,1,0
8292,315.789473684211,4,1,1,30,1,0
8449,-96.4320154291225,4,1,1,30,0,0
8607,294.117647058824,4,1,1,30,1,0
9489,322.58064516129,4,1,1,30,1,0
9811,304.568527918782,4,1,1,30,1,0
11029,295.566502463054,4,1,1,30,1,0
11472,266.666666666667,4,1,1,30,1,0
11472,-111.731843575419,4,1,1,30,0,0
11605,314.13612565445,4,1,1,30,1,0
11919,301.129234629862,4,1,1,30,1,0
12220,301.129234629862,4,1,1,30,1,0
13424,294.117647058824,4,1,1,30,1,0
13424,-100,4,1,1,30,0,0
13718,291.26213592233,4,1,1,30,1,0
13863,-107.874865156419,4,1,1,30,0,0
14009,338.983050847458,4,2,1,5,1,0
14178,263.157894736842,4,1,1,30,1,0
14309,271.493212669683,4,1,1,30,1,0
14444,315.789473684211,4,1,1,30,1,0
14601,413.793103448276,4,1,1,30,1,0
14807,252.100840336134,4,1,1,30,1,0
14933,283.018867924528,4,1,1,30,1,0
15074,301.88679245283,4,1,1,30,1,0
15375,344.827586206897,4,1,1,30,1,0
15547,281.69014084507,4,1,1,30,1,0
15687,322.58064516129,4,1,1,30,1,0
15848,301.689460981496,4,1,1,30,1,0
16451,285.714285714286,4,1,1,30,1,0
16736,306.122448979592,4,1,1,30,1,0
17042,306.122448979592,4,1,1,30,1,0
18266,297.029702970297,4,1,1,30,1,0
19157,311.688311688312,4,1,1,30,1,0
19468,298.507462686567,4,1,1,30,1,0
19915,-101.010101010101,4,1,1,30,0,0
20065,305.343511450382,4,1,1,30,1,0
20675,294.117647058824,4,1,1,30,1,0
21851,303.030303030303,4,1,1,30,1,0
23366,-100,4,1,1,30,0,0
23669,307.692307692308,4,1,1,30,1,0
23976,298.507462686567,4,1,1,30,1,0
24274,298.507462686567,4,1,1,30,1,0
24572,314.13612565445,4,1,1,30,1,0
24886,301.7729158808,4,1,1,30,1,0
25489,304.568527918782,4,1,1,30,1,0
26707,294.117647058824,4,1,1,30,1,0
27295,342.857142857143,4,1,1,30,1,0
27466,250,4,1,1,30,1,0
27591,298.507462686567,4,1,1,30,1,0
27889,461.538461538462,4,1,1,30,1,0
28812,476.190476190476,4,2,1,20,1,0
29288,461.538461538462,4,2,1,20,1,0
29634,-100,4,2,1,15,0,0
32749,425.531914893617,4,2,1,15,1,0
33280,-100,4,2,1,5,0,0
33600,535.714285714286,4,2,1,15,1,0
33867,292.682926829268,4,2,1,15,1,0
34452,-100,4,2,1,5,0,0

[Colours]
Combo1 : 75,108,186
Combo2 : 226,92,92
Combo3 : 206,205,174
Combo4 : 105,219,77

[HitObjects]
256,192,233,12,2,4131,0:0:0:0:
75,337,5073,6,0,L|78:280,1,50,2|8,0:0|3:1,0:0:0:0:
129,256,5424,2,0,L|117:70,1,176.749996493912,2|0,0:0|0:0,0:0:0:0:
187,12,6184,1,2,3:1:0:0:
254,85,6485,1,8,0:0:0:0:
254,85,6636,2,0,P|333:101|405:86,1,150,8|10,0:0|0:0,0:0:0:0:
490,63,7374,6,0,L|484:169,1,99.9999999999999,2|8,3:1|3:1,0:0:0:0:
442,190,7833,2,0,L|449:310,1,99.9999999999999,2|0,0:0|0:0,0:0:0:0:
452,343,8292,1,10,3:1:0:0:
452,343,8449,2,0,P|398:350|348:341,1,99.9999999999999,2|0,0:0|0:0,0:0:0:0:
309,317,8901,1,8,0:0:0:0:
309,317,9048,2,0,L|253:321,1,50,8|2,0:0|0:0,0:0:0:0:
167,364,9489,1,10,0:0:0:0:
96,283,9811,6,0,L|99:170,1,99.9999999999999,2|8,3:1|3:1,0:0:0:0:
110,134,10267,2,0,P|162:124|225:144,1,99.9999999999999,2|0,0:0|0:0,0:0:0:0:
248,163,10724,1,10,3:1:0:0:
332,219,11029,1,2,3:1:0:0:
406,152,11324,1,8,0:0:0:0:
406,152,11472,2,0,L|400:-13,1,150,8|10,0:0|0:0,0:0:0:0:
303,27,12220,6,0,P|251:38|186:20,1,99.9999999999999,2|10,3:1|3:1,0:0:0:0:
158,13,12671,2,0,L|44:19,1,99.9999999999999,2|0,0:0|0:0,0:0:0:0:
8,22,13123,2,0,L|18:145,1,99.9999999999999,8|0,3:1|3:0,0:0:0:0:
77,202,13718,1,8,3:1:0:0:
77,202,13863,2,0,L|67:310,1,99.9999999999999,8|8,0:0|0:0,0:0:0:0:
65,350,14309,2,0,L|134:343,1,50,10|10,0:0|0:0,0:0:0:0:
158,338,14601,5,2,3:1:0:0:
244,276,14933,1,8,3:1:0:0:
244,276,15074,2,0,L|356:280,1,99.9999999999999,2|2,0:0|0:0,0:0:0:0:
394,282,15547,1,8,3:1:0:0:
468,209,15848,5,0,3:0:0:0:
413,125,16149,1,8,0:0:0:0:
413,125,16300,2,0,L|256:118,1,144.749996521282,8|8,0:0|0:0,0:0:0:0:
182,70,17042,6,0,P|170:118|184:185,1,99.9999999999999,2|8,3:1|3:1,0:0:0:0:
211,203,17501,2,0,L|205:309,1,99.9999999999999,2|0,0:0|0:0,0:0:0:0:
199,352,17960,1,10,3:1:0:0:
115,297,18266,1,2,3:1:0:0:
17,318,18563,2,0,L|24:254,1,50,10|8,0:0|0:0,0:0:0:0:
52,228,18860,1,2,0:0:0:0:
18,137,19157,1,8,0:0:0:0:
93,64,19468,6,0,P|138:56|199:71,1,99.9999999999999,2|8,3:1|3:1,0:0:0:0:
230,96,19915,2,0,L|336:94,1,99.9999999999999,2|0,0:0|0:0,0:0:0:0:
375,72,20370,1,10,3:1:0:0:
459,131,20675,1,0,3:0:0:0:
403,214,20969,1,10,0:0:0:0:
403,214,21116,2,0,L|396:382,1,150,8|10,0:0|0:0,0:0:0:0:
305,330,21851,6,0,P|258:320|187:338,1,99.9999999999999,2|8,3:1|3:1,0:0:0:0:
162,349,22305,1,2,0:0:0:0:
75,299,22608,2,0,L|88:143,1,150,2|0,0:2|3:0,0:0:0:0:
94,99,23214,1,2,0:2:0:0:
94,99,23366,2,0,L|199:105,1,99.9999999999999,10|10,0:0|0:0,0:0:0:0:
271,172,23976,1,10,0:0:0:0:
335,95,24274,6,0,P|396:85|448:99,1,99.9999999999999,2|8,3:1|3:1,0:0:0:0:
509,162,24886,2,0,L|504:227,1,50,0|0,3:0|0:0,0:0:0:0:
468,246,25187,1,10,3:1:0:0:
501,339,25489,1,0,3:0:0:0:
405,368,25793,1,8,0:0:0:0:
405,368,25945,2,0,P|351:375|286:362,1,99.9999999999999,8|0,0:0|0:0,0:0:0:0:
263,342,26402,1,8,3:1:0:0:
177,283,26707,6,0,L|75:290,2,99.9999999999999,0|8|0,3:1|3:1|3:0,0:0:0:0:
220,255,27466,2,0,L|214:184,1,50,8|10,0:0|0:0,0:0:0:0:
207,106,27889,2,0,P|258:118|319:100,1,99.9999999999999,6|2,0:0|0:1,0:0:0:0:
392,69,28812,2,0,P|440:59|488:71,1,99.9999999999999,2|2,0:1|0:1,0:0:0:0:
256,192,29518,12,0,33867,0:0:0:0:
