osu file format v14

[General]
AudioFilename: audio.mp3
AudioLeadIn: 0
PreviewTime: 71369
Countdown: 0
SampleSet: None
StackLeniency: 0.7
Mode: 0
LetterboxInBreaks: 0
WidescreenStoryboard: 1

[Editor]
Bookmarks: 57468,73161,94206,99579,101370,103609,107191,175249,193607
DistanceSpacing: 1.1
BeatDivisor: 3
GridSize: 4
TimelineZoom: 1.4

[Metadata]
Title:The River
TitleUnicode:The River
Artist:Breed 77
ArtistUnicode:Breed 77
Creator:Elirac
Version:Hard
Source:
Tags:Cultura Alternative metal rock flamenco
BeatmapID:1320567
BeatmapSetID:545450

[Difficulty]
HPDrainRate:4
CircleSize:3.5
OverallDifficulty:6
ApproachRate:7
SliderMultiplier:1.4
SliderTickRate:1

[Events]
//Background and Video events
0,0,"bg.jpg",0,0
//Break Periods
2,89926,92408
2,179478,192707
//Storyboard Layer 0 (Background)
//Storyboard Layer 1 (Fail)
//Storyboard Layer 2 (Pass)
//Storyboard Layer 3 (Foreground)
//Storyboard Sound Samples

[TimingPoints]
43139,447.761194029851,4,3,1,60,1,0
46721,471.698113207547,4,3,1,60,1,0
47192,447.761194029851,4,3,1,60,1,0
48534,447.761194029851,4,3,1,60,1,0
53012,705.882352941176,4,3,1,60,1,0
53012,-65.359477124183,4,3,1,60,0,0
53188,447.761194029851,4,3,1,60,1,0
53411,447.761194029851,4,3,1,60,1,0
53858,447.761194029851,4,3,1,60,1,0
56546,545.454545454546,4,3,1,60,1,0
56818,447.761194029851,4,3,1,60,1,0
57041,447.761194029851,4,3,1,60,1,0
57488,447.761194029851,4,3,1,60,1,0
71816,-76.9230769230769,4,3,1,70,0,1
89726,-133.333333333333,4,3,1,40,0,0
121967,-100,4,3,1,60,0,0
150622,-76.9230769230769,4,3,1,70,0,1
179279,-100,4,3,1,60,0,0
222264,-76.9230769230769,4,3,1,70,0,1
250473,-100,4,3,1,70,0,0

[Colours]
Combo1 : 61,61,169
Combo2 : 135,201,12
Combo3 : 108,164,247
Combo4 : 228,152,196

[HitObjects]
167,73,43138,5,6,0:1:0:0:
348,73,43586,2,0,P|355:119|335:160,1,70,0|0,0:0|0:0,0:0:0:0:
283,213,44034,1,8,0:1:0:0:
188,214,44259,1,0,0:1:0:0:
136,131,44483,2,0,P|174:115|229:124,1,70,0|0,0:1|0:0,0:0:0:0:
296,127,44931,5,2,0:2:0:0:
371,187,45153,1,0,0:0:0:0:
389,282,45377,2,0,P|356:300|306:294,1,70,0|0,0:1|0:0,0:0:0:0:
231,300,45826,1,8,0:1:0:0:
171,234,46050,1,0,0:1:0:0:
172,142,46274,2,0,P|129:128|86:142,1,70,0|0,0:1|0:1,0:0:0:0:
21,189,46722,6,0,P|33:266|87:283,1,140,6|0,0:2|0:0,0:0:0:0:
191,258,47415,1,0,0:0:0:0:
243,168,47639,1,8,0:1:0:0:
140,175,47863,1,0,0:1:0:0:
138,276,48087,6,0,P|154:328|183:344,1,70,0|0,0:1|0:1,0:0:0:0:
249,335,48535,2,0,P|278:314|288:268,1,70,2|0,0:2|0:1,0:0:0:0:
242,212,48981,2,0,P|235:166|259:129,1,70,0|0,0:1|0:1,0:0:0:0:
334,108,49430,2,0,P|336:55|317:22,1,70,8|0,0:1|0:0,0:0:0:0:
245,79,49877,2,0,P|234:116|260:161,1,70,0|0,0:1|0:0,0:0:0:0:
307,215,50326,6,0,P|391:186|408:129,1,140,6|0,0:2|0:0,0:0:0:0:
320,121,50997,1,0,0:0:0:0:
238,180,51221,1,8,0:1:0:0:
245,281,51445,1,0,0:0:0:0:
359,241,51669,2,0,P|334:210|299:197,1,70,0|0,0:0|0:0,0:0:0:0:
204,175,52117,5,2,0:2:0:0:
127,108,52339,1,0,0:0:0:0:
241,45,52563,2,0,P|251:93|224:128,1,70,0|0,0:0|0:0,0:0:0:0:
189,211,53012,2,0,P|195:261|204:274,1,53.5500024104692,8|0,0:1|0:0,0:0:0:0:
272,357,53411,5,4,0:3:0:0:
272,357,53523,1,8,0:3:0:0:
272,357,53635,1,8,0:3:0:0:
272,357,53747,1,8,0:3:0:0:
272,357,53859,2,0,P|315:361|350:344,1,70,6|0,0:2|0:0,0:0:0:0:
405,286,54305,1,0,0:0:0:0:
400,193,54529,1,0,0:0:0:0:
320,123,54753,6,0,P|286:107|241:115,1,70,8|0,0:1|0:0,0:0:0:0:
263,210,55201,2,0,P|297:226|342:218,1,70,0|0,0:0|0:0,0:0:0:0:
407,181,55649,2,0,P|422:149|420:115,1,70
320,123,56096,2,0,P|304:154|306:188,1,70,2|0,0:2|0:0,0:0:0:0:
357,267,56546,6,0,P|390:275|439:252,1,70,10|0,0:1|0:0,0:0:0:0:
480,187,57041,1,2,0:1:0:0:
470,91,57265,1,0,0:0:0:0:
377,50,57489,2,0,P|332:41|288:58,1,70,6|0,0:1|0:0,0:0:0:0:
224,90,57935,1,0,0:0:0:0:
313,125,58159,1,0,0:0:0:0:
390,188,58383,6,0,P|361:213|325:224,1,70,8|0,0:1|0:0,0:0:0:0:
233,239,58831,1,0,0:0:0:0:
146,190,59055,1,0,0:0:0:0:
50,221,59280,1,2,0:2:0:0:
23,317,59502,1,0,0:0:0:0:
112,363,59726,6,0,P|155:366|185:355,1,70,0|0,0:0|0:0,0:0:0:0:
251,298,60175,1,8,0:1:0:0:
248,206,60398,1,0,0:0:0:0:
246,108,60622,2,0,P|256:73|299:53,1,70,0|0,0:0|0:0,0:0:0:0:
377,50,61070,1,2,0:2:0:0:
460,105,61294,1,0,0:0:0:0:
483,207,61518,6,0,P|443:224|396:216,1,70,0|0,0:0|0:0,0:0:0:0:
326,216,61966,1,8,0:1:0:0:
352,310,62189,1,0,0:0:0:0:
251,333,62413,6,0,P|210:331|174:310,1,70,0|0,0:0|0:0,0:0:0:0:
160,230,62861,2,0,P|197:215|219:188,1,70,2|0,0:2|0:0,0:0:0:0:
217,97,63309,2,0,P|176:95|140:74,1,70,0|0,0:0|0:0,0:0:0:0:
81,10,63757,1,8,0:1:0:0:
9,76,63981,1,0,0:0:0:0:
45,169,64204,2,0,P|77:189|125:179,1,70,0|0,0:0|0:0,0:0:0:0:
166,98,64652,6,0,P|207:150|207:229,1,140,6|0,0:2|0:0,0:0:0:0:
150,308,65324,1,0,0:0:0:0:
55,271,65548,1,8,0:1:0:0:
45,169,65772,1,0,0:0:0:0:
129,115,65995,2,0,P|168:100|214:107,1,70,0|0,0:0|0:0,0:0:0:0:
179,203,66443,2,0,P|235:195|263:166,1,70,2|0,0:2|0:0,0:0:0:0:
319,133,66891,5,0,0:0:0:0:
397,183,67115,1,0,0:0:0:0:
419,286,67339,2,0,P|378:300|348:294,1,70,8|0,0:1|0:0,0:0:0:0:
268,251,67786,1,0,0:0:0:0:
249,158,68010,1,0,0:0:0:0:
270,62,68234,6,0,P|298:36|344:34,1,70,6|0,0:2|0:0,0:0:0:0:
443,36,68682,2,0,P|448:81|434:109,1,70,0|0,0:0|0:0,0:0:0:0:
355,158,69130,2,0,P|312:166|257:150,1,70,8|0,0:1|0:0,0:0:0:0:
192,148,69578,1,0,0:0:0:0:
99,169,69801,1,0,0:0:0:0:
49,256,70025,2,0,P|68:293|115:305,1,70,2|0,0:2|0:0,0:0:0:0:
191,304,70473,2,0,P|228:298|252:266,1,70,0|0,0:0|0:0,0:0:0:0:
298,195,70921,5,8,0:2:0:0:
298,195,71033,1,8,0:2:0:0:
298,195,71145,1,8,0:2:0:0:
298,195,71257,1,8,0:2:0:0:
298,195,71369,2,0,P|260:166|215:166,1,70,8|0,0:2|0:0,0:0:0:0:
146,158,71816,6,0,P|177:253|258:273,1,181.999991668702,6|0,0:1|0:0,0:0:0:0:
356,255,72488,1,2,0:3:0:0:
415,165,72712,1,10,0:1:0:0:
310,92,73159,6,0,P|315:139|287:192,1,90.9999958343508,0|2,0:2|0:3,0:0:0:0:
191,150,73607,2,0,P|186:197|214:250,1,90.9999958343508,2|0,0:2|0:0,0:0:0:0:
272,318,74056,1,2,0:1:0:0:
171,352,74280,1,2,0:3:0:0:
71,316,74502,1,10,0:1:0:0:
66,142,74950,6,0,P|111:123|158:141,1,90.9999958343508,0|2,0:0|0:3,0:0:0:0:
182,237,75398,2,0,P|227:256|274:238,1,90.9999958343508,6|0,0:2|0:0,0:0:0:0:
357,187,75847,1,0,0:0:0:0:
355,80,76071,1,2,0:3:0:0:
237,52,76294,2,0,P|222:105|235:161,1,90.9999958343508,10|0,0:1|0:0,0:0:0:0:
265,244,76741,6,0,P|308:264|372:250,1,90.9999958343508,0|2,0:0|0:3,0:0:0:0:
452,227,77189,1,2,0:2:0:0:
476,123,77413,1,0,0:0:0:0:
396,45,77637,2,0,P|328:56|280:38,1,90.9999958343508,2|2,0:1|0:3,0:0:0:0:
210,6,78085,1,10,0:1:0:0:
131,81,78308,6,0,P|81:77|49:48,2,90.9999958343508,0|0|0,0:0|0:0|0:0,0:0:0:0:
242,75,78980,2,0,P|244:145|224:179,1,90.9999958343508,6|0,0:1|0:0,0:0:0:0:
171,247,79429,2,0,P|165:290|190:338,1,90.9999958343508,2|2,0:3|0:0,0:0:0:0:
290,360,79877,1,10,0:1:0:0:
367,285,80099,1,0,0:0:0:0:
353,179,80323,1,2,0:3:0:0:
265,231,80547,6,0,P|318:276|443:257,1,181.999991668702,10|0,0:1|0:3,0:0:0:0:
509,197,81220,1,2,0:3:0:0:
450,103,81444,1,0,0:0:0:0:
343,76,81667,1,10,0:1:0:0:
304,309,82114,1,10,0:1:0:0:
135,343,82562,6,0,P|90:348|49:329,1,90.9999958343508,6|0,0:2|0:0,0:0:0:0:
10,234,83010,2,0,P|26:184|73:154,1,90.9999958343508,2|2,0:3|0:0,0:0:0:0:
160,230,83458,2,0,P|201:249|262:233,1,90.9999958343508,10|0,0:1|0:0,0:0:0:0:
309,168,83905,1,2,0:3:0:0:
376,80,84129,2,0,P|416:151|376:254,1,181.999991668702,14|0,0:1|0:0,0:0:0:0:
298,306,84801,1,2,0:3:0:0:
190,277,85026,1,0,0:0:0:0:
153,172,85250,1,10,0:1:0:0:
345,36,85696,6,0,P|358:89|339:150,1,90.9999958343508,10|0,0:1|0:0,0:0:0:0:
295,214,86144,2,0,P|372:247|480:206,1,181.999991668702,6|2,0:2|0:3,0:0:0:0:
493,119,86816,1,2,0:3:0:0:
471,16,87040,1,8,0:1:0:0:
351,124,87489,6,0,P|290:143|247:132,1,90.9999958343508,2|2,0:3|0:3,0:0:0:0:
175,196,87935,2,0,P|218:228|284:223,1,90.9999958343508,2|2,0:1|0:3,0:0:0:0:
360,218,88383,1,2,0:3:0:0:
460,258,88607,1,2,0:3:0:0:
379,319,88832,1,10,0:1:0:0:
222,314,89279,6,0,L|186:347,2,45.4999979171754,4|8|8,0:3|0:3|0:3,0:0:0:0:
297,250,89726,1,4,0:2:0:0:
145,87,93308,5,4,1:2:0:0:
138,166,93756,1,2,0:3:0:0:
158,241,94204,2,0,P|179:284|228:312,1,105.000004005432,8|2,0:1|0:3,0:0:0:0:
303,320,95099,1,2,0:3:0:0:
365,272,95548,2,0,P|406:313|411:361,2,105.000004005432,2|8|2,0:3|0:1|1:3,0:0:0:0:
293,239,96890,5,2,1:3:0:0:
243,178,97339,1,2,0:3:0:0:
239,99,97786,1,8,0:1:0:0:
275,29,98235,1,2,0:3:0:0:
352,10,98683,1,2,0:3:0:0:
408,65,99130,6,0,P|448:57|512:11,2,105.000004005432,2|8|2,0:3|0:1|1:3,0:0:0:0:
331,83,100473,5,2,1:3:0:0:
265,126,100921,1,2,0:3:0:0:
237,200,101368,1,8,0:1:0:0:
257,281,101816,1,2,0:3:0:0:
257,281,102041,1,2,0:2:0:0:
312,339,102488,6,0,L|271:380,2,52.5000020027161,2|4|0,0:2|0:2|0:0,0:0:0:0:
367,287,103159,1,0,0:0:0:0:
438,249,103607,1,2,0:3:0:0:
481,181,104056,1,6,1:1:0:0:
477,101,104502,1,2,0:3:0:0:
423,44,104950,6,0,P|367:33|316:47,1,105.000004005432,8|2,0:1|0:3,0:0:0:0:
265,99,105846,1,2,0:3:0:0:
259,178,106294,1,4,0:2:0:0:
295,248,106741,1,8,0:1:0:0:
224,338,107189,5,2,0:3:0:0:
142,256,107638,2,0,P|133:193|156:143,1,105.000004005432,6|2,0:1|0:3,0:0:0:0:
230,75,108532,1,8,0:1:0:0:
345,77,108980,1,2,0:3:0:0:
426,158,109429,1,2,0:3:0:0:
427,273,109877,5,2,0:3:0:0:
316,303,110323,2,0,P|257:294|210:247,1,105.000004005432,8|2,0:1|0:3,0:0:0:0:
155,171,111220,5,2,1:3:0:0:
243,94,111668,1,2,0:3:0:0:
325,175,112114,2,0,P|376:179|429:142,1,105.000004005432,8|0,0:1|0:0,0:0:0:0:
371,48,113010,1,2,0:3:0:0:
259,17,113459,1,2,0:3:0:0:
158,72,113906,5,8,0:1:0:0:
147,187,114354,1,2,1:3:0:0:
185,295,114801,2,0,P|250:303|305:273,1,105.000004005432,2|2,1:3|0:3,0:0:0:0:
354,195,115696,1,8,0:1:0:0:
329,82,116145,6,0,P|262:69|214:82,1,105.000004005432,2|2,0:3|0:3,0:0:0:0:
194,103,116816,1,0,0:0:0:0:
181,143,117041,1,4,0:2:0:0:
181,185,117265,1,0,0:0:0:0:
195,224,117489,1,8,0:1:0:0:
285,295,117935,1,2,1:3:0:0:
388,244,118383,1,2,1:3:0:0:
404,129,118832,5,2,0:3:0:0:
308,64,119280,2,0,P|244:66|203:100,1,105.000004005432,8|2,0:1|0:3,0:0:0:0:
174,198,120174,1,2,0:3:0:0:
229,299,120623,1,2,0:3:0:0:
343,311,121070,1,14,0:1:0:0:
424,228,121518,1,14,0:1:0:0:
316,87,121965,5,6,0:2:0:0:
344,225,122413,2,0,P|304:232|266:218,1,70,0|0,0:0|0:0,0:0:0:0:
188,182,122861,1,10,0:1:0:0:
174,85,123086,1,0,0:0:0:0:
248,19,123308,2,0,P|276:57|274:102,1,70,0|0,0:0|0:0,0:0:0:0:
270,174,123756,5,2,0:2:0:0:
213,251,123980,1,0,0:0:0:0:
188,343,124204,2,0,P|232:344|268:328,1,70,0|0,0:0|0:0,0:0:0:0:
329,267,124652,2,0,P|290:240|242:239,1,70,10|0,0:1|0:0,0:0:0:0:
169,231,125099,2,0,P|133:222|103:193,1,70,0|0,0:0|0:0,0:0:0:0:
79,109,125547,6,0,P|134:52|218:55,1,140,6|0,0:2|0:0,0:0:0:0:
281,60,126219,1,0,0:0:0:0:
353,116,126443,1,10,0:1:0:0:
365,206,126667,1,0,0:0:0:0:
353,297,126891,6,0,P|317:311|269:299,1,70,0|0,0:0|0:0,0:0:0:0:
205,260,127339,2,0,P|187:213|190:176,1,70,2|0,0:2|0:0,0:0:0:0:
283,190,127786,2,0,P|280:148|256:98,1,70,0|0,0:0|0:0,0:0:0:0:
229,36,128234,2,0,P|189:27|141:30,1,70,10|0,0:1|0:0,0:0:0:0:
97,101,128682,2,0,P|128:115|165:113,1,70,0|0,0:0|0:0,0:0:0:0:
262,100,129130,6,0,P|335:102|393:141,1,140,6|0,0:2|0:0,0:0:0:0:
426,228,129801,1,0,0:0:0:0:
379,313,130025,2,0,P|340:324|302:312,1,70,10|0,0:1|0:0,0:0:0:0:
236,259,130473,1,0,0:0:0:0:
224,164,130697,1,0,0:0:0:0:
252,72,130921,6,0,P|211:56|162:61,1,70,2|0,0:2|0:0,0:0:0:0:
99,97,131369,2,0,P|97:152|115:174,1,70,0|0,0:0|0:0,0:0:0:0:
161,237,131816,2,0,P|166:285|148:325,1,70,10|0,0:1|0:0,0:0:0:0:
88,354,132264,5,4,0:3:0:0:
88,354,132375,1,8,0:3:0:0:
88,354,132487,1,8,0:3:0:0:
88,354,132599,1,8,0:3:0:0:
88,354,132712,2,0,P|48:333|39:298,1,70,4|0,0:2|0:0,0:0:0:0:
41,212,133160,1,0,0:0:0:0:
105,136,133384,1,0,0:0:0:0:
202,107,133607,6,0,P|239:104|274:127,1,70,10|0,0:1|0:0,0:0:0:0:
281,219,134055,2,0,P|243:221|208:198,1,70,0|0,0:0|0:0,0:0:0:0:
202,107,134503,2,0,P|199:70|222:35,1,70,2|0,0:2|0:0,0:0:0:0:
314,28,134951,2,0,P|316:66|293:101,1,70
259,184,135398,6,0,P|242:222|250:264,1,70,10|0,0:1|0:0,0:0:0:0:
292,330,135846,1,2,0:1:0:0:
385,332,136070,1,0,0:0:0:0:
403,238,136294,6,0,P|394:196|363:155,1,70,6|0,0:1|0:0,0:0:0:0:
309,110,136742,1,0,0:0:0:0:
218,86,136966,1,0,0:0:0:0:
132,130,137189,2,0,P|123:175|138:206,1,70,10|0,0:1|0:0,0:0:0:0:
186,281,137637,6,0,P|234:291|268:269,1,70,0|0,0:0|0:0,0:0:0:0:
335,238,138085,1,2,0:2:0:0:
264,176,138309,1,0,0:0:0:0:
169,191,138533,2,0,P|124:198|81:178,1,70,0|0,0:0|0:0,0:0:0:0:
18,141,138981,2,0,P|19:103|43:70,1,70,10|0,0:1|0:0,0:0:0:0:
122,34,139428,5,0,0:0:0:0:
217,52,139652,1,0,0:0:0:0:
273,129,139876,2,0,P|242:144|191:144,1,70,2|0,0:2|0:0,0:0:0:0:
111,149,140324,1,0,0:0:0:0:
46,219,140548,1,0,0:0:0:0:
102,304,140772,2,0,P|142:320|180:315,1,70,10|0,0:1|0:0,0:0:0:0:
263,306,141219,5,0,0:0:0:0:
323,231,141443,1,0,0:2:0:0:
301,131,141667,2,0,P|265:112|221:114,1,70,2|0,0:2|0:0,0:0:0:0:
149,151,142115,2,0,P|146:188|164:224,1,70,0|0,0:2|0:0,0:0:0:0:
214,299,142563,2,0,P|175:316|119:307,1,70,10|0,0:1|0:0,0:0:0:0:
54,295,143010,6,0,P|23:220|48:149,1,140,0|6,0:0|0:1,0:0:0:0:
89,80,143682,1,0,0:0:0:0:
184,50,143906,1,0,0:0:0:0:
280,77,144130,1,0,0:0:0:0:
326,165,144354,2,0,P|293:191|240:187,1,70,10|0,0:1|0:0,0:0:0:0:
168,206,144801,2,0,P|148:247|158:281,1,70,0|0,0:0|0:0,0:0:0:0:
211,344,145249,5,2,0:2:0:0:
306,349,145473,1,0,0:0:0:0:
388,289,145697,2,0,P|407:232|400:198,1,70,0|0,0:0|0:0,0:0:0:0:
392,128,146145,1,10,0:1:0:0:
322,62,146369,1,0,0:0:0:0:
232,89,146592,2,0,P|251:128|285:148,1,70,0|0,0:0|0:0,0:0:0:0:
357,193,147040,6,0,P|335:238|295:251,1,70,4|0,0:2|0:0,0:0:0:0:
220,259,147488,2,0,P|185:235|176:190,1,70,0|0,0:0|0:0,0:0:0:0:
187,111,147936,2,0,P|207:71|235:57,1,70,10|0,0:1|0:0,0:0:0:0:
322,40,148384,5,0,0:0:0:0:
412,73,148607,1,8,0:1:0:0:
462,165,148831,2,0,P|431:181|384:180,1,70,2|0,0:2|0:0,0:0:0:0:
299,188,149279,2,0,P|255:195|226:216,1,70,10|0,0:1|0:0,0:0:0:0:
197,276,149726,2,0,L|213:327,3,46.6666666666667,8|8|8|12,0:2|0:2|0:2|0:3,0:0:0:0:
349,261,150622,6,0,P|372:168|325:96,1,181.999991668702,6|0,0:1|0:2,0:0:0:0:
233,51,151294,1,2,0:3:0:0:
132,85,151518,1,10,0:1:0:0:
247,204,151966,6,0,P|255:251|232:291,1,90.9999958343508,0|2,0:0|0:3,0:0:0:0:
156,226,152413,2,0,P|148:179|171:139,1,90.9999958343508,2|0,0:2|0:0,0:0:0:0:
250,74,152861,1,0,0:0:0:0:
356,78,153085,1,2,0:0:0:0:
437,147,153309,1,10,0:1:0:0:
338,266,153757,6,0,P|349:216|329:162,1,90.9999958343508,0|2,0:0|0:3,0:0:0:0:
259,124,154204,2,0,P|248:174|268:228,1,90.9999958343508,6|0,0:2|0:0,0:0:0:0:
319,299,154652,1,0,0:0:0:0:
425,297,154876,1,2,0:0:0:0:
480,206,155100,1,10,0:1:0:0:
446,105,155324,1,0,0:0:0:0:
351,149,155548,6,0,P|296:162|255:148,1,90.9999958343508,0|2,0:0|0:0,0:0:0:0:
171,101,155995,1,6,0:2:0:0:
65,97,156219,1,0,0:0:0:0:
28,204,156443,2,0,P|100:219|144:204,1,90.9999958343508,2|2,0:2|0:0,0:0:0:0:
219,186,156891,1,14,0:1:0:0:
277,101,157115,6,0,P|235:85|181:91,2,90.9999958343508,0|0|2,0:0|0:0|0:0,0:0:0:0:
363,164,157786,2,0,P|366:223|334:261,1,90.9999958343508,6|0,0:2|0:0,0:0:0:0:
254,296,158234,2,0,P|192:297|161:266,1,90.9999958343508,2|0,0:0|0:0,0:0:0:0:
112,192,158682,1,10,0:1:0:0:
122,86,158906,1,2,0:0:0:0:
212,29,159130,1,2,0:0:0:0:
318,34,159354,6,0,P|331:103|268:215,1,181.999991668702,10|0,0:1|0:0,0:0:0:0:
179,234,160025,1,2,0:1:0:0:
75,194,160249,1,0,0:0:0:0:
61,84,160473,1,10,0:1:0:0:
289,114,160921,1,10,0:1:0:0:
472,206,161369,6,0,P|477:249|459:302,1,90.9999958343508,6|0,0:2|0:0,0:0:0:0:
377,354,161816,2,0,P|326:361|280:343,1,90.9999958343508,2|0,0:0|0:0,0:0:0:0:
223,267,162264,2,0,P|206:225|218:169,1,90.9999958343508,10|0,0:1|0:0,0:0:0:0:
255,86,162712,1,2,0:0:0:0:
349,38,162936,6,0,P|364:126|334:224,1,181.999991668702,10|0,0:1|0:0,0:0:0:0:
261,286,163607,1,2,0:0:0:0:
156,285,163831,1,0,0:0:0:0:
77,213,164055,1,10,0:1:0:0:
192,51,164503,6,0,P|177:92|187:137,1,90.9999958343508,10|0,0:1|0:0,0:0:0:0:
246,226,164951,2,0,P|341:253|421:214,1,181.999991668702,6|0,0:1|0:0,0:0:0:0:
470,135,165622,1,2,0:0:0:0:
446,34,165846,1,10,0:1:0:0:
269,56,166294,6,0,P|265:106|291:152,1,90.9999958343508,0|2,0:0|0:0,0:0:0:0:
346,226,166742,2,0,P|356:290|337:331,1,90.9999958343508,2|0,0:2|0:0,0:0:0:0:
254,362,167189,1,0,0:0:0:0:
151,337,167413,1,2,0:0:0:0:
97,246,167637,1,10,0:1:0:0:
211,80,168085,5,2,0:1:0:0:
190,183,168309,1,0,0:0:0:0:
206,288,168533,2,0,P|236:332|291:332,1,90.9999958343508,6|0,0:2|0:0,0:0:0:0:
374,319,168981,1,0,0:0:0:0:
415,223,169204,1,2,0:0:0:0:
315,192,169428,6,0,P|274:167|264:115,1,90.9999958343508,10|0,0:1|0:0,0:0:0:0:
298,43,169876,2,0,P|356:40|394:56,1,90.9999958343508,0|2,0:0|0:0,0:0:0:0:
466,122,170324,1,2,0:2:0:0:
476,228,170548,1,0,0:0:0:0:
406,307,170772,2,0,P|357:323|310:309,1,90.9999958343508,2|2,0:1|0:0,0:0:0:0:
235,252,171219,1,10,0:1:0:0:
210,149,171443,6,0,P|146:149|104:175,2,90.9999958343508,2|2|2,0:3|0:3|0:3,0:0:0:0:
313,179,172115,2,0,P|362:178|411:153,1,90.9999958343508,6|0,0:2|0:0,0:0:0:0:
457,72,172563,2,0,P|406:56|345:68,1,90.9999958343508,2|2,0:0|0:0,0:0:0:0:
269,95,173010,1,10,0:1:0:0:
163,102,173234,1,2,0:0:0:0:
74,43,173458,1,2,0:0:0:0:
28,137,173682,6,0,P|52:233|129:253,1,181.999991668702,10|0,0:1|0:0,0:0:0:0:
233,231,174354,1,2,0:0:0:0:
318,159,174578,1,0,0:0:0:0:
316,48,174801,1,10,0:1:0:0:
82,49,175249,1,10,0:1:0:0:
37,252,175697,6,0,P|94:265|133:246,1,90.9999958343508,6|0,0:1|0:0,0:0:0:0:
224,219,176145,2,0,P|281:209|322:224,1,90.9999958343508,0|2,0:0|0:0,0:0:0:0:
403,271,176592,2,0,P|381:341|353:353,1,90.9999958343508,0|0,0:0|0:0,0:0:0:0:
264,359,177040,1,0,0:0:0:0:
173,305,177264,6,0,P|144:223|167:120,1,181.999991668702,14|0,0:1|0:0,0:0:0:0:
211,38,177936,2,0,P|251:69|262:115,1,90.9999958343508,8|0,0:1|0:0,0:0:0:0:
256,210,178384,1,2,0:0:0:0:
289,308,178607,1,0,0:0:0:0:
384,350,178831,1,10,0:1:0:0:
462,279,179055,6,0,L|504:236,2,45.4999979171754,8|8|4,0:3|0:3|0:3,0:0:0:0:
296,290,193607,5,6,0:1:0:0:
428,240,194055,2,0,P|443:199|434:165,1,70,0|0,0:0|0:0,0:0:0:0:
402,87,194503,1,8,0:1:0:0:
312,61,194727,1,0,0:0:0:0:
230,97,194951,2,0,P|249:128|284:146,1,70,0|0,0:0|0:0,0:0:0:0:
369,163,195398,5,2,0:2:0:0:
428,236,195622,1,0,0:0:0:0:
361,307,195846,2,0,P|324:314|288:300,1,70,0|0,0:0|0:0,0:0:0:0:
206,267,196294,2,0,P|160:258|118:271,1,70,8|0,0:1|0:0,0:0:0:0:
46,285,196742,2,0,P|33:242|39:203,1,70,0|0,0:0|0:0,0:0:0:0:
61,125,197189,6,0,P|131:112|191:145,1,140,6|0,0:2|0:0,0:0:0:0:
261,206,197861,1,0,0:0:0:0:
351,235,198085,1,8,0:1:0:0:
439,201,198309,1,0,0:0:0:0:
435,105,198533,6,0,P|402:89|360:99,1,70,0|0,0:0|0:0,0:0:0:0:
309,167,198981,2,0,P|342:183|384:173,1,70,2|0,0:2|0:0,0:0:0:0:
370,93,199428,2,0,P|337:77|295:87,1,70
219,125,199876,2,0,P|172:126|133:102,1,70,8|0,0:1|0:0,0:0:0:0:
71,64,200324,2,0,P|30:50|-9:57,1,70
8,177,200772,6,0,P|47:231|123:237,1,140,6|0,0:2|0:0,0:0:0:0:
206,200,201443,1,0,0:0:0:0:
297,164,201667,2,0,P|349:161|377:180,1,70,8|0,0:1|0:0,0:0:0:0:
436,229,202115,1,0,0:0:0:0:
413,320,202339,1,0,0:0:0:0:
324,350,202563,6,0,P|285:357|246:337,1,70,2|0,0:2|0:0,0:0:0:0:
200,272,203010,2,0,P|189:233|199:198,1,70,0|0,0:0|0:0,0:0:0:0:
209,110,203458,2,0,P|178:80|127:80,1,70,8|0,0:1|0:0,0:0:0:0:
82,124,203906,5,4,0:3:0:0:
82,124,204017,1,8,0:3:0:0:
82,124,204129,1,8,0:3:0:0:
82,124,204241,1,8,0:3:0:0:
82,124,204354,2,0,P|79:169|99:195,1,70,4|0,0:2|0:0,0:0:0:0:
173,236,204801,1,0,0:0:0:0:
266,220,205025,1,0,0:0:0:0:
335,152,205249,6,0,P|357:117|351:72,1,70,10|0,0:1|0:0,0:0:0:0:
259,100,205697,2,0,P|237:135|243:180,1,70,0|0,0:0|0:0,0:0:0:0:
238,257,206145,2,0,P|206:271|172:266,1,70,2|0,0:1|0:0,0:0:0:0:
109,190,206593,2,0,P|143:156|191:156,1,70
259,162,207040,6,0,P|301:173|334:161,1,70,10|0,0:1|0:0,0:0:0:0:
417,135,207488,1,2,0:1:0:0:
464,51,207712,1,0,0:0:0:0:
370,28,207936,6,0,P|322:25|286:56,1,70,6|0,0:2|0:0,0:0:0:0:
247,109,208384,1,0,0:0:0:0:
163,151,208607,1,0,0:0:0:0:
73,127,208831,2,0,P|65:80|85:45,1,70,10|0,0:1|0:0,0:0:0:0:
152,15,209279,6,0,P|187:44|189:82,1,70,0|0,0:0|0:0,0:0:0:0:
206,161,209727,1,2,0:1:0:0:
185,250,209951,1,0,0:0:0:0:
91,275,210175,2,0,P|71:238|76:206,1,70,0|0,0:0|0:0,0:0:0:0:
115,126,210622,2,0,P|151:117|184:129,1,70,10|0,0:1|0:0,0:0:0:0:
261,179,211070,5,0,0:0:0:0:
354,197,211294,1,0,0:0:0:0:
433,141,211518,2,0,P|402:101|357:95,1,70,6|0,0:2|0:0,0:0:0:0:
291,85,211966,1,0,0:0:0:0:
203,118,212189,1,0,0:0:0:0:
184,210,212413,2,0,P|197:243|227:264,1,70,10|0,0:1|0:0,0:0:0:0:
316,291,212861,5,0,0:0:0:0:
410,273,213085,1,0,0:0:0:0:
356,194,213309,2,0,P|340:151|348:112,1,70,2|0,0:2|0:0,0:0:0:0:
434,131,213757,2,0,P|435:91|422:59,1,70,0|0,0:0|0:0,0:0:0:0:
345,16,214204,2,0,P|313:11|273:30,1,70,10|0,0:1|0:0,0:0:0:0:
215,97,214652,6,0,P|215:179|257:221,1,140,4|6,0:2|0:2,0:0:0:0:
336,262,215324,1,0,0:0:0:0:
269,328,215548,1,2,0:1:0:0:
176,315,215772,1,0,0:0:0:0:
120,239,215995,2,0,P|100:192|107:150,1,70,10|0,0:1|0:0,0:0:0:0:
106,80,216443,2,0,P|148:75|190:86,1,70,0|0,0:0|0:0,0:0:0:0:
269,97,216891,5,2,0:1:0:0:
355,138,217115,1,0,0:0:0:0:
322,227,217339,2,0,P|349:265|384:270,1,70,0|0,0:0|0:0,0:0:0:0:
464,264,217786,2,0,P|483:235|485:192,1,70,10|0,0:1|0:0,0:0:0:0:
443,117,218234,1,0,0:0:0:0:
356,81,218458,1,0,0:0:0:0:
264,54,218682,6,0,P|224:46|181:60,1,70,6|0,0:2|0:0,0:0:0:0:
116,103,219130,2,0,P|145:136|179:143,1,70,0|0,0:0|0:0,0:0:0:0:
262,173,219578,2,0,P|304:182|350:166,1,70,10|0,0:1|0:0,0:0:0:0:
378,94,220025,2,0,P|336:85|290:101,1,70,0|8,0:0|0:1,0:0:0:0:
262,173,220473,2,0,P|253:215|269:261,1,70,2|0,0:2|0:0,0:0:0:0:
341,289,220920,2,0,P|350:247|334:201,1,70,8|0,0:1|0:0,0:0:0:0:
323,143,221368,5,8,0:2:0:0:
323,143,221480,1,8,0:2:0:0:
323,143,221592,1,8,0:2:0:0:
323,143,221704,1,8,0:2:0:0:
323,143,221816,2,0,P|279:170|242:172,1,70,12|12,0:3|0:3,0:0:0:0:
148,194,222264,6,0,P|155:292|252:301,1,181.999991668702,6|0,0:1|0:0,0:0:0:0:
323,273,222936,1,2,0:0:0:0:
330,167,223160,1,10,0:1:0:0:
469,92,223607,6,0,P|474:149|452:191,1,90.9999958343508,0|2,0:0|0:3,0:0:0:0:
370,234,224055,2,0,P|319:245|277:227,1,90.9999958343508,2|0,0:2|0:0,0:0:0:0:
208,156,224503,1,0,0:0:0:0:
220,50,224727,1,2,0:0:0:0:
312,7,224951,1,10,0:1:0:0:
408,155,225398,6,0,P|367:166|315:154,1,90.9999958343508,0|2,0:0|0:0,0:0:0:0:
218,124,225846,2,0,P|193:187|333:317,1,272.999987503052,6|0,0:2|0:0,0:0:0:0:
420,291,226742,1,10,0:1:0:0:
359,192,227189,6,0,P|315:212|263:195,1,90.9999958343508,0|0,0:0|0:0,0:0:0:0:
190,143,227637,1,0,0:0:0:0:
87,128,227861,1,0,0:0:0:0:
58,229,228085,2,0,P|102:260|144:258,1,90.9999958343508,0|2,0:0|0:0,0:0:0:0:
240,229,228533,1,10,0:1:0:0:
295,139,228757,6,0,P|260:91|208:74,2,90.9999958343508,0|0|2,0:0|0:0|0:0,0:0:0:0:
346,230,229428,2,0,P|395:186|397:152,1,90.9999958343508,6|0,0:1|0:0,0:0:0:0:
398,59,229876,2,0,P|346:38|293:51,1,90.9999958343508,2|2,0:3|0:0,0:0:0:0:
216,87,230324,1,10,0:1:0:0:
174,184,230548,1,2,0:0:0:0:
194,288,230772,1,2,0:0:0:0:
283,344,230995,6,0,P|305:260|283:156,1,181.999991668702,10|0,0:1|0:0,0:0:0:0:
240,67,231667,1,2,0:0:0:0:
130,55,231891,1,0,0:0:0:0:
31,105,232115,1,10,0:1:0:0:
153,307,232563,1,10,0:1:0:0:
288,225,233010,6,0,P|250:230|191:207,1,90.9999958343508,6|0,0:1|0:0,0:0:0:0:
119,147,233458,2,0,P|137:95|167:76,1,90.9999958343508,2|2,0:0|0:0,0:0:0:0:
268,48,233906,1,10,0:1:0:0:
370,75,234130,1,0,0:0:0:0:
410,173,234354,1,2,0:0:0:0:
382,274,234578,6,0,P|298:297|204:269,1,181.999991668702,10|0,0:1|0:0,0:0:0:0:
160,172,235249,1,2,0:0:0:0:
174,62,235473,1,0,0:0:0:0:
267,2,235697,1,10,0:1:0:0:
260,179,236145,6,0,P|287:143|280:77,1,90.9999958343508,10|2,0:1|0:0,0:0:0:0:
189,106,236592,2,0,P|144:156|147:268,1,181.999991668702,6|0,0:1|0:0,0:0:0:0:
234,326,237264,1,2,0:0:0:0:
337,298,237488,1,10,0:1:0:0:
218,161,237936,6,0,P|276:173|323:158,1,90.9999958343508,0|2,0:0|0:0,0:0:0:0:
409,139,238384,2,0,P|417:190|401:239,1,90.9999958343508,2|0,0:2|0:0,0:0:0:0:
356,317,238831,1,0,0:0:0:0:
256,346,239055,1,2,0:0:0:0:
154,326,239279,1,10,0:1:0:0:
182,74,239727,6,0,P|242:90|268:119,1,90.9999958343508,0|2,0:0|0:0,0:0:0:0:
307,205,240175,2,0,P|242:235|136:179,1,181.999991668702,6|0,0:2|0:0,0:0:0:0:
113,95,240846,1,2,0:0:0:0:
154,0,241070,1,10,0:1:0:0:
327,62,241518,6,0,P|334:122|323:161,1,90.9999958343508,0|2,0:0|0:0,0:0:0:0:
293,252,241966,2,0,P|264:289|201:299,1,90.9999958343508,2|0,0:2|0:0,0:0:0:0:
118,292,242413,1,0,0:0:0:0:
54,208,242637,1,2,0:0:0:0:
59,103,242861,1,10,0:1:0:0:
129,24,243085,6,0,P|169:27|216:71,2,90.9999958343508,0|0|2,0:0|0:0|0:0,0:0:0:0:
29,59,243757,2,0,P|66:108|98:119,1,90.9999958343508,6|0,0:1|0:0,0:0:0:0:
194,137,244204,2,0,P|254:131|292:103,1,90.9999958343508,2|2,0:0|0:0,0:0:0:0:
371,66,244652,2,0,P|415:59|459:74,1,90.9999958343508,10|2,0:1|0:0,0:0:0:0:
496,170,245100,1,2,0:0:0:0:
471,270,245324,6,0,P|385:298|299:273,1,181.999991668702,12|4,0:1|0:2,0:0:0:0:
214,210,245995,1,2,0:0:0:0:
105,190,246219,1,0,0:0:0:0:
0,227,246443,1,14,0:1:0:0:
203,343,246891,1,14,0:1:0:0:
323,202,247339,6,0,P|336:155|311:101,1,90.9999958343508,4|0,0:2|0:0,0:0:0:0:
246,159,247786,2,0,P|233:206|258:260,1,90.9999958343508,2|0,0:0|0:0,0:0:0:0:
321,308,248234,2,0,P|367:314|417:289,1,90.9999958343508,10|0,0:1|0:0,0:0:0:0:
458,207,248682,1,2,0:0:0:0:
426,106,248906,2,0,P|329:73|242:92,1,181.999991668702,12|4,0:1|0:1,0:0:0:0:
161,139,249578,2,0,P|157:186|187:236,1,90.9999958343508,12|0,0:1|0:0,0:0:0:0:
256,317,250025,5,8,0:1:0:0:
256,317,250136,1,8,0:1:0:0:
256,317,250248,1,8,0:1:0:0:
256,317,250360,1,8,0:1:0:0:
256,317,250473,2,0,P|220:330|172:326,1,70,14|0,0:2|0:0,0:0:0:0:
100,292,250921,2,0,P|87:227|105:155,1,140,6|0,0:2|0:0,0:0:0:0:
147,83,251592,1,2,0:0:0:0:
237,76,251816,6,0,P|266:154|247:219,1,140,14|0,0:1|0:0,0:0:0:0:
199,274,252488,1,2,0:0:0:0:
136,212,252712,2,0,P|121:187|129:129,1,70,6|0,0:2|0:0,0:0:0:0:
150,65,253160,1,0,0:0:0:0:
227,26,253384,1,2,0:0:0:0:
313,33,253607,6,0,P|328:73|326:108,1,70,10|0,0:2|0:0,0:0:0:0:
289,175,254055,1,2,0:1:0:0:
210,206,254279,1,2,0:1:0:0:
147,270,254503,2,0,P|186:294|216:297,1,70,6|0,0:2|0:0,0:0:0:0:
295,286,254951,1,0,0:0:0:0:
357,226,255175,1,2,0:0:0:0:
372,140,255398,6,0,P|309:114|214:119,1,140,14|0,0:1|0:0,0:0:0:0:
159,147,256070,1,2,0:0:0:0:
131,228,256294,1,2,0:2:0:0:
177,300,256518,1,0,0:0:0:0:
259,328,256742,2,0,P|301:322|328:302,1,70,0|2,0:0|0:0,0:0:0:0:
379,242,257189,6,0,P|358:209|315:194,1,70,10|0,0:1|0:0,0:0:0:0:
252,167,257637,1,0,0:0:0:0:
205,97,257861,1,2,0:0:0:0:
245,24,258085,2,0,P|321:5|387:15,1,140,4|0,0:2|0:0,0:0:0:0:
438,77,258757,1,2,0:0:0:0:
428,161,258981,6,0,P|377:217|308:224,1,140,14|0,0:1|0:0,0:0:0:0:
234,204,259652,1,2,0:0:0:0:
194,127,259876,2,0,P|157:127|125:148,1,70,2|0,0:1|0:0,0:0:0:0:
86,214,260324,2,0,P|114:236|149:233,1,70,0|2,0:0|0:0,0:0:0:0:
233,213,260772,6,0,P|269:208|311:222,1,70,10|0,0:1|0:0,0:0:0:0:
382,246,261219,2,0,P|422:254|457:243,1,70,8|2,0:1|0:0,0:0:0:0:
512,184,261667,2,0,P|513:148|502:111,1,70,6|2,0:2|0:3,0:0:0:0:
453,48,262115,1,8,0:1:0:0:
369,35,262339,1,4,0:2:0:0:
285,41,262563,6,0,P|252:70|252:104,1,70,0|2,0:1|0:3,0:0:0:0:
259,179,263010,1,8,0:1:0:0:
322,237,263234,1,4,0:2:0:0:
343,320,263458,2,0,P|307:331|269:324,1,70,2|2,0:1|0:0,0:0:0:0:
199,285,263906,1,8,0:1:0:0:
183,199,264130,1,4,0:2:0:0:
197,113,264354,6,0,P|247:97|283:116,1,70,0|0,0:0|0:0,0:0:0:0:
333,130,264689,2,0,L|315:166,5,35,8|8|8|8|8|4,0:2|0:1|0:2|0:3|0:3|0:2,0:0:0:0:
362,301,265697,2,0,P|321:311|284:304,1,70,0|2,0:0|0:0,0:0:0:0:
214,276,266145,6,0,P|185:202|192:142,1,140,14|0,0:1|0:0,0:0:0:0:
224,64,266816,1,2,0:0:0:0:
307,45,267040,2,0,P|311:87|299:129,1,70,2|0,0:1|0:0,0:0:0:0:
283,197,267488,2,0,P|325:209|360:201,1,70,0|2,0:0|0:0,0:0:0:0:
431,182,267936,6,0,P|434:144|417:103,1,70,14|0,0:1|0:0,0:0:0:0:
340,79,268384,2,0,P|337:117|354:158,1,70,2|2,0:2|0:3,0:0:0:0:
378,228,268831,2,0,P|336:241|300:236,1,70,6|0,0:2|0:0,0:0:0:0:
228,219,269279,1,0,0:0:0:0:
173,155,269503,1,2,0:0:0:0:
167,71,269727,6,0,P|93:84|41:144,1,140,14|0,0:1|0:0,0:0:0:0:
38,213,270398,1,2,0:0:0:0:
51,297,270622,2,0,P|87:323|132:311,1,70,2|0,0:2|0:0,0:0:0:0:
201,309,271070,2,0,P|231:303|278:309,1,70,0|2,0:0|0:0,0:0:0:0:
356,317,271518,6,0,P|367:275|359:227,1,70,10|2,0:1|0:2,0:0:0:0:
343,167,271966,1,2,0:2:0:0:
294,98,272189,1,2,0:0:0:0:
223,149,272413,2,0,P|180:159|138:149,1,70,6|0,0:2|0:0,0:0:0:0:
72,131,272861,2,0,P|67:85|82:50,1,70,0|2,0:0|0:0,0:0:0:0:
152,23,273309,6,0,P|183:16|226:23,1,70,14|0,0:1|0:0,0:0:0:0:
299,56,273757,1,10,0:1:0:0:
338,132,273981,1,2,0:0:0:0:
338,217,274204,2,0,P|311:244|271:245,1,70,6|0,0:2|0:0,0:0:0:0:
194,238,274652,2,0,P|137:231|101:243,1,70,0|2,0:0|0:0,0:0:0:0:
40,242,275100,6,0,P|29:202|43:153,1,70,10|0,0:1|0:0,0:0:0:0:
75,96,275548,2,0,P|108:85|141:85,1,70,0|2,0:0|0:0,0:0:0:0:
228,105,275995,2,0,P|272:101|308:68,1,70,4|2,0:2|0:0,0:0:0:0:
364,41,276443,1,8,0:1:0:0:
449,41,276667,1,4,0:2:0:0:
459,126,276891,6,0,P|451:169|416:186,1,70,0|2,0:0|0:0,0:0:0:0:
353,221,277339,1,8,0:1:0:0:
269,202,277563,1,4,0:2:0:0:
186,223,277786,2,0,P|173:261|191:305,1,70,2|2,0:2|0:0,0:0:0:0:
246,344,278234,1,8,0:1:0:0:
331,336,278458,1,4,0:2:0:0:
411,306,278682,6,0,P|430:271|420:222,1,70,0|8,0:0|0:2,0:0:0:0:
419,167,279130,2,0,L|455:153,4,35,8|8|8|8|6,0:1|0:2|0:3|0:3|0:1,0:0:0:0:
272,201,280025,2,0,P|230:209|180:190,1,70,0|2,0:0|0:0,0:0:0:0:
127,161,280473,6,0,P|160:83|227:71,1,140,14|0,0:1|0:0,0:0:0:0:
294,64,281145,1,2,0:0:0:0:
375,93,281369,1,2,0:2:0:0:
422,165,281592,1,0,0:0:0:0:
409,250,281816,2,0,P|375:259|336:245,1,70,0|2,0:0|0:0,0:0:0:0:
262,216,282264,6,0,P|222:206|180:216,1,70,14|0,0:1|0:0,0:0:0:0:
134,268,282712,1,8,0:2:0:0:
134,268,282823,1,8,0:2:0:0:
134,268,282935,1,8,0:2:0:0:
134,268,283047,1,8,0:2:0:0:
134,268,283160,2,0,P|157:310|194:322,1,70,6|0,0:1|0:0,0:0:0:0:
261,326,283607,2,0,P|289:306|299:269,1,70,0|2,0:0|0:0,0:0:0:0:
307,188,284055,6,0,P|299:143|257:114,1,70,14|0,0:1|0:0,0:0:0:0:
199,105,284503,1,0,0:0:0:0:
119,138,284727,1,2,0:0:0:0:
85,217,284951,2,0,P|100:258|135:276,1,70,2|0,0:2|0:0,0:0:0:0:
205,290,285398,1,0,0:0:0:0:
285,259,285622,1,2,0:0:0:0:
312,178,285846,6,0,P|320:143|358:109,1,70,10|0,0:1|0:0,0:0:0:0:
427,100,286294,2,0,P|440:130|433:174,1,70,0|2,0:0|0:0,0:0:0:0:
411,250,286742,2,0,P|369:271|337:267,1,70,6|0,0:2|0:0,0:0:0:0:
258,262,287189,2,0,P|221:254|193:223,1,70,0|2,0:0|0:0,0:0:0:0:
174,148,287637,6,0,P|178:108|211:83,1,70,14|0,0:1|0:0,0:0:0:0:
276,44,288085,2,0,P|311:55|333:94,1,70,0|10,0:0|0:1,0:0:0:0:
364,162,288533,2,0,P|356:197|328:222,1,70,2|0,0:2|0:0,0:0:0:0:
252,254,288981,2,0,P|203:239|185:209,1,70,0|0,0:0|0:0,0:0:0:0:
256,192,289428,12,0,293458,0:0:0:0:
