osu file format v14

[General]
AudioFilename: audio.mp3
AudioLeadIn: 0
PreviewTime: 71369
Countdown: 0
SampleSet: None
StackLeniency: 0.7
Mode: 0
LetterboxInBreaks: 0
WidescreenStoryboard: 1

[Editor]
Bookmarks: 57468,73161,94206,99579,101370,103609,107191,175249,193607,266145,289428
DistanceSpacing: 0.9
BeatDivisor: 4
GridSize: 4
TimelineZoom: 1.4

[Metadata]
Title:The River
TitleUnicode:The River
Artist:Breed 77
ArtistUnicode:Breed 77
Creator:Elirac
Version:Easy
Source:
Tags:Cultura Alternative metal rock flamenco
BeatmapID:1234493
BeatmapSetID:545450

[Difficulty]
HPDrainRate:2
CircleSize:3
OverallDifficulty:2
ApproachRate:3
SliderMultiplier:1
SliderTickRate:1

[Events]
//Background and Video events
0,0,"bg.jpg",0,0
//Break Periods
2,89926,91869
2,179031,192167
//Storyboard Layer 0 (Background)
//Storyboard Layer 1 (Fail)
//Storyboard Layer 2 (Pass)
//Storyboard Layer 3 (Foreground)
//Storyboard Sound Samples

[TimingPoints]
43139,447.761194029851,4,3,1,60,1,0
46721,471.698113207547,4,3,1,60,1,0
47192,447.761194029851,4,3,1,60,1,0
48534,447.761194029851,4,3,1,60,1,0
53012,705.882352941176,4,3,1,60,1,0
53012,-65.359477124183,4,3,1,60,0,0
53188,447.761194029851,4,3,1,60,1,0
53411,447.761194029851,4,3,1,60,1,0
53858,447.761194029851,4,3,1,60,1,0
56546,545.454545454546,4,3,1,60,1,0
56818,447.761194029851,4,3,1,60,1,0
57041,447.761194029851,4,3,1,60,1,0
57488,447.761194029851,4,3,1,60,1,0
71816,-100,4,3,1,70,0,1
89726,-100,4,3,1,40,0,0
121967,-100,4,3,1,60,0,0
150622,-100,4,3,1,70,0,1
179279,-100,4,3,1,60,0,0
222264,-100,4,3,1,70,0,1
250473,-100,4,3,1,70,0,0

[Colours]
Combo1 : 61,61,169
Combo2 : 135,201,12
Combo3 : 108,164,247
Combo4 : 228,152,196

[HitObjects]
144,192,43139,6,0,P|184:216|252:200,1,100,6|0,0:1|0:0,0:0:0:0:
319,177,44035,1,8,0:1:0:0:
399,216,44482,6,0,P|367:252|316:266,1,100,0|2,0:1|0:2,0:0:0:0:
230,286,45378,1,0,0:1:0:0:
154,334,45826,5,8,0:1:0:0:
75,289,46273,1,0,0:1:0:0:
97,206,46721,2,0,P|147:220|199:205,1,100,6|0,0:2|0:0,0:0:0:0:
146,131,47639,5,8,0:1:0:0:
227,93,48086,2,0,P|261:56|314:50,2,100,0|2|0,0:1|0:2|0:1,0:0:0:0:
208,181,49430,5,8,0:1:0:0:
191,269,49877,1,0,0:1:0:0:
259,327,50325,2,0,L|344:254,1,100,6|0,0:2|0:0,0:0:0:0:
404,204,51221,5,8,0:1:0:0:
330,152,51668,2,0,P|270:163|219:139,2,100,0|2|0,0:0|0:2|0:0,0:0:0:0:
407,111,53012,5,8,0:1:0:0:
350,53,53411,2,0,P|293:32|244:43,1,100,4|6,0:3|0:2,0:0:0:0:
182,90,54306,1,0,0:0:0:0:
158,176,54754,6,0,P|197:208|253:210,1,100,8|0,0:1|0:0,0:0:0:0:
328,246,55649,2,0,P|367:278|423:280,1,100,2|0,0:2|0:0,0:0:0:0:
495,241,56545,1,10,0:1:0:0:
439,158,57041,6,0,P|380:172|339:159,1,100,2|6,0:1|0:1,0:0:0:0:
267,113,57936,1,0,0:0:0:0:
234,28,58384,5,8,0:1:0:0:
170,92,58831,2,0,P|140:46|81:35,2,100,0|2|0,0:0|0:2|0:0,0:0:0:0:
185,181,60175,5,8,0:1:0:0:
203,268,60622,2,0,P|233:314|292:325,2,100,0|2|0,0:0|0:2|0:0,0:0:0:0:
287,236,61966,5,8,0:1:0:0:
217,178,62413,1,0,0:0:0:0:
278,112,62861,2,0,P|228:91|176:97,1,100,2|0,0:2|0:0,0:0:0:0:
101,133,63757,6,0,P|51:154|-1:148,1,100,8|0,0:1|0:0,0:0:0:0:
41,67,64652,2,0,P|91:45|136:51,1,100,6|0,0:2|0:0,0:0:0:0:
210,98,65548,5,8,0:1:0:0:
297,116,65995,1,0,0:0:0:0:
361,52,66443,2,0,L|398:151,1,100,2|0,0:2|0:0,0:0:0:0:
428,229,67339,5,8,0:1:0:0:
367,295,67786,2,0,B|279:317|279:317|243:265|159:281,1,200
93,269,69130,5,8,0:1:0:0:
144,196,69578,1,0,0:0:0:0:
55,188,70025,2,0,L|56:78,1,100,2|0,0:2|0:0,0:0:0:0:
113,18,70921,2,0,P|178:33|229:28,1,100,8|8,0:2|0:2,0:0:0:0:
300,28,71816,6,0,B|366:103|366:103|339:182|367:212,1,200,6|10,0:1|0:1,0:0:0:0:
388,285,73160,1,0,0:2:0:0:
317,340,73607,6,0,P|268:354|216:344,1,100,2|2,0:2|0:1,0:0:0:0:
181,264,74503,2,0,P|132:278|80:268,1,100,10|0,0:1|0:0,0:0:0:0:
30,197,75398,6,0,P|20:142|32:88,1,100,6|0,0:2|0:0,0:0:0:0:
105,146,76293,1,10,0:1:0:0:
180,195,76742,6,0,P|242:212|282:204,1,100,0|2,0:0|0:2,0:0:0:0:
362,179,77637,1,2,0:1:0:0:
431,121,78085,5,10,0:1:0:0:
373,51,78533,1,0,0:0:0:0:
284,32,78981,2,0,L|306:151,1,100,6|2,0:1|0:3,0:0:0:0:
367,192,79876,6,0,P|325:216|272:213,1,100,10|2,0:1|0:3,0:0:0:0:
189,184,80772,1,0,0:0:0:0:
104,156,81219,1,2,0:3:0:0:
71,240,81667,2,0,L|169:269,1,100,10|10,0:1|0:1,0:0:0:0:
232,330,82563,6,0,B|270:271|245:217|245:217|328:171,1,200,6|10,0:2|0:1,0:0:0:0:
395,135,83906,1,2,0:3:0:0:
455,201,84354,6,0,P|416:263|382:269,1,100,0|2,0:0|0:3,0:0:0:0:
308,295,85249,1,10,0:1:0:0:
220,315,85697,1,10,0:1:0:0:
132,336,86145,6,0,P|70:276|96:157,1,200,6|8,0:2|0:1,0:0:0:0:
141,101,87488,1,2,0:3:0:0:
178,182,87936,2,0,P|234:207|281:199,1,100,2|2,0:1|0:3,0:0:0:0:
356,174,88831,5,10,0:1:0:0:
445,180,89279,2,0,L|420:288,1,100,4|4,0:3|0:2,0:0:0:0:
115,227,93309,5,4,1:2:0:0:
177,58,94204,2,0,B|226:100|288:94|288:94|361:165,1,200,8|2,0:1|0:3,0:0:0:0:
218,277,95995,6,0,B|288:268|288:268|307:253|307:253|371:261|414:211,1,200,8|2,0:1|1:3,0:0:0:0:
373,44,97786,6,0,B|325:88|262:84|262:84|202:162,1,200,8|2,0:1|0:3,0:0:0:0:
85,273,99578,6,0,B|161:248|161:248|220:276|284:240,1,200,8|2,0:1|1:3,0:0:0:0:
435,160,101369,6,0,B|387:196|395:262|395:262|400:310|373:344,1,200,8|0,0:1|0:0,0:0:0:0:
210,268,103160,6,0,P|157:296|109:289,1,100,8|2,0:1|0:3,0:0:0:0:
50,234,104055,2,0,P|52:163|79:131,1,100,6|2,1:1|0:3,0:0:0:0:
137,84,104951,6,0,B|177:155|238:146|238:146|316:132|404:185|404:185|383:255|411:298,1,400,8|8,0:1|0:1,0:0:0:0:
319,311,107189,6,0,P|262:319|219:304,1,100,2|6,0:3|0:1,0:0:0:0:
148,254,108085,1,2,0:3:0:0:
161,165,108533,6,0,P|224:175|260:162,1,100,8|2,0:1|0:3,0:0:0:0:
336,121,109428,1,2,0:3:0:0:
382,43,109876,1,2,0:3:0:0:
451,100,110324,6,0,P|453:149|418:191,1,100,8|2,0:1|0:3,0:0:0:0:
341,225,111219,2,0,P|278:237|234:225,1,100,2|2,1:3|0:3,0:0:0:0:
158,200,112115,6,0,P|125:243|130:300,1,100,8|0,0:1|0:0,0:0:0:0:
203,330,113010,1,2,0:3:0:0:
291,312,113458,1,2,0:3:0:0:
297,222,113906,6,0,P|249:233|190:212,1,100,8|2,0:1|1:3,0:0:0:0:
250,144,114801,1,2,1:3:0:0:
334,112,115249,1,2,0:3:0:0:
376,191,115697,6,0,P|372:255|349:290,1,100,8|2,0:1|0:3,0:0:0:0:
274,327,116592,2,0,P|210:338|173:320,1,100,2|4,0:3|0:2,0:0:0:0:
107,270,117488,5,8,0:1:0:0:
81,183,117936,1,2,1:3:0:0:
169,201,118384,2,0,P|225:212|280:202,1,100,2|2,1:3|0:3,0:0:0:0:
353,179,119279,5,8,0:1:0:0:
437,211,119727,1,2,0:3:0:0:
484,287,120175,2,0,P|440:328|390:336,1,100,2|2,0:3|0:3,0:0:0:0:
312,341,121070,5,14,0:1:0:0:
229,305,121518,1,14,0:1:0:0:
139,317,121966,2,0,L|174:211,1,100,6|0,0:2|0:0,0:0:0:0:
202,137,122861,5,10,0:1:0:0:
289,115,123309,2,0,P|321:79|388:71,2,100,0|2|0,0:0|0:2|0:0,0:0:0:0:
259,200,124652,5,10,0:1:0:0:
193,262,125100,1,0,0:0:0:0:
103,268,125548,2,0,P|64:218|62:179,1,100,6|0,0:2|0:0,0:0:0:0:
80,95,126443,5,10,0:1:0:0:
169,102,126891,2,0,P|208:68|218:15,2,100,0|2|0,0:0|0:2|0:0,0:0:0:0:
93,150,128234,5,10,0:1:0:0:
49,228,128682,1,0,0:0:0:0:
63,316,129130,2,0,L|172:290,1,100,6|0,0:2|0:0,0:0:0:0:
246,268,130025,5,10,0:1:0:0:
335,274,130473,2,0,P|345:328|320:379,2,100,0|2|0,0:0|0:2|0:0,0:0:0:0:
293,194,131816,5,10,0:1:0:0:
203,182,132264,2,0,P|193:236|218:287,1,100,4|4,0:3|0:2,0:0:0:0:
266,346,133160,1,0,0:0:0:0:
355,351,133607,6,0,P|371:304|361:256,1,100,10|0,0:1|0:0,0:0:0:0:
418,186,134503,2,0,P|434:139|424:91,1,100,2|0,0:2|0:0,0:0:0:0:
387,9,135398,5,10,0:1:0:0:
326,76,135846,1,2,0:1:0:0:
333,165,136294,2,0,L|219:131,1,100,6|0,0:1|0:0,0:0:0:0:
152,105,137189,5,10,0:1:0:0:
167,193,137637,2,0,P|123:220|62:221,2,100,0|2|0,0:0|0:2|0:0,0:0:0:0:
237,136,138981,5,10,0:1:0:0:
322,109,139428,1,0,0:0:0:0:
410,123,139876,2,0,P|423:183|403:222,1,100,2|0,0:2|0:0,0:0:0:0:
349,285,140772,5,10,0:1:0:0:
259,289,141219,2,0,P|220:330|169:333,2,100,0|2|0,0:0|0:2|0:2,0:0:0:0:
289,204,142563,5,10,0:1:0:0:
264,117,143010,1,0,0:0:0:0:
174,107,143458,2,0,L|98:42,1,100,6|0,0:1|0:0,0:0:0:0:
60,124,144354,6,0,L|136:189,1,100,10|0,0:1|0:0,0:0:0:0:
78,258,145249,2,0,L|154:323,1,100,2|0,0:2|0:0,0:0:0:0:
244,325,146145,5,10,0:1:0:0:
324,284,146592,1,0,0:0:0:0:
363,203,147040,2,0,P|363:149|332:109,1,100,4|0,0:2|0:0,0:0:0:0:
247,116,147936,6,0,P|219:156|221:206,1,100,10|0,0:1|0:0,0:0:0:0:
267,282,148831,1,2,0:2:0:0:
355,266,149279,1,10,0:1:0:0:
444,271,149727,6,0,L|406:160,1,100,8|12,0:2|0:3,0:0:0:0:
371,95,150622,6,0,B|287:114|287:114|229:161|164:119,1,200,6|10,0:1|0:1,0:0:0:0:
95,97,151966,1,0,0:0:0:0:
46,172,152413,1,2,0:2:0:0:
64,260,152861,1,0,0:0:0:0:
130,320,153309,6,0,P|180:338|236:325,1,100,10|0,0:1|0:0,0:0:0:0:
301,283,154204,2,0,P|351:301|407:288,1,100,6|0,0:2|0:0,0:0:0:0:
356,212,155100,5,10,0:1:0:0:
319,129,155548,2,0,P|354:91|407:79,2,100,0|6|2,0:0|0:2|0:2,0:0:0:0:
279,210,156891,5,14,0:1:0:0:
294,298,157339,1,0,0:0:0:0:
375,335,157786,2,0,P|413:300|420:240,1,100,6|2,0:2|0:0,0:0:0:0:
420,164,158682,5,10,0:1:0:0:
382,82,159130,1,2,0:0:0:0:
303,125,159578,2,0,P|260:141|196:121,1,100,0|2,0:0|0:1,0:0:0:0:
131,82,160473,5,10,0:1:0:0:
55,131,160921,1,10,0:1:0:0:
53,221,161369,2,0,L|152:281,1,100,6|2,0:2|0:0,0:0:0:0:
217,315,162264,5,10,0:1:0:0:
306,302,162712,2,0,P|352:276|371:231,2,100,2|0|2,0:0|0:0|0:0,0:0:0:0:
284,214,164055,5,10,0:1:0:0:
209,164,164503,1,10,0:1:0:0:
239,79,164951,2,0,P|318:41|399:116,1,200,6|10,0:1|0:1,0:0:0:0:
422,191,166294,6,0,P|397:257|360:277,1,100,0|2,0:0|0:2,0:0:0:0:
290,304,167189,1,0,0:0:0:0:
289,213,167637,5,10,0:1:0:0:
240,136,168085,1,2,0:1:0:0:
154,108,168533,2,0,P|111:165|120:199,1,100,6|0,0:2|0:0,0:0:0:0:
128,277,169428,5,10,0:1:0:0:
204,324,169876,1,0,0:0:0:0:
292,308,170324,2,0,P|332:262|331:216,1,100,2|2,0:2|0:1,0:0:0:0:
333,135,171219,5,10,0:1:0:0:
272,68,171667,1,2,0:3:0:0:
193,112,172115,2,0,L|214:229,1,100,6|2,0:2|0:0,0:0:0:0:
290,252,173010,5,10,0:1:0:0:
376,228,173458,1,2,0:0:0:0:
399,140,173906,2,0,L|301:73,1,100,0|2,0:0|0:0,0:0:0:0:
230,109,174801,5,10,0:1:0:0:
255,195,175249,1,10,0:1:0:0:
276,282,175697,2,0,P|227:321|172:312,1,100,6|0,0:1|0:0,0:0:0:0:
105,295,176592,6,0,L|154:194,1,100,0|0,0:0|0:0,0:0:0:0:
191,125,177488,2,0,P|262:144|298:132,1,100,0|8,0:0|0:1,0:0:0:0:
370,108,178384,1,2,0:0:0:0:
454,138,178831,1,10,0:1:0:0:
449,293,193607,6,0,L|337:306,1,100,6|0,0:1|0:0,0:0:0:0:
261,321,194503,5,8,0:1:0:0:
177,286,194951,2,0,P|123:312|72:298,2,100,0|2|0,0:0|0:2|0:0,0:0:0:0:
220,207,196294,5,8,0:1:0:0:
225,117,196742,1,0,0:0:0:0:
135,107,197189,2,0,L|82:204,1,100,6|0,0:2|0:0,0:0:0:0:
45,275,198085,5,8,0:1:0:0:
112,334,198533,2,0,P|159:350|217:330,2,100,0|2|0,0:0|0:2|0:0,0:0:0:0:
162,259,199876,5,8,0:1:0:0:
190,173,200324,1,0,0:0:0:0:
274,203,200772,2,0,P|326:216|382:194,1,100,6|0,0:2|0:0,0:0:0:0:
402,119,201667,5,8,0:1:0:0:
320,80,202115,1,0,0:0:0:0:
235,110,202563,2,0,P|183:119|131:98,1,100,2|0,0:2|0:0,0:0:0:0:
72,43,203458,5,8,0:1:0:0:
43,128,203906,2,0,L|61:233,1,100,4|4,0:3|0:2,0:0:0:0:
76,315,204801,1,0,0:0:0:0:
146,258,205249,6,0,P|194:243|251:251,1,100,10|0,0:1|0:0,0:0:0:0:
326,281,206145,2,0,P|289:326|232:329,1,100,2|0,0:1|0:0,0:0:0:0:
160,340,207040,5,10,0:1:0:0:
76,315,207488,1,2,0:1:0:0:
141,253,207936,2,0,L|158:143,1,100,6|0,0:2|0:0,0:0:0:0:
173,65,208831,5,10,0:1:0:0:
248,114,209279,2,0,P|255:169|292:208,2,100,0|2|0,0:0|0:1|0:0,0:0:0:0:
336,130,210622,5,10,0:1:0:0:
421,102,211070,1,0,0:0:0:0:
470,176,211518,2,0,P|460:231|426:262,1,100,6|0,0:2|0:0,0:0:0:0:
351,304,212413,5,10,0:1:0:0:
261,312,212861,2,0,P|205:301|167:252,2,100,0|2|0,0:0|0:2|0:0,0:0:0:0:
351,304,214204,5,10,0:1:0:0:
372,216,214652,1,4,0:2:0:0:
390,127,215100,2,0,L|290:93,1,100,6|2,0:2|0:1,0:0:0:0:
206,81,215995,6,0,L|235:188,1,100,10|0,0:1|0:0,0:0:0:0:
255,264,216891,2,0,L|144:252,1,100,2|0,0:1|0:0,0:0:0:0:
67,237,217786,5,10,0:1:0:0:
17,161,218234,1,0,0:0:0:0:
51,77,218682,2,0,P|95:45|160:54,1,100,6|0,0:2|0:0,0:0:0:0:
122,133,219578,6,0,P|166:165|231:156,1,100,10|0,0:1|0:0,0:0:0:0:
297,144,220473,1,2,0:2:0:0:
344,67,220921,1,8,0:1:0:0:
258,38,221369,6,0,P|213:31|154:43,1,100,8|12,0:2|0:3,0:0:0:0:
81,85,222264,6,0,B|103:148|103:148|175:162|189:248,1,200,6|10,0:1|0:1,0:0:0:0:
215,325,223607,2,0,P|280:341|324:323,1,100,0|2,0:0|0:2,0:0:0:0:
391,293,224503,1,0,0:0:0:0:
422,208,224951,6,0,P|405:166|345:132,1,100,10|0,0:1|0:0,0:0:0:0:
334,221,225846,2,0,P|283:236|231:222,1,100,6|0,0:2|0:0,0:0:0:0:
161,179,226742,5,10,0:1:0:0:
191,94,227189,2,0,P|253:105|297:86,2,100,0|0|0,0:0|0:0|0:0,0:0:0:0:
109,55,228533,5,10,0:1:0:0:
61,131,228981,1,0,0:0:0:0:
70,220,229428,2,0,P|113:256|172:239,1,100,6|2,0:1|0:3,0:0:0:0:
236,215,230324,5,10,0:1:0:0:
291,144,230772,1,2,0:0:0:0:
371,104,231219,2,0,P|430:130|449:180,1,100,0|2,0:0|0:0,0:0:0:0:
475,244,232115,5,10,0:1:0:0:
456,332,232563,1,10,0:1:0:0:
370,360,233010,2,0,P|323:357|275:326,1,100,6|2,0:1|0:0,0:0:0:0:
217,264,233906,5,10,0:1:0:0:
217,173,234354,2,0,P|167:151|107:172,2,100,2|0|2,0:0|0:0|0:0,0:0:0:0:
283,233,235697,5,10,0:1:0:0:
371,249,236145,1,10,0:1:0:0:
457,224,236592,2,0,P|453:134|362:78,1,200,6|10,0:1|0:1,0:0:0:0:
276,74,237936,6,0,P|230:89|162:76,1,100,0|2,0:0|0:2,0:0:0:0:
94,53,238831,1,0,0:0:0:0:
43,127,239279,6,0,L|126:199,1,100,10|0,0:1|0:0,0:0:0:0:
190,246,240175,2,0,P|244:254|286:229,1,100,6|0,0:2|0:0,0:0:0:0:
353,178,241070,5,10,0:1:0:0:
432,220,241518,1,0,0:0:0:0:
464,303,241966,2,0,P|413:340|367:330,1,100,2|0,0:2|0:0,0:0:0:0:
297,298,242861,5,10,0:1:0:0:
272,211,243309,1,0,0:0:0:0:
216,139,243757,2,0,P|167:131|106:159,1,100,6|2,0:1|0:0,0:0:0:0:
52,206,244652,6,0,P|43:260|77:306,1,100,10|2,0:1|0:0,0:0:0:0:
138,349,245548,2,0,P|209:353|234:334,1,100,0|2,0:0|0:0,0:0:0:0:
300,281,246443,5,14,0:1:0:0:
289,191,246891,1,14,0:1:0:0:
281,101,247339,2,0,P|307:65|363:52,1,100,4|2,0:2|0:0,0:0:0:0:
412,123,248234,6,0,P|386:159|330:172,1,100,10|2,0:1|0:0,0:0:0:0:
243,173,249130,1,0,0:0:0:0:
164,216,249578,1,12,0:1:0:0:
134,300,250025,6,0,P|216:345|317:317,1,200,8|6,0:1|0:2,0:0:0:0:
406,164,251816,6,0,P|346:147|298:150,1,100,14|0,0:1|0:0,0:0:0:0:
250,216,252712,2,0,P|310:233|358:230,1,100,6|0,0:2|0:0,0:0:0:0:
434,209,253607,2,0,P|433:159|418:111,1,100,10|2,0:2|0:1,0:0:0:0:
328,98,254503,6,0,P|296:132|236:134,1,100,6|0,0:2|0:0,0:0:0:0:
155,126,255398,6,0,P|140:173|139:223,1,100,14|0,0:1|0:0,0:0:0:0:
205,284,256294,2,0,P|219:236|220:186,1,100,2|0,0:2|0:0,0:0:0:0:
205,97,257189,2,0,P|157:82|107:81,1,100,10|0,0:1|0:0,0:0:0:0:
60,158,258085,6,0,P|96:193|92:260,1,100,4|0,0:2|0:0,0:0:0:0:
91,330,258981,5,14,0:1:0:0:
176,357,259428,1,0,0:0:0:0:
265,353,259876,2,0,P|319:338|354:294,1,100,2|0,0:1|0:0,0:0:0:0:
397,230,260772,5,10,0:1:0:0:
375,142,261219,1,8,0:1:0:0:
307,82,261667,2,0,P|254:54|205:62,1,100,6|8,0:2|0:1,0:0:0:0:
136,101,262563,5,0,0:1:0:0:
111,187,263010,1,8,0:1:0:0:
138,272,263458,1,2,0:1:0:0:
213,320,263906,1,8,0:1:0:0:
302,324,264354,6,0,P|365:308|397:264,1,100,0|8,0:0|0:1,0:0:0:0:
413,197,265249,1,4,0:2:0:0:
380,113,265697,1,0,0:0:0:0:
291,131,266145,6,0,P|231:114|183:117,1,100,14|0,0:1|0:0,0:0:0:0:
135,183,267041,2,0,P|195:200|243:197,1,100,2|0,0:1|0:0,0:0:0:0:
319,176,267936,2,0,P|318:126|303:78,1,100,14|2,0:1|0:2,0:0:0:0:
222,39,268832,6,0,P|192:61|187:122,1,100,6|0,0:2|0:0,0:0:0:0:
232,198,269727,6,0,P|247:245|248:295,1,100,14|0,0:1|0:0,0:0:0:0:
182,356,270623,2,0,P|168:308|167:258,1,100,2|0,0:2|0:0,0:0:0:0:
182,169,271518,2,0,P|230:154|280:153,1,100,10|2,0:1|0:2,0:0:0:0:
369,158,272414,6,0,P|405:193|401:260,1,100,6|0,0:2|0:0,0:0:0:0:
379,325,273309,5,14,0:1:0:0:
290,341,273757,1,10,0:1:0:0:
222,282,274204,2,0,P|172:263|113:273,1,100,6|0,0:2|0:0,0:0:0:0:
40,292,275100,5,10,0:1:0:0:
10,206,275548,1,0,0:0:0:0:
32,118,275995,2,0,P|71:86|127:113,1,100,4|8,0:2|0:1,0:0:0:0:
177,163,276891,5,0,0:0:0:0:
266,172,277339,1,8,0:1:0:0:
351,144,277786,1,2,0:2:0:0:
411,76,278234,1,8,0:1:0:0:
326,45,278682,6,0,P|267:43|217:61,1,100,0|8,0:0|0:1,0:0:0:0:
157,111,279578,2,0,P|194:154|248:150,1,100,6|0,0:1|0:0,0:0:0:0:
322,139,280473,5,14,0:1:0:0:
406,169,280921,1,0,0:0:0:0:
464,237,281369,2,0,P|418:273|359:279,1,100,2|0,0:2|0:0,0:0:0:0:
288,289,282264,5,14,0:1:0:0:
209,245,282712,1,8,0:2:0:0:
164,166,283160,2,0,P|104:153|51:168,1,100,6|0,0:1|0:0,0:0:0:0:
5,226,284055,5,14,0:1:0:0:
39,309,284503,1,0,0:0:0:0:
124,336,284951,2,0,P|192:344|228:333,1,100,2|0,0:2|0:0,0:0:0:0:
303,299,285846,5,10,0:1:0:0:
350,222,286294,1,0,0:0:0:0:
324,135,286742,2,0,P|281:120|211:134,1,100,6|0,0:2|0:0,0:0:0:0:
164,190,287637,6,0,P|172:234|219:288,1,100,14|0,0:1|0:0,0:0:0:0:
290,303,288533,2,0,P|324:273|347:205,1,100,2|0,0:2|0:0,0:0:0:0:
256,192,289428,12,0,293458,0:0:0:0:
