osu file format v14

[General]
AudioFilename: audio.mp3
AudioLeadIn: 0
PreviewTime: 97729
Countdown: 0
SampleSet: Soft
StackLeniency: 0.4
Mode: 0
LetterboxInBreaks: 0
WidescreenStoryboard: 0

[Editor]
DistanceSpacing: 1.5
BeatDivisor: 4
GridSize: 4
TimelineZoom: 1.7

[Metadata]
Title:The Diary of Jane
TitleUnicode:The Diary of Jane
Artist:Breaking Benjamin
ArtistUnicode:Breaking Benjamin
Creator:FCL
Version:Advanced
Source:
Tags:phobia punk metal [ Emillia ] estellia- TheMefisto BOUYAAA Alternative
BeatmapID:1004989
BeatmapSetID:468418

[Difficulty]
HPDrainRate:4.5
CircleSize:4
OverallDifficulty:6
ApproachRate:7
SliderMultiplier:2
SliderTickRate:2

[Events]
//Background and Video events
0,0,"3d_1772-1440x900.jpg",0,0
//Break Periods
2,126562,137159
//Storyboard Layer 0 (Background)
//Storyboard Layer 1 (Fail)
//Storyboard Layer 2 (Pass)
//Storyboard Layer 3 (Foreground)
//Storyboard Sound Samples

[TimingPoints]
95,718.562874251497,4,2,3,30,1,0
95,-133.333333333333,4,2,3,30,0,0
5843,-117.647058823529,4,1,1,40,0,0
6472,-117.647058823529,4,2,0,40,0,0
6562,-117.647058823529,4,1,1,40,0,0
10873,-117.647058823529,4,1,2,40,0,0
10963,-117.647058823529,4,1,1,40,0,0
12130,-117.647058823529,4,2,0,40,0,0
12310,-117.647058823529,4,1,1,40,0,0
16621,-117.647058823529,4,1,2,40,0,0
16711,-117.647058823529,4,1,1,40,0,0
17340,-105.263157894737,4,1,1,50,0,0
25963,-105.263157894737,4,2,0,40,0,0
26142,-105.263157894737,4,2,0,45,0,0
26322,-105.263157894737,4,2,0,50,0,0
26502,-105.263157894737,4,2,0,55,0,0
26681,-105.263157894737,4,1,1,60,0,0
27400,-100,4,1,1,60,0,0
27759,-100,4,2,0,60,0,0
27939,-100,4,1,1,60,0,0
28074,-100,4,1,1,60,0,0
28163,-100,4,1,1,60,0,0
28298,-100,4,2,0,60,0,0
28478,-100,4,1,1,60,0,0
28657,-100,4,2,0,60,0,0
28837,-95.2380952380952,4,1,1,70,0,0
38897,-117.647058823529,4,1,1,60,0,0
39256,-117.647058823529,4,2,0,60,0,0
39436,-117.647058823529,4,1,1,60,0,0
39615,-105.263157894737,4,1,1,60,0,0
39705,-105.263157894737,4,1,1,60,0,0
40334,-105.263157894737,4,1,1,50,0,0
46083,-95.2380952380954,4,1,1,60,0,0
48957,-105.263157894737,4,1,1,50,0,0
49316,-105.263157894737,4,1,2,50,0,0
49675,-105.263157894737,4,1,1,50,0,0
54705,-105.263157894737,4,1,1,60,0,0
57580,-95.2380952380954,4,1,1,70,0,1
69077,-95.2380952380954,4,1,1,60,0,0
74825,-95.2380952380954,4,1,1,70,0,0
79136,-117.647058823529,4,1,1,60,0,0
79496,-117.647058823529,4,2,0,60,0,0
79675,-117.647058823529,4,1,1,60,0,0
79855,-117.647058823529,4,1,1,60,0,0
79945,-117.647058823529,4,1,1,60,0,0
80574,-105.263157894737,4,1,1,50,0,0
86322,-95.2380952380954,4,1,1,60,0,0
87400,-95.2380952380954,4,1,1,50,0,0
89196,-105.263157894737,4,1,1,50,0,0
89556,-105.263157894737,4,1,2,50,0,0
89645,-105.263157894737,4,1,1,50,0,0
94945,-95.2380952380954,4,1,1,60,0,0
96562,-200,4,1,1,50,0,0
97100,-95.2380952380952,4,1,1,50,0,0
97639,-80,4,1,1,5,0,0
97819,-95.2380952380952,4,1,1,70,0,1
108059,-95.2380952380952,4,1,1,70,0,0
109316,-95.2380952380952,4,1,1,70,0,1
120813,-95.2380952380952,4,1,1,60,0,0
138059,-105.263157894737,4,1,1,60,0,0
143807,-105.263157894737,4,1,1,50,0,0
149556,-105.263157894737,4,1,1,60,0,0
152430,-100,4,1,1,50,0,0
153867,-133.333333333333,4,1,1,50,0,0
154586,-117.647058823529,4,1,1,50,0,0
155304,-95.2380952380951,4,1,1,70,0,1
165544,-95.2380952380951,4,1,1,70,0,0
166801,-95.2380952380951,4,1,1,70,0,1
178298,-95.2380952380951,4,1,1,70,0,0
188358,-105.263157894737,4,1,1,50,0,0
188717,-105.263157894737,4,2,0,50,0,0
188897,-117.647058823529,4,1,1,50,0,0
189077,-117.647058823529,4,1,1,50,0,0
189121,-117.647058823529,4,1,1,50,0,0
189256,-117.647058823529,4,2,0,50,0,0
189436,-133.333333333333,4,1,1,50,0,0
189615,-133.333333333333,4,2,0,50,0,0
189795,-133.333333333333,4,1,1,50,0,0
192669,-133.333333333333,4,1,1,40,0,0
194106,-133.333333333333,4,1,1,30,0,0
195544,-133.333333333333,4,1,1,5,0,0

[Colours]
Combo1 : 146,131,138
Combo2 : 211,189,184
Combo3 : 155,152,177
Combo4 : 173,180,160

[HitObjects]
62,86,95,6,0,L|141:80,1,75.000002861023,2|0,0:0|0:0,0:0:0:0:
264,141,813,1,0,0:0:0:0:
264,141,993,2,0,P|220:140|179:157,1,75.000002861023,2|0,0:0|0:0,0:0:0:0:
134,205,1532,1,2,0:0:0:0:
129,215,2071,1,2,0:0:0:0:
124,225,2609,1,2,0:0:0:0:
223,340,2969,6,0,P|227:303|219:259,1,75.000002861023,2|0,0:0|0:0,0:0:0:0:
314,162,3687,1,0,0:0:0:0:
314,162,3867,2,0,L|235:166,1,75.000002861023,2|0,0:0|0:0,0:0:0:0:
168,204,4406,1,2,0:0:0:0:
157,199,4945,1,2,0:0:0:0:
148,191,5484,1,2,0:0:0:0:
68,109,5843,6,0,L|64:14,2,85.0000016212464,2|0|8,0:0|0:0|0:0,0:0:0:0:
139,137,6741,2,0,L|150:105,2,21.2500004053116,0|0|0,2:0|2:0|2:0,0:0:0:0:
211,173,7100,1,0,2:0:0:0:
211,173,7280,2,0,P|252:177|311:170,1,85.0000016212464,2|0,2:0|2:0,0:0:0:0:
454,234,7999,2,0,P|413:230|354:237,1,85.0000016212464,2|2,2:3|2:0,0:0:0:0:
230,312,8717,6,0,B|188:322|188:322|134:317,2,85.0000016212464,2|0|8,0:0|0:0|0:0,0:0:0:0:
288,261,9615,2,0,L|292:224,2,21.2500004053116,0|0|0,2:0|2:0|2:0,0:0:0:0:
344,313,9975,1,0,2:0:0:0:
344,313,10154,2,0,L|445:316,1,85.0000016212464,2|0,2:0|2:0,0:0:0:0:
487,173,10873,1,2,2:3:0:0:
487,173,11592,6,0,L|491:73,2,85.0000016212464,2|0|8,0:0|0:0|0:0,0:0:0:0:
453,241,12490,2,0,B|450:260|450:260|452:278,2,21.2500004053116,0|0|0,2:0|0:0|2:0,0:0:0:0:
406,179,12849,1,0,2:0:0:0:
406,179,13029,2,0,L|305:173,1,85.0000016212464,2|0,2:0|2:0,0:0:0:0:
202,270,13747,2,0,P|157:278|102:266,1,85.0000016212464,2|2,2:3|2:0,0:0:0:0:
51,134,14466,6,0,P|57:173|45:222,2,85.0000016212464,2|0|8,0:0|0:0|0:0,0:0:0:0:
39,58,15364,2,0,L|11:51,2,21.2500004053116,0|0|0,2:0|2:0|2:0,0:0:0:0:
109,27,15723,1,0,2:0:0:0:
109,27,15903,2,0,L|206:22,1,85.0000016212464,2|0,2:0|2:0,0:0:0:0:
338,73,16621,1,2,2:3:0:0:
249,197,16981,1,2,2:0:0:0:
249,197,17160,1,0,0:0:0:0:
249,197,17340,6,0,L|145:200,2,94.9999974632264,6|0|8,0:0|0:0|0:0,0:0:0:0:
310,152,18238,1,0,2:0:0:0:
364,204,18418,2,0,L|433:210,1,47.4999987316132,0|0,2:0|2:0,0:0:0:0:
486,220,18777,2,0,P|472:257|408:281,1,94.9999974632264,2|0,2:0|2:0,0:0:0:0:
293,359,19496,2,0,B|254:353|254:353|188:364,1,94.9999974632264,8|0,0:0|2:0,0:0:0:0:
127,337,20035,1,2,2:3:0:0:
57,306,20214,6,0,P|41:268|59:208,2,94.9999974632264,4|0|8,0:1|0:0|0:0,0:0:0:0:
116,258,21112,1,0,2:0:0:0:
191,247,21292,2,0,P|233:240|256:240,1,47.4999987316132,0|0,2:0|2:0,0:0:0:0:
313,253,21651,2,0,L|318:141,1,94.9999974632264,2|0,2:0|2:0,0:0:0:0:
213,46,22370,2,0,P|174:50|150:43,1,47.4999987316132,8|2,0:0|2:3,0:0:0:0:
99,84,22729,2,0,L|34:89,1,47.4999987316132,0|2,2:0|2:3,0:0:0:0:
26,160,23089,6,0,P|41:200|21:264,2,94.9999974632264,6|0|8,0:0|0:0|0:0,0:0:0:0:
51,87,23987,1,0,2:0:0:0:
110,133,24166,2,0,P|159:135|178:132,1,47.4999987316132,0|0,2:0|2:0,0:0:0:0:
220,92,24526,2,0,B|262:80|262:80|328:85,1,94.9999974632264,2|0,2:0|2:0,0:0:0:0:
447,155,25244,2,0,P|463:195|439:251,1,94.9999974632264,8|2,0:0|2:0,0:0:0:0:
380,279,25783,1,0,0:0:0:0:
316,236,25963,6,0,L|250:233,1,47.4999987316132,4|0,0:3|0:3,0:0:0:0:
204,275,26322,2,0,L|138:272,1,47.4999987316132,4|0,0:3|0:3,0:0:0:0:
95,318,26681,2,0,P|61:323|35:317,1,47.4999987316132,8|8,0:0|0:0,0:0:0:0:
35,245,27041,1,8,0:0:0:0:
55,172,27220,1,8,0:0:0:0:
77,95,27400,6,0,B|124:81|124:81|229:96,2,150,4|4|4,0:0|0:0|0:0,0:0:0:0:
29,256,28837,6,0,L|149:248,1,104.999996795654,6|0,0:0|0:0,0:0:0:0:
285,205,29556,1,8,0:0:0:0:
285,205,29735,2,0,P|291:157|272:85,1,104.999996795654,2|0,0:0|2:0,0:0:0:0:
217,54,30274,2,0,L|145:48,2,52.4999983978272,2|0|0,2:0|0:0|0:0,0:0:0:0:
290,24,30813,1,2,2:0:0:0:
290,24,30993,2,0,L|399:20,1,104.999996795654,8|2,0:0|2:0,0:0:0:0:
477,153,31711,6,0,L|484:229,1,52.4999983978272,0|8,0:0|0:0,0:0:0:0:
464,282,32071,1,2,0:0:0:0:
320,346,32430,1,8,0:0:0:0:
320,346,32609,2,0,P|319:300|315:275,1,52.4999983978272,2|0,0:0|2:0,0:0:0:0:
273,228,32969,1,0,2:0:0:0:
247,153,33148,2,0,L|250:78,2,52.4999983978272,2|8|0,0:0|0:0|0:0,0:0:0:0:
273,228,33687,1,2,2:0:0:0:
226,291,33867,2,0,B|167:301|167:301|118:293,1,104.999996795654,8|2,0:0|2:0,0:0:0:0:
70,234,34406,2,0,P|49:231|24:233,2,26.2499991989136,12|4|6,3:3|3:3|0:0,0:0:0:0:
147,218,34765,5,8,0:0:0:0:
147,218,34945,1,2,0:0:0:0:
207,72,35304,1,8,0:0:0:0:
207,72,35484,2,0,B|250:63|250:63|332:72,1,104.999996795654,2|0,0:0|2:0,0:0:0:0:
371,119,36023,2,0,P|385:153|386:185,2,52.4999983978272,2|8|0,0:0|0:0|2:0,0:0:0:0:
392,43,36562,1,2,0:0:0:0:
392,43,36741,2,0,L|274:38,1,104.999996795654,8|2,0:0|2:0,0:0:0:0:
147,111,37460,6,0,P|152:142|148:174,1,52.4999983978272,0|8,0:0|0:0,0:0:0:0:
125,237,37819,1,2,0:0:0:0:
248,334,38178,2,0,L|312:330,1,52.4999983978272,8|10,0:0|0:0,0:0:0:0:
350,269,38538,1,8,0:0:0:0:
356,190,38717,1,8,0:0:0:0:
317,122,38897,6,0,P|277:112|177:132,2,127.50000243187,4|4|4,0:0|0:0|0:0,0:0:0:0:
438,196,40334,5,2,0:0:0:0:
438,196,40514,1,2,0:0:0:0:
361,344,41053,1,8,0:0:0:0:
361,344,41232,2,0,L|293:347,1,47.4999987316132,0|0,0:0|2:0,0:0:0:0:
168,298,41771,5,4,0:3:0:0:
168,298,41951,1,4,0:3:0:0:
142,226,42130,2,0,L|139:176,1,47.4999987316132,2|0,2:0|2:0,0:0:0:0:
203,137,42490,1,10,0:0:0:0:
203,137,42670,1,4,0:3:0:0:
229,65,42849,2,0,L|232:15,1,47.4999987316132,2|0,2:0|2:0,0:0:0:0:
307,6,43208,5,2,0:0:0:0:
307,6,43388,1,2,0:0:0:0:
356,184,43927,1,8,0:0:0:0:
372,257,44106,2,0,L|375:295,2,23.7499993658066,4|4|4,0:3|0:3|0:3,0:0:0:0:
299,233,44466,1,0,0:0:0:0:
229,261,44645,6,0,P|188:269|166:265,1,47.4999987316132,4|4,0:3|0:3,0:0:0:0:
115,231,45005,2,0,L|45:229,1,47.4999987316132,2|0,2:0|2:0,0:0:0:0:
31,162,45364,2,0,P|26:128|27:93,1,47.4999987316132,8|4,0:0|0:3,0:0:0:0:
55,44,45723,1,12,0:3:0:0:
130,37,45903,1,12,0:3:0:0:
196,78,46083,6,0,B|245:97|245:97|368:58,1,157.499995193482,6|0,0:0|0:0,0:0:0:0:
422,81,46801,2,0,P|428:109|425:137,1,52.4999983978272,8|4,0:0|0:3,0:0:0:0:
361,177,47160,2,0,L|368:297,1,104.999996795654,6|0,0:0|2:0,0:0:0:0:
305,330,47699,2,0,P|271:334|237:344,2,52.4999983978272,10|0|0,0:0|2:0|0:0,0:0:0:0:
367,281,48238,1,10,0:0:0:0:
248,175,48597,2,0,L|254:135,3,26.2499991989136,12|4|12|4,0:3|0:3|0:3|0:3,0:0:0:0:
243,113,48957,6,0,P|238:66|241:55,2,47.4999987316132,6|2|2,0:3|0:3|0:3,0:0:0:0:
359,15,49675,1,8,0:0:0:0:
359,15,49855,2,0,L|365:70,1,47.4999987316132,0|0,0:0|0:0,0:0:0:0:
318,207,50394,5,4,0:3:0:0:
318,207,50574,1,4,0:3:0:0:
247,233,50753,2,0,P|210:227|180:233,1,47.4999987316132,2|0,2:0|2:0,0:0:0:0:
146,275,51112,1,10,0:0:0:0:
146,275,51292,1,0,0:0:0:0:
90,319,51471,2,0,P|53:325|23:319,1,47.4999987316132,2|0,2:0|2:0,0:0:0:0:
12,259,51831,5,2,0:0:0:0:
12,259,52011,1,2,0:0:0:0:
79,74,52550,1,8,0:0:0:0:
150,48,52729,2,0,L|155:11,2,23.7499993658066,4|4|4,0:3|0:3|0:3,0:0:0:0:
215,87,53089,1,0,0:0:0:0:
281,49,53268,6,0,B|312:44|312:44|350:48,1,47.4999987316132,0|0,0:0|0:0,0:0:0:0:
382,98,53627,2,0,P|406:106|432:127,1,47.4999987316132,2|0,2:0|2:0,0:0:0:0:
411,194,53987,2,0,L|417:259,2,47.4999987316132,10|4|8,0:0|0:3|0:0,0:0:0:0:
340,166,54526,1,8,0:0:0:0:
289,222,54705,6,0,P|245:217|141:228,1,142.49999619484,6|0,0:0|0:0,0:0:0:0:
80,263,55424,2,0,L|74:198,1,47.4999987316132,8|4,0:0|0:3,0:0:0:0:
48,144,55783,2,0,B|30:91|30:91|133:103,1,142.49999619484,6|10,0:0|0:0,0:0:0:0:
190,82,56502,1,0,0:0:0:0:
190,82,56681,1,0,0:0:0:0:
257,46,56861,2,0,L|297:37,3,23.7499993658066,10|8|10|8,0:0|0:0|0:0|0:0,0:0:0:0:
317,49,57220,2,0,L|357:40,3,23.7499993658066,10|8|10|8,0:0|0:0|0:0|0:0,0:0:0:0:
382,51,57580,6,0,B|394:112|394:112|387:162,1,104.999996795654,6|0,0:0|2:0,0:0:0:0:
304,286,58298,2,0,P|254:281|179:298,2,104.999996795654,10|0|0,0:0|0:0|2:0,0:0:0:0:
375,320,59196,2,0,P|405:323|439:314,1,52.4999983978272,2|0,0:0|0:0,0:0:0:0:
484,171,59735,1,10,0:0:0:0:
484,171,59915,1,4,0:3:0:0:
429,113,60095,2,0,L|426:40,1,52.4999983978272,8|12,0:3|0:3,0:0:0:0:
364,12,60454,6,0,B|332:35|332:35|246:29,1,104.999996795654,6|0,0:0|2:0,0:0:0:0:
113,66,61172,1,10,0:0:0:0:
57,213,61532,1,2,0:0:0:0:
153,337,61891,1,0,2:0:0:0:
230,353,62071,2,0,L|267:343,2,26.2499991989136,2|0|8,0:0|0:0|2:3,0:0:0:0:
329,230,62609,1,10,0:0:0:0:
373,164,62789,2,0,P|375:135|366:90,1,52.4999983978272,8|8,0:0|0:3,0:0:0:0:
333,43,63148,1,12,0:3:0:0:
333,43,63328,6,0,L|211:40,1,104.999996795654,4|0,0:0|2:0,0:0:0:0:
92,121,64047,2,0,P|77:170|94:238,1,104.999996795654,10|2,0:0|0:0,0:0:0:0:
196,334,64765,1,0,2:0:0:0:
263,293,64945,2,0,B|294:288|294:288|326:290,1,52.4999983978272,10|0,0:0|0:0,0:0:0:0:
459,352,65484,1,10,0:0:0:0:
459,352,65663,2,0,L|453:277,1,52.4999983978272,8|0,0:3|0:0,0:0:0:0:
448,220,66023,1,12,0:3:0:0:
439,141,66202,6,0,B|391:132|391:132|315:140,1,104.999996795654,6|2,0:0|2:3,0:0:0:0:
193,207,66921,2,0,L|186:272,1,52.4999983978272,10|0,0:0|0:0,0:0:0:0:
242,315,67280,2,0,L|235:380,2,52.4999983978272,10|0|2,0:0|0:0|2:0,0:0:0:0:
307,271,67819,2,0,L|312:218,2,52.4999983978272,10|2|0,0:0|0:3|0:0,0:0:0:0:
355,332,68358,2,0,P|392:342|417:337,1,52.4999983978272,10|8,0:0|0:0,0:0:0:0:
479,311,68717,1,10,0:0:0:0:
503,236,68897,1,12,0:3:0:0:
487,158,69077,6,0,L|322:143,1,157.499995193482,6|0,0:0|0:0,0:0:0:0:
251,138,69795,1,14,0:0:0:0:
465,236,70334,1,0,0:0:0:0:
386,228,70514,1,14,0:0:0:0:
386,228,70693,2,0,L|271:218,1,104.999996795654,0|0,0:0|0:0,0:0:0:0:
215,262,71232,2,0,P|204:226|206:199,1,52.4999983978272,14|0,0:0|0:0,0:0:0:0:
330,116,71771,1,4,0:3:0:0:
330,116,71951,6,0,L|336:280,1,157.499995193482,14|0,0:0|0:0,0:0:0:0:
340,352,72669,1,14,0:0:0:0:
453,242,73029,2,0,P|459:208|448:171,1,52.4999983978272,12|0,0:0|0:0,0:0:0:0:
424,118,73388,1,2,2:0:0:0:
424,118,73568,1,12,0:0:0:0:
288,37,73927,1,12,0:3:0:0:
218,72,74106,2,0,L|177:79,3,26.2499991989136,14|8|12|8,0:0|0:3|0:3|0:3,0:0:0:0:
172,111,74466,2,0,L|98:124,1,52.4999983978272,14|4,0:0|0:3,0:0:0:0:
57,167,74825,6,0,B|48:208|48:208|59:271,1,104.999996795654,4|0,0:0|0:0,0:0:0:0:
200,337,75544,1,8,0:0:0:0:
200,337,75723,2,0,L|197:219,1,104.999996795654,2|0,2:0|2:0,0:0:0:0:
243,168,76262,2,0,P|272:162|304:166,2,52.4999983978272,0|10|0,0:0|0:0|2:0,0:0:0:0:
175,126,76801,1,0,0:0:0:0:
175,126,76981,2,0,P|146:120|114:124,1,52.4999983978272,10|0,0:0|0:0,0:0:0:0:
49,149,77340,1,2,2:0:0:0:
118,290,77699,6,0,L|121:355,1,52.4999983978272,0|8,0:0|0:0,0:0:0:0:
195,367,78059,1,2,0:0:0:0:
324,277,78418,2,0,L|326:224,1,52.4999983978272,8|8,0:0|0:0,0:0:0:0:
292,153,78777,1,8,0:0:0:0:
348,97,78957,1,8,0:0:0:0:
305,33,79136,6,0,L|167:24,2,127.50000243187,6|6|6,0:0|0:0|0:0,0:0:0:0:
418,135,80574,5,6,0:0:0:0:
418,135,80753,1,2,0:0:0:0:
361,328,81292,1,8,0:0:0:0:
361,328,81472,2,0,L|294:331,1,47.4999987316132,0|2,0:0|0:3,0:0:0:0:
175,265,82011,5,4,0:3:0:0:
175,265,82190,1,4,0:3:0:0:
167,189,82370,2,0,L|162:126,1,47.4999987316132,2|0,0:0|2:0,0:0:0:0:
158,65,82729,1,10,0:0:0:0:
158,65,82909,1,4,0:3:0:0:
226,97,83089,2,0,L|286:93,1,47.4999987316132,2|0,0:0|2:0,0:0:0:0:
349,85,83448,5,2,0:0:0:0:
349,85,83627,1,2,0:0:0:0:
487,188,84166,1,8,0:0:0:0:
439,247,84346,2,0,L|436:288,2,23.7499993658066,4|4|4,0:3|0:3|0:3,0:0:0:0:
362,242,84705,1,0,0:0:0:0:
302,194,84885,6,0,P|259:188|235:191,1,47.4999987316132,4|4,0:3|0:3,0:0:0:0:
184,215,85244,2,0,L|119:217,1,47.4999987316132,2|0,2:0|2:0,0:0:0:0:
63,196,85603,2,0,P|53:159|54:140,1,47.4999987316132,8|4,0:0|0:3,0:0:0:0:
61,73,85963,1,12,0:3:0:0:
133,50,86142,1,8,0:0:0:0:
208,27,86322,6,0,L|365:22,1,157.499995193482,4|0,0:0|0:0,0:0:0:0:
435,59,87041,2,0,L|443:123,1,52.4999983978272,8|4,0:0|0:3,0:0:0:0:
482,178,87400,2,0,P|432:188|365:113,1,157.499995193482,4|10,0:0|0:0,0:0:0:0:
299,73,88118,1,0,2:0:0:0:
160,149,88478,2,0,L|164:217,1,52.4999983978272,10|0,0:0|2:0,0:0:0:0:
204,268,88837,2,0,P|222:272|242:272,3,26.2499991989136,12|4|8|8,0:3|0:3|0:0|0:0,0:0:0:0:
255,297,89196,6,0,L|321:292,2,47.4999987316132,6|0|2,0:3|0:0|0:3,0:0:0:0:
103,309,89915,1,8,0:0:0:0:
37,269,90095,2,0,L|41:204,1,47.4999987316132,4|0,0:3|0:0,0:0:0:0:
116,90,90633,5,4,0:3:0:0:
116,90,90813,1,4,0:3:0:0:
154,154,90993,2,0,L|211:148,1,47.4999987316132,2|0,2:0|2:0,0:0:0:0:
273,173,91352,1,10,0:0:0:0:
273,173,91532,1,4,0:3:0:0:
337,132,91712,2,0,L|384:136,1,47.4999987316132,2|0,2:0|2:0,0:0:0:0:
456,111,92071,5,2,0:0:0:0:
456,111,92250,1,2,0:0:0:0:
330,301,92789,1,8,0:0:0:0:
276,355,92969,2,0,L|281:388,2,23.7499993658066,0|0|0,0:0|0:0|0:0,0:0:0:0:
200,347,93328,1,0,0:0:0:0:
126,327,93508,6,0,P|96:317|76:299,1,47.4999987316132,4|4,0:3|0:3,0:0:0:0:
66,233,93867,2,0,L|-1:225,1,47.4999987316132,2|0,2:0|0:0,0:0:0:0:
27,151,94226,2,0,P|37:123|36:88,1,47.4999987316132,8|4,0:0|0:3,0:0:0:0:
35,28,94586,1,12,0:3:0:0:
110,18,94765,1,12,0:3:0:0:
150,93,94945,6,0,P|176:106|301:59,1,157.499995193482,4|0,0:0|0:0,0:0:0:0:
370,66,95663,2,0,L|377:137,1,52.4999983978272,8|8,0:0|0:0,0:0:0:0:
387,196,96023,1,8,0:0:0:0:
400,273,96202,1,4,0:0:0:0:
270,358,96562,1,4,0:0:0:0:
270,358,97100,6,0,L|263:182,1,157.499995193482,8|0,0:0|2:0,0:0:0:0:
225,130,97819,6,0,B|187:118|187:118|103:138,1,104.999996795654,4|0,0:0|2:0,0:0:0:0:
31,261,98538,2,0,P|17:309|39:375,2,104.999996795654,10|0|0,0:0|0:0|0:0,0:0:0:0:
77,197,99436,2,0,L|71:132,1,52.4999983978272,2|8,0:0|0:3,0:0:0:0:
181,30,99975,2,0,P|177:56|185:98,2,52.4999983978272,8|12|8,0:0|0:3|0:3,0:0:0:0:
255,4,100514,1,12,0:3:0:0:
325,39,100693,6,0,L|332:160,1,104.999996795654,4|0,0:0|2:0,0:0:0:0:
273,290,101412,2,0,P|235:280|154:284,1,104.999996795654,10|2,0:0|0:0,0:0:0:0:
20,330,102130,1,0,0:0:0:0:
16,251,102310,2,0,L|-25:243,2,26.2499991989136,8|8|12,0:0|0:3|0:3,0:0:0:0:
134,146,102849,1,10,0:0:0:0:
134,146,103029,2,0,L|249:141,1,104.999996795654,10|12,2:1|0:3,0:0:0:0:
307,101,103568,6,0,P|319:142|286:208,1,104.999996795654,4|0,0:0|2:0,0:0:0:0:
175,297,104286,2,0,B|148:299|148:299|117:294,1,52.4999983978272,10|0,0:0|0:0,0:0:0:0:
51,260,104645,1,2,0:0:0:0:
16,105,105005,1,2,0:0:0:0:
16,105,105184,2,0,L|84:101,1,52.4999983978272,8|0,0:0|0:0,0:0:0:0:
209,172,105723,2,0,P|250:175|282:166,1,52.4999983978272,10|4,0:0|0:3,0:0:0:0:
326,126,106083,2,0,L|388:122,1,52.4999983978272,0|12,0:0|0:3,0:0:0:0:
451,152,106442,6,0,P|432:183|435:268,1,104.999996795654,4|0,0:0|2:0,0:0:0:0:
340,380,107160,1,10,0:0:0:0:
238,259,107520,1,10,0:0:0:0:
128,372,107879,1,0,0:0:0:0:
55,340,108059,1,8,0:0:0:0:
58,261,108238,2,0,L|23:256,2,26.2499991989136,8|8|8,0:0|0:0|0:0,0:0:0:0:
137,251,108597,2,0,L|172:246,3,26.2499991989136,8|8|8|8,0:0|0:0|0:0|0:0,0:0:0:0:
180,211,108957,2,0,L|209:191,3,26.2499991989136,12|4|12|4,0:3|0:3|0:3|0:3,0:0:0:0:
225,164,109316,6,0,B|230:91|230:91|213:46,1,104.999996795654,4|0,0:0|2:0,0:0:0:0:
69,112,110035,2,0,P|58:155|75:230,2,104.999996795654,10|0|2,0:0|0:0|0:0,0:0:0:0:
133,66,110933,2,0,L|193:64,1,52.4999983978272,8|0,0:0|0:0,0:0:0:0:
315,154,111472,1,10,0:0:0:0:
374,102,111651,2,0,L|426:103,1,52.4999983978272,4|0,0:3|0:0,0:0:0:0:
468,36,112011,1,12,0:3:0:0:
468,36,112190,6,0,B|427:23|427:23|352:28,1,104.999996795654,4|0,0:0|2:0,0:0:0:0:
235,117,112909,2,0,P|186:129|128:91,1,104.999996795654,10|2,0:0|0:0,0:0:0:0:
10,196,113627,1,0,0:0:0:0:
50,263,113807,2,0,L|25:295,2,26.2499991989136,8|8|8,0:0|0:0|0:3,0:0:0:0:
205,233,114346,1,10,0:0:0:0:
205,233,114526,2,0,L|276:228,1,52.4999983978272,8|0,0:0|2:0,0:0:0:0:
335,240,114885,1,12,0:3:0:0:
403,278,115065,6,0,P|411:240|370:172,1,104.999996795654,4|0,0:0|2:0,0:0:0:0:
250,98,115783,2,0,L|180:95,1,52.4999983978272,10|0,0:0|0:0,0:0:0:0:
122,72,116142,1,2,0:0:0:0:
23,195,116502,1,2,2:0:0:0:
23,195,116681,2,0,P|17:238|22:262,1,52.4999983978272,8|8,0:0|0:3,0:0:0:0:
131,356,117220,1,10,0:0:0:0:
131,356,117400,2,0,P|132:296|121:229,1,104.999996795654,4|12,0:3|0:3,0:0:0:0:
67,198,117939,6,0,P|110:210|176:193,1,104.999996795654,4|0,0:0|2:0,0:0:0:0:
314,140,118657,2,0,L|318:64,1,52.4999983978272,10|4,0:0|0:3,0:0:0:0:
392,63,119017,2,0,L|396:-13,1,52.4999983978272,10|4,0:0|0:3,0:0:0:0:
471,30,119376,1,0,0:0:0:0:
471,30,119556,2,0,P|477:82|438:136,1,104.999996795654,10|4,0:0|0:3,0:0:0:0:
385,169,120095,2,0,L|388:241,1,52.4999983978272,10|8,0:0|0:0,0:0:0:0:
329,274,120454,1,8,0:0:0:0:
270,326,120633,1,8,0:0:0:0:
208,374,120813,6,0,B|163:360|163:360|105:367|105:367|65:327,1,157.499995193482,6|0,0:0|0:0,0:0:0:0:
32,259,121532,1,14,0:0:0:0:
149,153,121891,2,0,L|154:88,1,52.4999983978272,0|0,2:0|0:0,0:0:0:0:
208,44,122250,1,14,0:0:0:0:
208,44,122430,1,0,0:0:0:0:
359,131,122969,2,0,B|373:176|373:176|366:234|366:234|406:274,1,157.499995193482,14|0,0:0|0:0,0:0:0:0:
468,314,123687,6,0,L|308:320,1,157.499995193482,14|0,0:0|0:0,0:0:0:0:
259,259,124406,1,14,0:0:0:0:
125,342,124765,2,0,L|69:344,1,52.4999983978272,12|0,0:0|0:0,0:0:0:0:
25,280,125124,1,0,0:0:0:0:
25,280,125304,1,12,0:0:0:0:
99,141,125663,2,0,L|105:98,2,26.2499991989136,4|6|12,0:3|0:3|0:0,0:0:0:0:
86,219,126023,1,4,0:3:0:0:
127,237,138059,6,0,P|123:193|74:103,1,142.49999619484,4|2,0:0|0:3,0:0:0:0:
124,47,138777,2,0,L|183:40,1,47.4999987316132,10|0,0:0|0:0,0:0:0:0:
242,14,139136,2,0,P|245:65|169:115,1,142.49999619484,4|12,0:0|0:3,0:0:0:0:
117,163,139855,1,0,0:0:0:0:
177,302,140214,2,0,L|176:368,2,47.4999987316132,8|2|2,0:0|0:3|0:0,0:0:0:0:
214,235,140753,1,4,0:3:0:0:
255,171,140933,6,0,P|294:161|408:160,1,142.49999619484,4|2,0:0|0:3,0:0:0:0:
463,192,141651,2,0,P|460:227|468:258,1,47.4999987316132,8|0,0:0|0:0,0:0:0:0:
431,309,142011,2,0,B|385:298|385:298|283:317,1,142.49999619484,4|8,0:0|0:0,0:0:0:0:
217,334,142729,1,6,0:3:0:0:
113,222,143089,2,0,L|106:161,1,47.4999987316132,8|8,0:0|0:0,0:0:0:0:
154,114,143448,2,0,L|147:53,1,47.4999987316132,8|12,0:0|0:3,0:0:0:0:
205,16,143807,5,6,0:0:0:0:
205,16,143987,1,4,0:3:0:0:
335,93,144346,2,0,L|340:161,1,47.4999987316132,2|8,0:0|0:0,0:0:0:0:
302,207,144705,2,0,P|301:224|305:246,2,23.7499993658066,4|4|2,0:3|0:3|0:0,0:0:0:0:
176,121,145244,1,2,0:3:0:0:
109,84,145424,2,0,L|83:69,2,23.7499993658066,4|4|4,0:3|0:3|0:3,0:0:0:0:
211,196,145963,2,0,P|219:232|221:260,1,47.4999987316132,8|4,0:0|0:3,0:0:0:0:
259,307,146322,2,0,L|320:311,1,47.4999987316132,12|0,0:3|0:0,0:0:0:0:
366,263,146681,5,6,0:0:0:0:
366,263,146861,1,4,0:3:0:0:
281,136,147220,2,0,P|246:133|221:137,1,47.4999987316132,2|8,0:0|0:0,0:0:0:0:
164,167,147580,2,0,L|128:162,2,23.7499993658066,4|4|2,0:3|0:3|0:0,0:0:0:0:
274,270,148118,1,2,0:3:0:0:
347,289,148298,2,0,L|383:284,2,23.7499993658066,4|4|4,0:3|0:3|0:3,0:0:0:0:
296,346,148657,1,4,0:3:0:0:
296,346,148837,2,0,L|236:353,1,47.4999987316132,8|4,0:0|0:3,0:0:0:0:
185,308,149196,2,0,L|125:301,1,47.4999987316132,12|6,0:3|0:3,0:0:0:0:
68,270,149556,6,0,B|65:222|65:222|40:182|40:182|37:123,1,142.49999619484,4|0,0:0|0:0,0:0:0:0:
83,74,150274,2,0,P|108:82|146:78,1,47.4999987316132,8|0,0:0|0:0,0:0:0:0:
195,118,150633,2,0,B|278:97|278:97|307:93|352:118,1,142.49999619484,4|12,0:0|0:3,0:0:0:0:
337,184,151352,2,0,L|343:248,1,47.4999987316132,2|2,0:3|0:0,0:0:0:0:
393,287,151711,2,0,P|400:318|401:347,2,47.4999987316132,0|2|2,0:0|0:3|0:0,0:0:0:0:
271,182,152430,6,0,L|103:177,1,150,4|4,0:0|0:3,0:0:0:0:
49,141,153148,2,0,B|45:111|45:111|46:84,1,50,8|8,0:0|0:0,0:0:0:0:
98,30,153508,1,8,0:0:0:0:
177,23,153687,1,8,0:0:0:0:
243,65,153867,2,0,P|265:70|351:44,1,112.500004291535,4|0,0:0|0:0,0:0:0:0:
392,118,154586,2,0,P|370:123|272:84,1,127.50000243187,4|0,0:0|2:0,0:0:0:0:
201,59,155304,6,0,L|208:187,1,104.999996795654,4|0,0:0|0:0,0:0:0:0:
301,290,156023,2,0,B|339:280|339:280|425:294,2,104.999996795654,10|0|0,0:0|0:0|2:0,0:0:0:0:
225,311,156921,1,10,0:0:0:0:
225,311,157100,2,0,L|157:306,1,52.4999983978272,0|0,0:0|2:0,0:0:0:0:
112,255,157460,2,0,P|85:242|41:239,1,52.4999983978272,10|12,0:0|0:3,0:0:0:0:
17,173,157819,2,0,L|12:108,1,52.4999983978272,0|4,0:0|0:3,0:0:0:0:
59,56,158178,6,0,P|93:79|164:78,1,104.999996795654,4|0,0:0|2:0,0:0:0:0:
310,109,158897,2,0,L|305:238,1,104.999996795654,10|10,0:0|0:0,0:0:0:0:
205,334,159615,1,0,2:0:0:0:
158,269,159795,2,0,L|119:281,2,26.2499991989136,8|0|2,0:0|0:0|0:0,0:0:0:0:
305,213,160334,1,10,0:0:0:0:
384,203,160514,2,0,L|461:200,2,52.4999983978272,8|8|4,0:0|0:3|0:3,0:0:0:0:
305,213,161053,6,0,B|261:226|261:226|183:213,1,104.999996795654,4|0,0:0|2:0,0:0:0:0:
76,122,161771,2,0,L|70:58,1,52.4999983978272,10|0,0:0|0:0,0:0:0:0:
127,14,162130,1,2,0:0:0:0:
277,60,162490,1,0,0:0:0:0:
277,60,162669,2,0,P|294:100|287:160,1,104.999996795654,10|0,0:0|2:0,0:0:0:0:
228,212,163208,1,8,0:0:0:0:
158,249,163388,2,0,L|92:252,2,52.4999983978272,2|0|4,2:0|0:0|0:3,0:0:0:0:
228,212,163927,6,0,P|282:223|347:208,1,104.999996795654,4|2,0:0|0:3,0:0:0:0:
477,159,164645,2,0,L|480:106,1,52.4999983978272,10|0,0:0|0:0,0:0:0:0:
403,85,165005,2,0,L|399:32,1,52.4999983978272,10|0,0:0|0:0,0:0:0:0:
324,8,165364,1,12,0:3:0:0:
245,19,165544,1,8,0:0:0:0:
207,87,165723,2,0,L|170:78,2,26.2499991989136,8|8|8,0:0|0:0|0:0,0:0:0:0:
289,84,166083,2,0,P|297:103|299:127,3,26.2499991989136,8|8|8|8,0:0|0:0|0:0|0:0,0:0:0:0:
280,143,166442,2,0,P|279:163|270:186,3,26.2499991989136,12|8|12|0,0:3|0:3|0:3|0:0,0:0:0:0:
263,205,166801,6,0,L|152:210,1,104.999996795654,4|0,0:0|2:0,0:0:0:0:
3,241,167520,2,0,L|11:356,2,104.999996795654,10|0|0,0:0|0:0|2:0,0:0:0:0:
39,170,168418,2,0,P|43:137|45:98,1,52.4999983978272,10|0,0:0|0:0,0:0:0:0:
168,20,168957,1,10,0:0:0:0:
168,20,169136,2,0,L|174:94,1,52.4999983978272,4|12,0:3|0:3,0:0:0:0:
216,138,169496,1,4,0:3:0:0:
216,138,169675,6,0,L|337:142,1,104.999996795654,4|0,0:0|2:0,0:0:0:0:
451,229,170394,2,0,P|463:269|443:351,1,104.999996795654,10|10,0:0|0:0,0:0:0:0:
298,356,171112,1,0,2:0:0:0:
298,356,171292,2,0,L|294:283,1,52.4999983978272,10|0,0:0|0:0,0:0:0:0:
228,160,171831,1,10,0:0:0:0:
155,190,172011,2,0,L|89:185,2,52.4999983978272,8|4|12,0:0|0:3|0:3,0:0:0:0:
216,239,172550,6,0,P|279:223|303:176,1,104.999996795654,4|0,0:0|0:0,0:0:0:0:
359,46,173268,1,10,0:0:0:0:
415,192,173627,1,2,0:0:0:0:
377,345,173987,1,0,0:0:0:0:
377,345,174166,2,0,L|306:355,1,52.4999983978272,10|0,0:0|0:0,0:0:0:0:
170,320,174705,1,10,0:0:0:0:
115,262,174885,2,0,L|55:260,1,52.4999983978272,8|0,0:3|0:3,0:0:0:0:
28,106,175424,6,0,B|75:92|75:92|151:97,1,104.999996795654,4|0,0:0|2:0,0:0:0:0:
274,159,176142,2,0,L|345:153,1,52.4999983978272,10|0,0:0|0:0,0:0:0:0:
401,180,176502,2,0,P|423:207|438:242,1,52.4999983978272,10|0,0:0|0:0,0:0:0:0:
416,305,176861,1,2,0:3:0:0:
416,305,177041,2,0,L|423:375,1,52.4999983978272,12|4,0:3|0:3,0:0:0:0:
290,269,177580,2,0,L|220:267,1,52.4999983978272,10|4,0:0|0:3,0:0:0:0:
173,313,177939,2,0,L|120:314,1,52.4999983978272,8|4,0:0|0:3,0:0:0:0:
50,278,178298,6,0,P|80:252|103:184,1,104.999996795654,4|2,0:0|0:0,0:0:0:0:
54,41,179017,1,8,0:0:0:0:
54,41,179196,2,0,B|121:50|121:50|177:36,1,104.999996795654,2|0,0:0|2:0,0:0:0:0:
230,69,179735,1,2,0:0:0:0:
230,69,179915,2,0,P|235:112|237:144,2,52.4999983978272,8|0|2,0:0|0:0|2:0,0:0:0:0:
290,18,180454,1,8,0:0:0:0:
349,69,180633,2,0,L|425:66,1,52.4999983978272,0|2,0:0|2:0,0:0:0:0:
471,30,180993,1,0,2:0:0:0:
471,30,181172,6,0,P|481:64|479:90,2,52.4999983978272,0|8|2,0:0|0:0|0:0,0:0:0:0:
375,155,181891,2,0,L|379:217,1,52.4999983978272,8|2,0:0|0:0,0:0:0:0:
392,285,182250,2,0,P|370:310|334:325,1,52.4999983978272,0|0,2:0|2:0,0:0:0:0:
275,306,182609,1,2,0:0:0:0:
211,353,182789,2,0,L|137:357,1,52.4999983978272,8|0,0:0|0:0,0:0:0:0:
93,310,183148,1,0,0:0:0:0:
93,310,183328,2,0,L|85:240,2,52.4999983978272,10|0|0,0:0|0:0|0:0,0:0:0:0:
36,365,183867,2,0,L|9:380,2,26.2499991989136,12|4|6,3:3|3:3|0:0,0:0:0:0:
112,382,184226,6,0,P|143:368|162:341,1,52.4999983978272,0|2,0:0|0:0,0:0:0:0:
213,208,184765,1,8,0:0:0:0:
213,208,184945,2,0,L|216:147,1,52.4999983978272,2|0,0:0|2:0,0:0:0:0:
189,81,185304,1,0,2:0:0:0:
189,81,185484,2,0,L|114:74,2,52.4999983978272,2|8|0,0:0|0:0|2:0,0:0:0:0:
261,49,186023,1,2,0:0:0:0:
261,49,186202,2,0,L|335:46,1,52.4999983978272,8|0,0:0|0:0,0:0:0:0:
376,94,186562,2,0,P|411:97|444:88,1,52.4999983978272,2|0,2:0|2:0,0:0:0:0:
502,119,186921,5,0,0:0:0:0:
502,119,187100,2,0,L|505:188,1,52.4999983978272,10|0,0:0|2:0,0:0:0:0:
422,306,187639,2,0,B|389:310|389:310|355:304,1,52.4999983978272,10|8,0:0|0:0,0:0:0:0:
293,285,187999,1,8,0:0:0:0:
216,303,188178,1,8,0:0:0:0:
147,265,188358,6,0,B|144:220|144:220|122:193|122:193|115:153|135:118,2,142.49999619484,4|4|4,0:0|0:0|0:0,0:0:0:0:
225,346,189795,1,4,0:0:0:0:
256,192,189885,12,0,195544,2:0:0:0:
