osu file format v14

[General]
AudioFilename: breath.mp3
AudioLeadIn: 0
PreviewTime: 60970
Countdown: 0
SampleSet: Soft
StackLeniency: 0.9
Mode: 0
LetterboxInBreaks: 0
WidescreenStoryboard: 0

[Editor]
Bookmarks: 41939,89844,98703,101000,103625,106250,108875,131843,136108,136272,136436,140702
DistanceSpacing: 1
BeatDivisor: 4
GridSize: 4
TimelineZoom: 1

[Metadata]
Title:Breath
TitleUnicode:Breath
Artist:Breaking Benjamin
ArtistUnicode:Breaking Benjamin
Creator:pishifat
Version:Normal
Source:
Tags:phobia punk metal
BeatmapID:821940
BeatmapSetID:374683

[Difficulty]
HPDrainRate:4
CircleSize:3.5
OverallDifficulty:4
ApproachRate:5
SliderMultiplier:1.8
SliderTickRate:1

[Events]
//Background and Video events
0,0,"ASDSAD.png",0,0
//Break Periods
2,78970,82164
2,99970,106444
//Storyboard Layer 0 (Background)
//Storyboard Layer 1 (Fail)
//Storyboard Layer 2 (Pass)
//Storyboard Layer 3 (Foreground)
//Storyboard Sound Samples

[TimingPoints]
23,656.231,4,2,2,40,1,0
23,-105.263157894737,4,2,2,40,0,0
1253,-105.263157894737,4,2,2,20,0,0
1499,-105.263157894737,4,2,2,40,0,0
1827,-105.263157894737,4,2,2,10,0,0
1909,-105.263157894737,4,2,2,40,0,0
3878,-105.263157894737,4,2,2,20,0,0
4124,-105.263157894737,4,2,2,40,0,0
4452,-105.263157894737,4,2,2,10,0,0
4534,-105.263157894737,4,2,2,40,0,0
5273,-95.2380952380952,4,2,1,80,0,0
6503,-95.2380952380952,4,2,1,40,0,0
6585,-95.2380952380952,4,2,1,80,0,0
9866,-95.2380952380952,4,2,1,60,0,0
10522,-100,4,2,1,80,0,0
11753,-100,4,2,1,60,0,0
11999,-100,4,2,1,80,0,0
14378,-100,4,2,1,60,0,0
14624,-100,4,2,1,80,0,0
15772,-95.2380952380952,4,2,1,80,0,0
19873,-95.2380952380952,4,2,1,60,0,0
20202,-95.2380952380952,4,2,1,70,0,0
21022,-105.263157894737,4,2,2,65,0,0
62036,-105.263157894737,4,2,1,65,0,0
62364,-95.2380952380954,4,2,1,65,0,0
63021,-95.2380952380952,4,2,1,75,0,0
64251,-95.2380952380952,4,2,1,40,0,0
64333,-95.2380952380952,4,2,1,75,0,0
65153,-95.2380952380952,4,2,2,55,0,0
65646,-95.2380952380952,4,2,1,75,0,0
66876,-95.2380952380952,4,2,1,40,0,0
66958,-95.2380952380952,4,2,1,75,0,0
67778,-95.2380952380952,4,2,2,55,0,0
68271,-95.2380952380952,4,2,1,75,0,0
69501,-95.2380952380952,4,2,1,40,0,0
69583,-95.2380952380952,4,2,1,75,0,0
70403,-95.2380952380952,4,2,2,55,0,0
70895,-95.2380952380952,4,2,1,75,0,0
75653,-95.2380952380952,4,2,2,75,0,0
76145,-95.2380952380952,4,2,1,75,0,0
78114,-95.2380952380952,4,2,1,70,0,0
78278,-95.2380952380952,4,2,1,66,0,0
78442,-95.2380952380952,4,2,1,62,0,0
78606,-95.2380952380952,4,2,1,57,0,0
78770,-95.2380952380952,4,2,2,52,0,0
83364,-95.2380952380952,4,2,2,65,0,0
84020,-95.2380952380952,4,2,1,80,0,1
85250,-95.2380952380952,4,2,1,40,0,1
85333,-95.2380952380952,4,2,1,80,0,1
90500,-95.2380952380952,4,2,1,40,0,1
90582,-95.2380952380952,4,2,1,80,0,1
99770,-105.263157894737,4,3,1,70,0,0
99852,-105.263157894737,4,3,3,70,0,0
102395,-105.263157894737,4,3,1,70,0,0
102477,-105.263157894737,4,3,3,70,0,0
105019,-105.263157894737,4,3,1,70,0,0
105101,-105.263157894737,4,3,3,70,0,0
107644,-105.263157894737,4,3,1,70,0,0
107726,-105.263157894737,4,3,3,70,0,0
110269,-95.2380952380952,4,2,1,70,0,0
118144,-95.2380952380952,4,2,1,45,0,0
118308,-95.2380952380952,4,2,1,48,0,0
118472,-95.2380952380952,4,2,1,52,0,0
118636,-95.2380952380952,4,2,1,55,0,0
118800,-95.2380952380952,4,2,1,58,0,0
118964,-95.2380952380952,4,2,1,62,0,0
119128,-95.2380952380952,4,2,1,65,0,0
119292,-95.2380952380952,4,2,1,68,0,0
119457,-95.2380952380952,4,2,1,72,0,0
119621,-95.2380952380952,4,2,1,75,0,0
120769,-105.263157894737,4,2,1,80,0,1
131269,-95.2380952380952,4,2,1,80,0,1
132499,-95.2380952380952,4,2,1,40,0,1
132581,-95.2380952380952,4,2,1,80,0,1
141768,-95.2380952380952,4,2,2,60,0,0
143081,701.754385964912,4,2,2,60,1,0
143081,-125,4,2,2,60,0,0
143431,-200,4,2,2,10,0,0
143607,-200,4,2,2,60,0,0
143782,-200,4,2,2,10,0,0
144133,-100,4,2,2,44,0,0
144221,-100,4,2,2,5,0,0

[Colours]
Combo1 : 109,130,167
Combo2 : 200,209,186
Combo3 : 148,163,182
Combo4 : 176,191,149

[HitObjects]
105,184,23,6,0,L|51:188,2,42.7499988584519,0|0|0,0:0|0:0|0:0,0:0:0:0:
145,169,515,1,0,0:0:0:0:
197,285,1007,1,0,0:0:0:0:
281,189,1499,2,0,P|360:186|408:220,1,128.249996575356,0|0,0:0|0:0,0:0:0:0:
307,354,2647,6,0,L|250:364,2,42.7499988584519,0|0|0,0:0|0:0|0:0,0:0:0:0:
347,367,3140,1,0,0:0:0:0:
270,263,3632,1,0,0:0:0:0:
167,339,4124,2,0,P|110:341|48:297,1,128.249996575356,0|0,0:0|0:0,0:0:0:0:
69,132,5272,6,0,B|120:127|120:127|146:138|146:138|210:132,1,128.249996575356,4|2,0:0|0:0,0:0:0:0:
233,105,5929,2,0,P|297:107|331:128,1,94.499997116089,8|2,0:0|0:0,0:0:0:0:
364,213,6585,1,2,0:3:0:0:
364,213,6749,2,0,L|370:327,1,94.499997116089,2|0,0:0|0:0,0:0:0:0:
358,353,7241,2,0,B|310:350|310:350|263:370,1,94.499997116089,8|0,0:0|0:0,0:0:0:0:
179,334,7897,6,0,P|171:235|211:193,1,141.749995674133,4|2,0:0|0:0,0:0:0:0:
237,187,8554,1,8,0:0:0:0:
331,195,8882,1,8,0:0:0:0:
429,209,9210,1,2,0:3:0:0:
429,209,9374,2,0,P|419:127|404:107,1,94.499997116089,8|2,0:0|0:0,0:0:0:0:
378,87,9866,2,0,L|374:25,2,47.2499985580445,8|2|8,0:0|0:0|0:0,0:0:0:0:
290,105,10522,6,0,B|251:82|251:82|147:75,1,135,4|2,0:0|0:0,0:0:0:0:
116,73,11178,1,8,0:0:0:0:
70,150,11507,1,2,0:0:0:0:
203,171,11999,2,0,P|241:220|232:303,1,135,2|8,0:0|0:0,0:0:0:0:
287,117,13147,6,0,B|341:106|341:106|370:119|370:119|431:105,1,135,6|2,0:0|0:0,0:0:0:0:
460,97,13803,1,8,0:0:0:0:
507,173,14131,1,2,0:0:0:0:
431,285,14624,2,0,P|385:251|292:256,1,135,2|8,0:0|0:0,0:0:0:0:
156,360,15772,6,0,L|143:215,1,141.749995674133,4|2,0:0|0:0,0:0:0:0:
159,174,16428,1,8,0:0:0:0:
130,83,16756,2,0,P|77:65|32:74,1,94.499997116089,2|2,0:0|0:3,0:0:0:0:
5,103,17249,1,8,0:0:0:0:
52,236,17741,2,0,L|57:305,2,47.2499985580445,8|8|4,0:0|0:3|0:3,0:0:0:0:
125,176,18397,6,0,B|174:171|174:171|218:190,1,94.499997116089,4|2,0:0|0:0,0:0:0:0:
282,255,19053,1,2,0:3:0:0:
375,238,19381,2,0,P|414:169|404:107,1,141.749995674133,8|8,0:0|0:3,0:0:0:0:
372,75,20038,1,8,0:3:0:0:
320,154,20366,2,0,L|263:164,2,47.2499985580445,8|8|4,0:3|0:3|0:3,0:0:0:0:
375,238,21022,6,0,L|202:267,1,170.999995433807,4|8,0:0|0:0,0:0:0:0:
116,238,22006,1,2,0:0:0:0:
136,146,22334,2,0,P|162:154|182:168,2,42.7499988584519,0|0|2,0:0|0:0|0:3,0:0:0:0:
45,172,22991,2,0,P|22:204|15:266,1,85.4999977169037,8|0,0:0|0:0,0:0:0:0:
51,334,23647,6,0,L|142:342,1,85.4999977169037,2|0,0:0|0:0,0:0:0:0:
214,288,24303,2,0,P|256:261|308:258,1,85.4999977169037,8|2,0:0|0:0,0:0:0:0:
335,270,24795,2,0,L|345:366,2,85.4999977169037,2|0|0,0:0|0:0|0:0,0:0:0:0:
365,233,25616,1,8,0:0:0:0:
381,140,25944,1,0,0:0:0:0:
335,57,26272,6,0,P|278:45|240:57,1,85.4999977169037,2|0,0:0|0:0,0:0:0:0:
191,122,26928,2,0,L|101:129,1,85.4999977169037,8|2,0:0|0:0,0:0:0:0:
63,149,27420,2,0,P|24:214|35:279,1,128.249996575356,2|2,0:0|0:3,0:0:0:0:
112,304,28240,2,0,P|157:284|209:289,1,85.4999977169037,8|0,0:0|0:0,0:0:0:0:
267,341,28897,6,0,P|321:370|355:370,2,85.4999977169037,2|0|8,0:0|0:0|0:0,0:0:0:0:
286,248,29881,1,2,0:0:0:0:
379,237,30209,2,0,L|471:230,1,85.4999977169037,0|2,0:0|0:3,0:0:0:0:
468,136,30865,2,0,L|413:139,2,42.7499988584519,8|8|4,0:0|0:3|0:3,0:0:0:0:
510,51,31522,6,0,P|420:8|338:32,1,170.999995433807,6|8,0:0|0:0,0:0:0:0:
301,100,32506,1,2,0:0:0:0:
245,176,32834,6,0,L|103:185,1,128.249996575356,0|0,0:0|0:0,0:0:0:0:
74,204,33490,2,0,P|56:249|61:290,1,85.4999977169037,8|0,0:0|0:0,0:0:0:0:
140,333,34147,2,0,P|205:312|237:316,1,85.4999977169037,2|2,0:0|0:3,0:0:0:0:
309,344,34803,1,8,0:0:0:0:
397,376,35131,1,2,0:0:0:0:
473,320,35459,6,0,L|481:178,1,128.249996575356,0|0,0:0|0:0,0:0:0:0:
463,147,36115,2,0,P|410:128|369:135,1,85.4999977169037,8|0,0:0|0:0,0:0:0:0:
318,200,36771,6,0,L|325:303,1,85.4999977169037,6|2,0:0|0:3,0:0:0:0:
261,355,37428,2,0,P|201:353|165:333,1,85.4999977169037,8|2,0:0|0:0,0:0:0:0:
144,309,37920,2,0,L|140:211,1,85.4999977169037,2|0,0:0|0:0,0:0:0:0:
140,176,38412,1,2,0:3:0:0:
230,152,38740,2,0,P|249:111|243:56,1,85.4999977169037,8|0,0:0|0:0,0:0:0:0:
163,29,39396,6,0,L|60:36,1,85.4999977169037,2|2,0:0|0:3,0:0:0:0:
22,111,40053,2,0,P|42:154|37:199,1,85.4999977169037,8|2,0:0|0:0,0:0:0:0:
21,234,40545,2,0,L|125:245,1,85.4999977169037,2|0,0:0|0:0,0:0:0:0:
152,245,41037,1,2,0:3:0:0:
228,190,41365,2,0,P|226:168|217:137,2,42.7499988584519,8|8|4,0:0|0:3|0:3,0:0:0:0:
240,283,42021,6,0,P|315:295|396:223,1,170.999995433807,6|8,0:0|0:0,0:0:0:0:
368,149,43006,1,2,0:0:0:0:
421,71,43334,2,0,L|474:65,2,42.7499988584519,0|0|2,0:0|0:0|0:3,0:0:0:0:
327,61,43990,2,0,P|266:42|235:46,1,85.4999977169037,8|0,0:0|0:0,0:0:0:0:
169,99,44646,6,0,L|178:203,1,85.4999977169037,2|0,0:0|0:0,0:0:0:0:
221,266,45302,2,0,P|270:283|322:276,1,85.4999977169037,8|2,0:0|0:0,0:0:0:0:
348,271,45794,2,0,L|356:175,2,85.4999977169037,2|0|0,0:0|0:0|0:0,0:0:0:0:
379,306,46615,1,8,0:0:0:0:
317,377,46943,1,0,0:0:0:0:
224,358,47271,6,0,L|125:351,1,85.4999977169037,2|0,0:0|0:0,0:0:0:0:
60,300,47927,2,0,P|57:253|81:205,1,85.4999977169037,8|2,0:0|0:0,0:0:0:0:
109,190,48420,2,0,L|115:100,1,85.4999977169037,2|0,0:0|0:0,0:0:0:0:
118,57,48912,1,2,0:3:0:0:
201,13,49240,2,0,P|252:21|283:41,1,85.4999977169037,8|0,0:0|0:0,0:0:0:0:
337,113,49896,6,0,L|428:120,2,85.4999977169037,2|0|8,0:0|0:0|0:0,0:0:0:0:
250,148,50880,1,2,0:0:0:0:
325,204,51209,2,0,P|348:250|344:299,1,85.4999977169037,0|2,0:0|0:3,0:0:0:0:
332,375,51865,2,0,L|390:385,2,42.7499988584519,8|8|4,0:0|0:3|0:3,0:0:0:0:
258,316,52521,6,0,L|73:325,1,170.999995433807,6|8,0:0|0:0,0:0:0:0:
33,246,53505,1,2,0:0:0:0:
75,161,53833,6,0,P|138:153|204:194,1,128.249996575356,0|0,0:0|0:0,0:0:0:0:
222,218,54489,2,0,P|265:215|308:192,1,85.4999977169037,8|0,0:0|0:0,0:0:0:0:
362,123,55146,2,0,P|390:160|398:211,2,85.4999977169037,2|2|8,0:0|0:3|0:0,0:0:0:0:
269,106,56130,1,2,0:0:0:0:
302,196,56458,6,0,L|290:326,1,128.249996575356,0|0,0:0|0:0,0:0:0:0:
269,365,57114,2,0,P|223:359|176:330,1,85.4999977169037,8|0,0:0|0:0,0:0:0:0:
163,250,57770,6,0,P|128:235|78:233,1,85.4999977169037,6|2,0:0|0:3,0:0:0:0:
91,138,58427,2,0,L|185:125,1,85.4999977169037,8|2,0:0|0:0,0:0:0:0:
213,153,58919,2,0,P|259:172|303:170,1,85.4999977169037,2|0,0:0|0:0,0:0:0:0:
336,150,59411,1,2,0:3:0:0:
384,69,59739,2,0,P|414:96|433:154,1,85.4999977169037,8|0,0:0|0:0,0:0:0:0:
399,225,60396,6,0,L|406:284,2,42.7499988584519,2|8|8,0:0|0:0|0:0,0:0:0:0:
309,266,61052,2,0,L|321:313,2,42.7499988584519,8|8|2,0:0|0:0|0:3,0:0:0:0:
216,310,61708,2,0,L|244:363,2,42.7499988584519,0|8|4,0:0|0:3|0:3,0:0:0:0:
153,234,62364,2,0,L|95:227,1,47.2499985580445,10|10,0:0|0:0,0:0:0:0:
56,224,62693,1,10,0:0:0:0:
92,136,63021,6,0,B|145:124|145:124|182:133|182:133|248:123,1,141.749995674133,6|2,0:0|0:0,0:0:0:0:
267,95,63677,2,0,P|314:95|361:119,1,94.499997116089,8|8,0:0|0:0,0:0:0:0:
295,187,64333,2,0,L|288:345,1,141.749995674133,2|0,0:3|0:0,0:0:0:0:
287,375,64989,1,8,0:0:0:0:
448,277,65646,6,0,B|442:223|442:223|424:194|424:194|416:124,1,141.749995674133,6|2,0:0|0:0,0:0:0:0:
408,94,66302,2,0,P|366:71|312:73,1,94.499997116089,8|8,0:0|0:0,0:0:0:0:
251,135,66958,2,0,L|255:204,2,47.2499985580445,2|2|0,0:3|0:0|0:0,0:0:0:0:
226,43,67614,1,8,0:0:0:0:
165,222,68271,6,0,P|251:278|298:268,1,141.749995674133,6|2,0:0|0:0,0:0:0:0:
320,243,68927,2,0,P|379:237|417:253,1,94.499997116089,8|8,0:0|0:0,0:0:0:0:
471,321,69583,2,0,L|461:165,1,141.749995674133,2|0,0:3|0:0,0:0:0:0:
458,132,70239,1,8,0:0:0:0:
315,256,70895,6,0,P|276:252|223:226,1,94.499997116089,6|0,0:0|0:0,0:0:0:0:
196,138,71552,1,8,0:0:0:0:
188,91,71716,1,8,0:0:0:0:
95,198,72208,1,8,0:0:0:0:
55,172,72372,1,8,0:0:0:0:
84,310,72864,2,0,L|23:319,2,47.2499985580445,8|8|8,0:0|0:3|0:3,0:0:0:0:
172,277,73520,6,0,B|225:283|225:283|255:304|255:304|326:308,1,141.749995674133,6|2,0:0|0:0,0:0:0:0:
352,295,74177,2,0,P|370:248|363:203,1,94.499997116089,8|8,0:0|0:0,0:0:0:0:
285,153,74833,2,0,P|278:91|320:26,1,141.749995674133,2|2,0:3|0:0,0:0:0:0:
365,17,75489,1,8,0:0:0:0:
363,205,76145,6,0,B|313:200|313:200|284:215|284:215|208:206,1,141.749995674133,6|2,0:0|0:0,0:0:0:0:
178,216,76802,2,0,P|144:262|145:303,1,94.499997116089,8|8,0:0|0:0,0:0:0:0:
214,360,77458,2,0,L|307:349,1,94.499997116089,2|0,0:3|0:0,0:0:0:0:
349,326,77950,1,8,0:0:0:0:
389,301,78114,2,0,L|395:241,2,47.2499985580445,8|8|4,0:0|0:3|0:3,0:0:0:0:
445,376,78770,5,4,2:0:0:0:
387,158,83364,5,2,0:0:0:0:
255,293,84020,6,0,B|208:286|208:286|174:297|174:297|112:288,1,141.749995674133,6|2,0:0|0:0,0:0:0:0:
75,264,84676,1,8,0:0:0:0:
105,174,85004,2,0,P|148:147|201:140,1,94.499997116089,2|2,0:0|0:3,0:0:0:0:
281,166,85661,1,2,0:0:0:0:
349,100,85989,2,0,L|355:49,2,47.2499985580445,8|2|0,0:0|0:0|0:0,0:0:0:0:
420,162,86645,6,0,P|460:216|446:302,1,141.749995674133,2|2,0:0|0:0,0:0:0:0:
418,317,87301,2,0,L|322:324,1,94.499997116089,8|2,0:0|0:0,0:0:0:0:
239,280,87957,2,0,B|188:269|188:269|153:283|153:283|83:270,1,141.749995674133,2|2,0:0|0:0,0:0:0:0:
63,245,88614,1,8,0:0:0:0:
40,153,88942,1,2,0:0:0:0:
100,80,89270,6,0,P|167:123|236:102,1,141.749995674133,6|2,0:0|0:0,0:0:0:0:
252,72,89926,1,8,0:0:0:0:
332,22,90254,2,0,P|383:28|427:65,1,94.499997116089,2|2,0:0|0:3,0:0:0:0:
444,142,90910,1,2,0:0:0:0:
364,193,91239,2,0,P|347:238|357:286,1,94.499997116089,8|0,0:0|0:0,0:0:0:0:
422,348,91895,6,0,B|370:335|370:335|338:346|338:346|267:331,1,141.749995674133,2|2,0:0|0:0,0:0:0:0:
246,307,92551,1,8,0:0:0:0:
192,229,92879,2,0,P|145:226|94:253,1,94.499997116089,2|2,0:0|0:3,0:0:0:0:
64,273,93371,2,0,L|49:172,1,94.499997116089,8|2,0:0|0:0,0:0:0:0:
41,132,93864,2,0,P|17:115|-17:105,2,47.2499985580445,12|2|2,0:0|0:0|0:0,0:0:0:0:
109,66,94520,6,0,B|163:44|163:44|255:53,1,141.749995674133,6|2,0:0|0:0,0:0:0:0:
292,59,95176,1,8,0:0:0:0:
258,147,95504,2,0,P|306:185|395:173,1,141.749995674133,2|8,0:0|0:0,0:0:0:0:
414,144,96160,1,2,0:3:0:0:
478,212,96488,2,0,L|489:313,1,94.499997116089,8|8,0:0|0:3,0:0:0:0:
403,349,97145,6,0,B|352:339|352:339|322:351|322:351|250:339,1,141.749995674133,6|2,0:0|0:0,0:0:0:0:
224,317,97801,2,0,P|203:265|216:211,1,94.499997116089,8|2,0:0|0:0,0:0:0:0:
273,160,98457,2,0,L|331:155,2,47.2499985580445,2|8|8,0:0|0:0|0:0,0:0:0:0:
182,133,99113,2,0,P|139:122|116:124,1,47.2499985580445,8|8,0:0|0:3,0:0:0:0:
90,131,99441,1,8,0:3:0:0:
44,211,99770,5,6,0:2:0:0:
256,192,107644,12,2,108957,0:0:0:0:
234,293,110269,6,0,P|152:318|134:313,1,94.499997116089,6|2,0:0|0:0,0:0:0:0:
69,261,110926,2,0,L|53:161,1,94.499997116089,8|2,0:0|0:0,0:0:0:0:
78,76,111582,1,2,0:0:0:0:
144,143,111910,2,0,L|156:210,2,47.2499985580445,2|2|8,0:0|0:0|0:0,0:0:0:0:
176,54,112566,1,2,0:0:0:0:
237,125,112894,6,0,P|287:145|334:140,1,94.499997116089,6|2,0:0|0:0,0:0:0:0:
365,115,113386,1,2,0:0:0:0:
385,72,113550,2,0,P|435:53|491:63,1,94.499997116089,8|2,0:0|0:0,0:0:0:0:
448,147,114207,2,0,L|446:256,1,94.499997116089,2|2,0:0|0:0,0:0:0:0:
443,335,114863,1,8,0:0:0:0:
359,290,115191,1,2,0:0:0:0:
276,336,115519,6,0,P|228:339|174:309,1,94.499997116089,6|2,0:0|0:0,0:0:0:0:
149,233,116175,2,0,L|141:130,1,94.499997116089,8|2,0:0|0:0,0:0:0:0:
160,45,116832,1,2,0:0:0:0:
70,74,117160,2,0,L|5:70,2,47.2499985580445,2|2|8,0:0|0:0|0:0,0:0:0:0:
141,138,117816,1,2,0:0:0:0:
230,107,118144,6,0,L|290:102,2,47.2499985580445,8|8|8,0:0|0:0|0:0,0:0:0:0:
256,197,118800,2,0,L|316:192,2,47.2499985580445,8|8|8,0:0|0:0|0:0,0:0:0:0:
183,257,119457,2,0,P|159:246|123:237,2,47.2499985580445,8|8|8,0:0|0:0|0:0,0:0:0:0:
239,332,120113,1,8,0:0:0:0:
329,305,120441,1,8,0:0:0:0:
413,345,120769,6,0,L|423:204,1,128.249996575356,6|2,0:0|0:0,0:0:0:0:
422,170,121425,2,0,P|377:132|335:126,1,85.4999977169037,8|2,0:0|0:0,0:0:0:0:
273,177,122081,2,0,L|175:184,1,85.4999977169037,8|0,0:0|0:0,0:0:0:0:
95,162,122738,2,0,P|73:116|75:77,1,85.4999977169037,2|2,0:3|0:0,0:0:0:0:
148,25,123394,6,0,B|199:32|199:32|221:52|221:52|275:60,1,128.249996575356,2|2,0:3|0:0,0:0:0:0:
308,35,124050,2,0,P|354:22|409:31,1,85.4999977169037,2|2,0:3|0:0,0:0:0:0:
448,99,124706,2,0,L|461:232,1,128.249996575356,8|8,0:0|0:0,0:0:0:0:
463,273,125363,1,2,0:3:0:0:
375,307,125691,1,8,0:0:0:0:
308,240,126019,6,0,P|252:229|192:269,1,128.249996575356,6|2,0:0|0:0,0:0:0:0:
173,307,126675,2,0,P|127:322|74:312,1,85.4999977169037,8|2,0:0|0:0,0:0:0:0:
35,241,127331,6,0,L|28:152,1,85.4999977169037,8|0,0:0|0:0,0:0:0:0:
66,69,127988,2,0,P|130:49|164:58,1,85.4999977169037,2|2,0:3|0:0,0:0:0:0:
207,123,128644,6,0,L|341:133,1,128.249996575356,2|2,0:3|0:0,0:0:0:0:
380,143,129300,2,0,P|402:178|406:230,1,85.4999977169037,2|2,0:3|0:0,0:0:0:0:
331,277,129956,1,8,0:0:0:0:
237,264,130284,1,8,0:0:0:0:
144,246,130612,2,0,L|139:189,2,42.7499988584519,8|8|4,0:0|0:3|0:3,0:0:0:0:
55,281,131269,6,0,L|40:131,1,141.749995674133,6|2,0:0|0:0,0:0:0:0:
49,93,131925,2,0,P|98:72|149:78,1,94.499997116089,8|2,0:0|0:0,0:0:0:0:
208,137,132581,2,0,L|301:147,1,94.499997116089,2|8,0:0|0:0,0:0:0:0:
347,133,133073,1,2,0:0:0:0:
393,122,133237,2,0,P|453:132|481:155,1,94.499997116089,8|2,0:0|0:0,0:0:0:0:
489,246,133894,6,0,L|342:262,1,141.749995674133,2|2,0:0|0:0,0:0:0:0:
301,267,134550,1,8,0:0:0:0:
239,339,134878,2,0,P|180:333|142:300,1,94.499997116089,2|2,0:0|0:0,0:0:0:0:
132,270,135370,2,0,L|122:170,1,94.499997116089,8|2,0:0|0:0,0:0:0:0:
102,133,135862,2,0,P|71:125|37:124,2,47.2499985580445,8|2|2,0:0|0:0|0:0,0:0:0:0:
185,88,136519,6,0,P|248:77|323:129,1,141.749995674133,6|2,0:0|0:0,0:0:0:0:
327,159,137175,1,8,0:0:0:0:
233,173,137503,2,0,P|216:231|224:272,1,94.499997116089,2|2,0:0|0:0,0:0:0:0:
249,301,137995,1,8,0:0:0:0:
293,317,138159,2,0,L|390:323,2,94.499997116089,0|8|2,0:0|0:0|0:0,0:0:0:0:
218,375,139143,6,0,B|165:381|165:381|134:364|134:364|61:373,1,141.749995674133,6|2,0:0|0:0,0:0:0:0:
36,356,139800,2,0,P|10:306|18:259,1,94.499997116089,8|2,0:0|0:0,0:0:0:0:
84,207,140456,2,0,L|142:212,2,47.2499985580445,2|8|8,0:0|0:0|0:0,0:0:0:0:
32,127,141112,2,0,P|82:110|96:109,1,47.2499985580445,8|8,0:0|0:3,0:0:0:0:
123,111,141440,1,8,0:3:0:0:
209,149,141768,5,4,0:0:0:0:
209,149,143081,6,0,L|323:158,2,108,2|2|6,0:0|0:0|0:0,0:0:0:0:
256,192,144221,12,0,148695,0:0:0:0:
