osu file format v14

[General]
AudioFilename: breath.mp3
AudioLeadIn: 0
PreviewTime: 60970
Countdown: 0
SampleSet: Soft
StackLeniency: 0.5
Mode: 0
LetterboxInBreaks: 0
WidescreenStoryboard: 0

[Editor]
Bookmarks: 41939,89844,98703,101000,103625,106250,108875,131843,136108,136272,136436,140702,148695
DistanceSpacing: 1.2
BeatDivisor: 4
GridSize: 4
TimelineZoom: 1

[Metadata]
Title:Breath
TitleUnicode:Breath
Artist:Breaking Benjamin
ArtistUnicode:Breaking Benjamin
Creator:pishifat
Version:Extra
Source:
Tags:phobia punk metal
BeatmapID:821525
BeatmapSetID:374683

[Difficulty]
HPDrainRate:7
CircleSize:4.5
OverallDifficulty:8.6
ApproachRate:9
SliderMultiplier:2.72
SliderTickRate:1

[Events]
//Background and Video events
0,0,"ASDSAD.png",0,0
//Break Periods
2,78970,82764
//Storyboard Layer 0 (Background)
//Storyboard Layer 1 (Fail)
//Storyboard Layer 2 (Pass)
//Storyboard Layer 3 (Foreground)
//Storyboard Sound Samples

[TimingPoints]
23,656.231,4,2,2,40,1,0
23,-143.061516452074,4,2,2,40,0,0
1253,-143.061516452074,4,2,2,20,0,0
1499,-143.061516452074,4,2,2,40,0,0
1827,-143.061516452074,4,2,2,10,0,0
1909,-143.061516452074,4,2,2,40,0,0
3878,-143.061516452074,4,2,2,20,0,0
4124,-143.061516452074,4,2,2,40,0,0
4452,-143.061516452074,4,2,2,10,0,0
4534,-143.061516452074,4,2,2,40,0,0
5272,-90.9090909090909,4,2,1,80,0,0
6503,-90.9090909090909,4,2,1,40,0,0
6585,-90.9090909090909,4,2,1,80,0,0
9866,-90.9090909090909,4,2,1,60,0,0
10522,-100,4,2,1,80,0,0
11507,-111.111111111111,4,2,1,80,0,0
11753,-100,4,2,1,60,0,0
11999,-111.111111111111,4,2,1,80,0,0
13147,-100,4,2,1,80,0,0
14131,-111.111111111111,4,2,1,80,0,0
14378,-100,4,2,1,60,0,0
14624,-111.111111111111,4,2,1,80,0,0
15280,-133.333333333333,4,2,1,80,0,0
15772,-90.9090909090909,4,2,1,80,0,0
19873,-90.9090909090909,4,2,1,60,0,0
20202,-90.9090909090909,4,2,1,70,0,0
21022,-117.647058823529,4,2,2,65,0,0
62036,-105.263157894737,4,2,1,65,0,0
63021,-100,4,2,1,75,0,0
64251,-100,4,2,1,40,0,0
64333,-100,4,2,1,75,0,0
65153,-250,4,2,2,55,0,0
65646,-100,4,2,1,75,0,0
66876,-100,4,2,1,40,0,0
66958,-100,4,2,1,75,0,0
67778,-250,4,2,2,55,0,0
68271,-100,4,2,1,75,0,0
69501,-100,4,2,1,40,0,0
69583,-100,4,2,1,75,0,0
70403,-250,4,2,2,55,0,0
70895,-100,4,2,1,75,0,0
72372,-86.9565217391304,4,2,1,75,0,0
72864,-100,4,2,1,75,0,0
75653,-100,4,2,2,75,0,0
76145,-100,4,2,1,75,0,0
78114,-100,4,2,1,70,0,0
78278,-100,4,2,1,66,0,0
78442,-100,4,2,1,62,0,0
78606,-100,4,2,1,57,0,0
78770,-100,4,2,2,52,0,0
83364,-100,4,2,2,65,0,0
84020,-90.9090909090909,4,2,1,80,0,1
85250,-90.9090909090909,4,2,1,40,0,1
85333,-90.9090909090909,4,2,1,80,0,1
90500,-90.9090909090909,4,2,1,40,0,1
90582,-90.9090909090909,4,2,1,80,0,1
99770,-105.263157894737,4,3,1,70,0,0
99852,-105.263157894737,4,3,3,70,0,0
102395,-105.263157894737,4,3,1,70,0,0
102477,-105.263157894737,4,3,3,70,0,0
105019,-105.263157894737,4,3,1,70,0,0
105101,-105.263157894737,4,3,3,70,0,0
107644,-105.263157894737,4,3,1,70,0,0
107726,-105.263157894737,4,3,3,70,0,0
110269,-98.0392156862745,4,2,1,70,0,0
118144,-98.0392156862745,4,2,1,45,0,0
118308,-98.0392156862745,4,2,1,48,0,0
118472,-98.0392156862745,4,2,1,52,0,0
118636,-98.0392156862745,4,2,1,55,0,0
118800,-98.0392156862745,4,2,1,58,0,0
118964,-98.0392156862745,4,2,1,62,0,0
119128,-98.0392156862745,4,2,1,65,0,0
119292,-98.0392156862745,4,2,1,68,0,0
119457,-98.0392156862745,4,2,1,72,0,0
119621,-98.0392156862745,4,2,1,75,0,0
120769,-111.111111111111,4,2,1,80,0,1
131269,-90.9090909090909,4,2,1,80,0,1
132499,-90.9090909090909,4,2,1,40,0,1
132581,-90.9090909090909,4,2,1,80,0,1
141768,-200,4,2,2,60,0,0
143081,701.754385964912,4,2,2,60,1,0
144133,-100,4,2,2,44,0,0
144221,-100,4,2,2,5,0,0

[Colours]
Combo1 : 109,130,167
Combo2 : 200,209,186
Combo3 : 148,163,182
Combo4 : 176,191,149

[HitObjects]
64,211,23,6,0,L|57:266,2,47.4499978279115,0|0|0,0:0|0:0|0:0,0:0:0:0:
74,132,515,1,0,0:0:0:0:
274,285,1007,6,0,L|282:360,1,71.1749967418672,0|0,0:0|0:0,0:0:0:0:
384,161,1499,6,0,L|371:325,1,142.349993483734,0|0,0:0|0:0,0:0:0:0:
372,302,2647,6,0,L|425:313,2,47.5319976791017,0|0|0,0:0|0:0|0:0,0:0:0:0:
295,282,3140,1,0,0:0:0:0:
392,150,3632,6,0,L|321:160,1,71.1749967418672,0|0,0:0|0:0,0:0:0:0:
496,61,4124,6,0,L|355:40,1,142.349993483734,0|0,0:0|0:0,0:0:0:0:
77,151,5272,6,0,P|120:101|215:119,1,149.60000456543,4|0,0:0|0:0,0:0:0:0:
25,214,5765,1,2,0:0:0:0:
166,332,5929,2,0,L|269:341,1,74.8000022827149,8|0,0:0|0:0,0:0:0:0:
53,289,6257,2,0,P|22:337|32:381,1,74.8000022827149,2|0,0:0|0:0,0:0:0:0:
276,257,6585,5,2,0:3:0:0:
153,320,6749,1,2,0:0:0:0:
124,246,6913,1,2,0:0:0:0:
286,268,7077,1,0,0:0:0:0:
94,171,7241,1,8,0:0:0:0:
145,110,7405,1,2,0:0:0:0:
221,134,7569,2,0,L|309:142,1,74.8000022827149,0|0,0:0|0:0,0:0:0:0:
153,320,7897,6,0,B|204:307|204:307|227:279|227:279|286:268,1,149.60000456543,4|0,0:0|0:0,0:0:0:0:
398,348,8389,1,2,0:0:0:0:
156,237,8554,2,0,L|143:147,1,74.8000022827149,8|0,0:0|0:0,0:0:0:0:
370,272,8882,1,8,0:0:0:0:
398,197,9046,1,2,0:0:0:0:
225,284,9210,5,2,0:3:0:0:
206,105,9374,1,8,0:0:0:0:
280,134,9538,1,2,0:3:0:0:
103,199,9702,1,2,0:0:0:0:
91,184,9784,1,2,0:0:0:0:
80,168,9866,5,8,0:0:0:0:
116,158,9948,1,8,0:0:0:0:
146,179,10030,1,2,0:0:0:0:
154,215,10112,1,2,0:0:0:0:
137,248,10194,5,8,0:0:0:0:
183,234,10276,1,8,0:0:0:0:
208,192,10358,1,8,0:0:0:0:
210,143,10440,1,8,0:0:0:0:
192,102,10522,6,0,B|152:73|152:73|53:66,1,136,4|0,0:0|0:0,0:0:0:0:
212,13,11014,1,2,0:0:0:0:
137,248,11178,1,8,0:0:0:0:
137,248,11507,6,0,P|163:284|160:329,1,91.7999971984864,2|0,0:0|0:0,0:0:0:0:
87,192,11999,6,0,P|169:263|154:340,1,183.599994396973,2|8,0:0|0:0,0:0:0:0:
439,118,12983,1,2,0:0:0:0:
439,118,13065,1,2,0:0:0:0:
439,118,13147,6,0,B|396:149|396:149|296:158,1,136,6|0,0:0|0:0,0:0:0:0:
470,204,13639,1,2,0:0:0:0:
301,309,13803,1,8,0:0:0:0:
301,309,14131,6,0,P|255:309|210:344,1,91.7999971984864,2|0,0:0|0:0,0:0:0:0:
374,346,14624,5,2,0:0:0:0:
320,286,14788,2,0,P|253:295|211:348,1,122.399996264649,2|8,0:0|0:0,0:0:0:0:
374,346,15280,6,0,P|403:291|385:237,1,102.000003890991,2|2,0:0|0:0,0:0:0:0:
242,210,15772,6,0,B|248:152|248:152|272:129|272:129|277:71,1,149.60000456543,4|0,0:0|0:0,0:0:0:0:
164,166,16264,1,2,0:0:0:0:
408,126,16428,1,8,0:0:0:0:
362,60,16592,1,0,0:0:0:0:
317,247,16756,6,0,P|272:288|179:264,1,149.60000456543,2|2,0:0|0:3,0:0:0:0:
392,207,17249,1,8,0:0:0:0:
196,92,17413,1,2,0:3:0:0:
164,166,17577,1,2,0:0:0:0:
408,126,17741,5,8,0:0:0:0:
273,94,17905,1,8,0:3:0:0:
392,207,18069,1,4,0:3:0:0:
423,48,18233,1,4,0:3:0:0:
374,287,18397,6,0,P|328:308|283:302,1,74.8000022827149,4|0,0:0|0:0,0:0:0:0:
164,166,18725,1,2,0:0:0:0:
241,189,18889,1,2,0:0:0:0:
95,217,19053,2,0,L|-10:204,1,74.8000022827149,2|0,0:3|0:0,0:0:0:0:
262,109,19381,6,0,P|323:176|293:254,1,149.60000456543,8|2,0:0|0:3,0:0:0:0:
184,86,19873,1,8,0:3:0:0:
182,74,19956,1,8,0:3:0:0:
180,62,20038,1,8,0:3:0:0:
330,47,20202,1,8,0:3:0:0:
242,188,20366,5,8,0:3:0:0:
252,16,20530,1,8,0:3:0:0:
386,104,20694,1,4,0:3:0:0:
184,86,20858,1,4,0:3:0:0:
468,111,21022,6,0,P|506:158|491:233,1,115.600002204895,4|0,0:0|0:0,0:0:0:0:
504,210,21678,2,0,P|466:217|441:237,1,57.8000011024475,8|0,0:0|0:0,0:0:0:0:
402,358,22006,1,2,0:0:0:0:
402,358,22170,1,2,0:0:0:0:
462,305,22334,5,0,0:0:0:0:
387,278,22498,2,0,L|308:269,1,57.8000011024475,0|2,0:0|0:3,0:0:0:0:
211,322,22827,1,0,0:0:0:0:
211,322,22991,2,0,L|91:330,1,115.600002204895,8|0,0:0|0:0,0:0:0:0:
268,21,23647,5,2,0:0:0:0:
268,21,23811,1,2,0:0:0:0:
268,21,23975,2,0,L|275:102,1,57.8000011024475,0|0,0:0|0:0,0:0:0:0:
291,196,24303,2,0,P|239:155|171:175,1,115.600002204895,8|2,0:0|0:0,0:0:0:0:
165,244,24795,6,0,P|197:240|223:228,1,57.8000011024475,2|0,0:0|0:0,0:0:0:0:
95,290,25123,2,0,P|62:286|37:274,1,57.8000011024475,0|2,0:0|0:3,0:0:0:0:
169,326,25451,1,0,0:0:0:0:
93,210,25616,1,8,0:0:0:0:
93,210,25944,1,0,0:0:0:0:
95,290,26108,1,0,0:0:0:0:
229,171,26272,5,2,0:0:0:0:
229,171,26436,1,2,0:0:0:0:
229,171,26600,2,0,L|219:253,1,57.8000011024475,0|0,0:0|0:0,0:0:0:0:
297,128,26928,2,0,L|287:12,1,115.600002204895,8|2,0:0|0:0,0:0:0:0:
302,207,27420,6,0,P|336:237|425:222,1,115.600002204895,2|0,0:0|0:0,0:0:0:0:
297,128,27912,1,2,0:3:0:0:
229,171,28076,1,0,0:0:0:0:
371,166,28240,2,0,P|381:135|374:93,1,57.8000011024475,8|0,0:0|0:0,0:0:0:0:
287,12,28569,1,0,0:0:0:0:
250,280,28897,5,2,0:0:0:0:
250,280,29061,1,2,0:0:0:0:
250,280,29225,2,0,L|182:287,1,57.8000011024475,0|0,0:0|0:0,0:0:0:0:
371,166,29553,1,8,0:0:0:0:
371,166,29881,1,2,0:0:0:0:
315,224,30045,1,2,0:0:0:0:
328,304,30209,6,0,P|371:326|407:330,1,57.8000011024475
471,228,30537,1,2,0:3:0:0:
393,249,30701,1,0,0:0:0:0:
504,152,30865,5,8,0:0:0:0:
418,100,31029,1,8,0:3:0:0:
333,126,31193,1,4,0:3:0:0:
306,200,31358,1,0,0:0:0:0:
306,200,31522,6,0,L|233:206,1,57.8000011024475,6|2,0:0|0:0,0:0:0:0:
109,84,31850,2,0,P|164:96|196:155,1,115.600002204895,0|8,0:0|0:0,0:0:0:0:
195,142,32506,1,2,0:0:0:0:
118,162,32670,1,2,0:0:0:0:
162,340,32834,6,0,L|170:223,1,115.600002204895,0|2,0:0|0:3,0:0:0:0:
244,361,33326,1,0,0:0:0:0:
244,361,33490,2,0,L|259:290,1,57.8000011024475,8|0,0:0|0:0,0:0:0:0:
323,378,33818,1,0,0:0:0:0:
393,340,33982,1,0,0:0:0:0:
401,342,34064,1,0,0:0:0:0:
409,345,34147,6,0,L|481:337,1,57.8000011024475,2|2,0:0|0:0,0:0:0:0:
343,279,34475,2,0,P|330:228|384:171,1,115.600002204895,2|8,0:3|0:0,0:0:0:0:
363,178,35131,1,2,0:0:0:0:
331,105,35295,1,2,0:0:0:0:
248,227,35459,6,0,L|122:239,1,115.600002204895,0|2,0:0|0:3,0:0:0:0:
256,145,35951,1,0,0:0:0:0:
256,145,36115,2,0,L|175:130,1,57.8000011024475,8|0,0:0|0:0,0:0:0:0:
331,105,36443,1,0,0:0:0:0:
363,178,36607,1,0,0:0:0:0:
365,186,36689,1,0,0:0:0:0:
367,194,36771,6,0,P|395:193|434:179,1,57.8000011024475,6|2,0:0|0:0,0:0:0:0:
291,226,37100,2,0,P|283:248|284:290,1,57.8000011024475,2|0,0:3|0:0,0:0:0:0:
368,370,37428,2,0,L|233:360,1,115.600002204895,8|2,0:0|0:0,0:0:0:0:
197,258,37920,6,0,P|161:222|80:233,1,115.600002204895,2|0,0:0|0:0,0:0:0:0:
115,352,38412,2,0,P|126:321|123:283,1,57.8000011024475,2|0,0:3|0:0,0:0:0:0:
26,190,38740,2,0,P|19:142|67:84,1,115.600002204895,8|0,0:0|0:0,0:0:0:0:
134,106,39232,1,0,0:0:0:0:
142,108,39314,1,0,0:0:0:0:
150,110,39396,6,0,L|226:102,1,57.8000011024475,2|2,0:0|0:0,0:0:0:0:
270,53,39724,2,0,P|305:41|348:43,1,57.8000011024475,2|0,0:3|0:0,0:0:0:0:
286,130,40053,2,0,P|344:173|396:162,1,115.600002204895,8|2,0:0|0:0,0:0:0:0:
474,244,40545,6,0,P|415:241|367:290,1,115.600002204895,2|0,0:0|0:0,0:0:0:0:
306,374,41037,1,2,0:3:0:0:
294,295,41201,1,0,0:0:0:0:
165,337,41365,5,8,0:0:0:0:
179,258,41529,1,8,0:3:0:0:
196,180,41693,2,0,L|206:116,1,57.8000011024475,4|0,0:3|0:0,0:0:0:0:
58,223,42021,6,0,P|40:209|4:197,1,57.8000011024475,6|2,0:0|0:0,0:0:0:0:
69,303,42349,1,0,0:0:0:0:
69,303,42678,2,0,L|145:298,1,57.8000011024475,8|0,0:0|0:0,0:0:0:0:
253,335,43006,1,2,0:0:0:0:
253,335,43170,1,2,0:0:0:0:
205,266,43334,5,0,0:0:0:0:
263,211,43498,2,0,P|295:200|332:200,1,57.8000011024475,0|2,0:0|0:3,0:0:0:0:
403,282,43826,1,0,0:0:0:0:
403,282,43990,2,0,L|396:153,1,115.600002204895,8|0,0:0|0:0,0:0:0:0:
180,152,44646,5,2,0:0:0:0:
180,152,44810,1,2,0:0:0:0:
180,152,44974,2,0,P|214:147|255:127,1,57.8000011024475,0|0,0:0|0:0,0:0:0:0:
120,96,45302,2,0,L|-6:82,1,115.600002204895,8|2,0:0|0:0,0:0:0:0:
74,226,45795,6,0,P|97:188|100:166,1,57.8000011024475,2|0,0:0|0:0,0:0:0:0:
194,284,46123,2,0,P|176:260|168:233,1,57.8000011024475,0|2,0:0|0:3,0:0:0:0:
168,365,46451,1,0,0:0:0:0:
168,365,46615,2,0,L|98:373,1,57.8000011024475,8|0,0:0|0:0,0:0:0:0:
247,349,46943,2,0,L|317:357,1,57.8000011024475,0|0,0:0|0:0,0:0:0:0:
425,333,47271,5,2,0:0:0:0:
425,333,47435,1,2,0:0:0:0:
425,333,47599,2,0,P|398:325|370:304,1,57.8000011024475,0|0,0:0|0:0,0:0:0:0:
458,154,47927,2,0,P|467:216|428:262,1,115.600002204895,8|2,0:0|0:0,0:0:0:0:
307,255,48419,6,0,L|181:263,1,115.600002204895,2|0,0:0|0:0,0:0:0:0:
69,304,48911,1,2,0:3:0:0:
146,329,49075,1,0,0:0:0:0:
143,196,49239,2,0,P|115:177|77:169,1,57.8000011024475,8|0,0:0|0:0,0:0:0:0:
13,186,49568,1,0,0:0:0:0:
271,109,49896,5,2,0:0:0:0:
271,109,50060,1,2,0:0:0:0:
271,109,50224,2,0,L|264:174,1,57.8000011024475,0|0,0:0|0:0,0:0:0:0:
257,267,50552,1,8,0:0:0:0:
257,267,50880,1,2,0:0:0:0:
197,211,51044,1,2,0:0:0:0:
336,194,51208,6,0,P|370:198|406:220,1,57.8000011024475,0|0,0:0|0:0,0:0:0:0:
387,342,51536,1,2,0:3:0:0:
342,275,51700,1,0,0:0:0:0:
249,366,51864,5,8,0:0:0:0:
155,338,52028,1,8,0:3:0:0:
125,253,52192,1,4,0:3:0:0:
143,178,52357,1,0,0:0:0:0:
143,178,52521,6,0,L|216:184,1,57.8000011024475,6|2,0:0|0:0,0:0:0:0:
273,150,52849,2,0,P|312:116|388:122,1,115.600002204895,2|8,0:3|0:0,0:0:0:0:
373,114,53505,1,2,0:0:0:0:
345,190,53669,1,2,0:0:0:0:
454,137,53833,6,0,L|462:20,1,115.600002204895,0|2,0:0|0:3,0:0:0:0:
373,114,54325,1,0,0:0:0:0:
373,114,54489,2,0,L|364:38,1,57.8000011024475,8|0,0:0|0:0,0:0:0:0:
345,190,54817,1,0,0:0:0:0:
292,130,54981,1,0,0:0:0:0:
269,207,55146,6,0,P|240:214|193:212,1,57.8000011024475,2|2,0:0|0:0,0:0:0:0:
131,163,55474,2,0,P|163:208|151:263,1,115.600002204895,2|8,0:3|0:0,0:0:0:0:
151,263,56130,1,2,0:0:0:0:
218,301,56294,1,2,0:0:0:0:
301,230,56458,6,0,L|309:102,1,115.600002204895,0|2,0:0|0:3,0:0:0:0:
381,258,56950,1,0,0:0:0:0:
381,258,57114,2,0,L|390:193,1,57.8000011024475,8|0,0:0|0:0,0:0:0:0:
447,308,57442,1,0,0:0:0:0:
373,340,57606,1,0,0:0:0:0:
365,343,57688,1,0,0:0:0:0:
356,346,57770,6,0,P|330:334|289:330,1,57.8000011024475,6|2,0:0|0:0,0:0:0:0:
192,359,58099,2,0,L|67:363,1,115.600002204895,2|8,0:3|0:0,0:0:0:0:
76,362,58755,1,2,0:0:0:0:
25,300,58919,6,0,P|12:255|16:218,1,57.8000011024475,2|0,0:0|0:0,0:0:0:0:
99,157,59247,2,0,P|95:194|84:217,1,57.8000011024475,0|2,0:0|0:3,0:0:0:0:
20,167,59575,1,0,0:0:0:0:
164,111,59740,1,8,0:0:0:0:
164,111,60068,2,0,L|221:114,1,57.8000011024475,0|0,0:0|0:0,0:0:0:0:
343,218,60396,5,2,0:0:0:0:
292,68,60560,1,8,0:0:0:0:
185,189,60724,1,8,0:0:0:0:
185,189,60888,1,2,0:0:0:0:
320,144,61052,5,8,0:0:0:0:
214,268,61216,1,8,0:0:0:0:
214,268,61380,2,0,P|244:256|276:251,1,57.8000011024475,2|2,0:3|0:0,0:0:0:0:
420,300,61708,5,0,0:0:0:0:
263,334,61872,1,8,0:3:0:0:
431,289,62036,1,4,0:3:0:0:
326,384,62200,1,0,0:0:0:0:
282,131,62364,5,10,0:0:0:0:
251,348,62528,1,10,0:0:0:0:
272,120,62693,1,10,0:0:0:0:
431,289,62857,1,10,0:0:0:0:
107,317,63021,6,0,P|62:268|86:183,1,136,6|0,0:0|0:0,0:0:0:0:
177,361,63513,1,2,0:0:0:0:
274,199,63677,2,0,L|284:120,1,68,8|0,0:0|0:0,0:0:0:0:
137,244,64005,2,0,P|160:224|214:213,1,68,8|0,0:0|0:0,0:0:0:0:
427,295,64333,5,2,0:3:0:0:
350,316,64497,1,2,0:0:0:0:
468,221,64661,1,0,0:0:0:0:
279,279,64825,1,0,0:0:0:0:
406,90,64989,5,8,0:0:0:0:
406,90,65153,2,0,P|396:118|401:154,1,54.4,2|2,0:0|0:0,0:0:0:0:
469,49,65646,6,0,B|414:45|414:45|388:58|388:58|321:53,1,136,6|0,0:0|0:0,0:0:0:0:
193,41,66138,1,2,0:0:0:0:
321,169,66302,2,0,P|279:144|228:141,1,68,8|0,0:0|0:0,0:0:0:0:
71,201,66630,2,0,P|34:186|9:154,1,68,8|0,0:0|0:0,0:0:0:0:
192,180,66958,5,2,0:3:0:0:
139,241,67122,1,2,0:0:0:0:
151,114,67286,1,0,0:0:0:0:
183,307,67450,1,0,0:0:0:0:
370,151,67614,5,8,0:0:0:0:
370,151,67778,2,0,P|324:165|314:175,1,54.4,2|2,0:0|0:0,0:0:0:0:
404,221,68271,6,0,B|410:170|410:170|401:139|401:139|411:72,1,136,6|0,0:0|0:0,0:0:0:0:
449,286,68763,1,2,0:0:0:0:
264,223,68927,2,0,P|241:174|251:137,1,68,8|0,0:0|0:0,0:0:0:0:
396,344,69255,2,0,L|321:351,1,68,8|0,0:0|0:0,0:0:0:0:
161,152,69583,5,2,0:3:0:0:
241,161,69747,1,2,0:0:0:0:
111,217,69911,1,0,0:0:0:0:
211,88,70075,1,0,0:0:0:0:
257,305,70239,5,8,0:0:0:0:
257,305,70403,2,0,P|261:272|276:249,1,54.4,2|2,0:0|0:0,0:0:0:0:
316,358,70895,6,0,B|267:346|267:346|234:354|234:354|156:334,1,136,6|0,0:0|0:0,0:0:0:0:
141,235,71388,1,2,0:0:0:0:
356,256,71552,5,8,0:0:0:0:
104,169,71716,2,0,P|73:198|87:289,1,136,8|2,0:0|0:0,0:0:0:0:
365,246,72208,5,8,0:0:0:0:
110,160,72372,2,0,P|69:192|87:298,1,156.400002983093,8|2,0:0|0:0,0:0:0:0:
376,236,72864,5,8,0:0:0:0:
243,117,73028,1,8,0:3:0:0:
276,252,73192,1,8,0:3:0:0:
382,157,73356,1,4,0:3:0:0:
202,285,73520,6,0,L|60:272,1,136,6|0,0:0|0:0,0:0:0:0:
276,252,74013,1,2,0:0:0:0:
86,146,74177,2,0,P|67:102|70:71,1,68,8|0,0:0|0:0,0:0:0:0:
278,174,74505,1,8,0:0:0:0:
205,208,74669,1,0,0:0:0:0:
422,284,74833,5,2,0:3:0:0:
384,214,74997,2,0,P|346:200|273:262,1,136,2|2,0:0|0:0,0:0:0:0:
277,261,75407,1,2,0:0:0:0:
283,268,75489,1,8,0:0:0:0:
461,144,75653,5,2,0:0:0:0:
461,144,75981,1,2,0:0:0:0:
291,271,76145,6,0,B|237:275|237:275|208:261|208:261|150:267,1,136,6|0,0:0|0:0,0:0:0:0:
280,356,76637,1,2,0:0:0:0:
260,192,76802,2,0,P|241:168|195:145,1,68,8|0,0:0|0:0,0:0:0:0:
28,215,77130,1,8,0:0:0:0:
77,279,77294,1,0,0:0:0:0:
126,110,77458,5,2,0:3:0:0:
28,215,77622,1,8,0:0:0:0:
139,117,77786,1,0,0:0:0:0:
0,69,77950,1,8,0:0:0:0:
173,259,78114,5,8,0:0:0:0:
222,108,78278,1,8,0:3:0:0:
249,281,78442,1,4,0:3:0:0:
119,198,78606,1,4,0:3:0:0:
343,164,78770,5,4,2:0:0:0:
343,219,83364,5,2,0:0:0:0:
265,33,83528,1,2,0:0:0:0:
265,33,83856,1,2,0:0:0:0:
222,262,84020,6,0,P|175:303|90:291,1,149.60000456543,6|0,0:0|0:0,0:0:0:0:
261,190,84512,1,2,0:0:0:0:
109,154,84676,2,0,P|70:197|68:245,1,74.8000022827149,8|0,0:0|0:0,0:0:0:0:
228,115,85004,2,0,P|221:73|188:38,1,74.8000022827149,2|0,0:0|0:0,0:0:0:0:
149,230,85333,5,2,0:3:0:0:
222,262,85497,1,2,0:0:0:0:
92,293,85661,2,0,L|13:294,1,74.8000022827149,2|0,0:0|0:0,0:0:0:0:
261,190,85989,2,0,P|314:215|332:242,1,74.8000022827149,8|2,0:0|0:0,0:0:0:0:
66,211,86317,2,0,P|47:178|43:131,1,74.8000022827149,0|0,0:0|0:0,0:0:0:0:
322,81,86645,6,0,B|330:140|330:140|315:171|315:171|324:231,1,149.60000456543,2|0,0:0|0:0,0:0:0:0:
359,348,87137,1,2,0:0:0:0:
468,216,87301,2,0,P|413:189|372:193,1,74.8000022827149,8|0,0:0|0:0,0:0:0:0:
232,336,87629,2,0,L|143:344,1,74.8000022827149,2|0,0:0|0:0,0:0:0:0:
123,155,87957,6,0,P|197:139|257:201,1,149.60000456543,2|0,0:0|0:0,0:0:0:0:
98,234,88450,1,2,0:0:0:0:
313,242,88614,2,0,P|335:179|329:150,1,74.8000022827149,8|0,0:0|0:0,0:0:0:0:
176,221,88942,2,0,P|208:255|265:267,1,74.8000022827149,2|0,0:0|0:0,0:0:0:0:
419,188,89270,6,0,B|412:129|412:129|390:103|390:103|380:16,1,149.60000456543,6|0,0:0|0:0,0:0:0:0:
472,252,89762,1,2,0:0:0:0:
334,172,89926,2,0,L|242:167,1,74.8000022827149,8|0,0:0|0:0,0:0:0:0:
66,263,90254,2,0,P|120:238|162:245,1,74.8000022827149,2|0,0:0|0:0,0:0:0:0:
296,320,90582,5,2,0:3:0:0:
237,266,90746,1,2,0:0:0:0:
392,227,90910,2,0,P|409:201|410:142,1,74.8000022827149,2|0,0:0|0:0,0:0:0:0:
162,67,91239,2,0,L|155:146,1,74.8000022827149,8|2,0:0|0:0,0:0:0:0:
334,171,91567,2,0,P|328:135|301:99,1,74.8000022827149,0|2,0:0|0:0,0:0:0:0:
74,111,91895,6,0,B|68:172|68:172|86:199|86:199|78:271,1,149.60000456543,2|0,0:0|0:0,0:0:0:0:
155,141,92387,1,2,0:0:0:0:
0,244,92551,2,0,P|14:303|35:324,1,74.8000022827149,8|0,0:0|0:0,0:0:0:0:
214,196,92879,2,0,P|249:179|300:180,1,74.8000022827149,2|0,0:0|0:0,0:0:0:0:
449,289,93207,5,2,0:3:0:0:
290,366,93371,2,0,L|132:358,1,149.60000456543,8|2,0:0|0:0,0:0:0:0:
335,233,93864,5,12,0:0:0:0:
149,169,94028,1,2,0:0:0:0:
272,285,94192,1,2,0:0:0:0:
213,116,94356,1,2,0:0:0:0:
346,311,94520,6,0,P|403:322|475:246,1,149.60000456543,6|0,0:0|0:0,0:0:0:0:
427,126,95012,1,2,0:0:0:0:
272,285,95176,2,0,L|178:291,1,74.8000022827149,8|0,0:0|0:0,0:0:0:0:
388,242,95504,5,2,0:0:0:0:
178,211,95668,2,0,P|117:272|129:340,1,149.60000456543,0|8,0:0|0:0,0:0:0:0:
247,167,96160,2,0,P|239:114|214:86,1,74.8000022827149,2|2,0:3|0:0,0:0:0:0:
32,214,96488,5,8,0:0:0:0:
45,219,96598,2,0,L|120:228,1,49.8666681884766,8|8,0:0|0:0,0:0:0:0:
197,289,96816,5,8,0:3:0:0:
184,294,96926,2,0,L|134:298,1,49.8666681884766,4|2,0:3|0:3,0:0:0:0:
247,167,97145,6,0,B|301:173|301:173|330:195|330:195|423:203,1,149.60000456543,6|0,0:0|0:0,0:0:0:0:
237,88,97637,1,2,0:0:0:0:
321,277,97801,2,0,P|357:296|414:298,1,74.8000022827149,8|0,0:0|0:0,0:0:0:0:
247,167,98129,2,0,L|165:178,1,74.8000022827149,2|0,0:0|0:0,0:0:0:0:
25,336,98457,5,2,0:0:0:0:
210,271,98621,1,8,0:0:0:0:
210,271,98703,1,8,0:0:0:0:
210,271,98785,1,8,0:0:0:0:
64,135,98949,1,8,0:0:0:0:
154,369,99113,5,8,0:0:0:0:
288,245,99277,1,8,0:3:0:0:
145,214,99441,1,8,0:3:0:0:
272,321,99606,1,4,0:3:0:0:
312,110,99770,6,0,P|343:94|383:91,1,64.5999982749939,6|0,0:2|0:0,0:0:0:0:
447,120,100098,1,2,0:0:0:0:
378,238,100262,1,0,0:0:0:0:
448,201,100426,2,0,P|507:213|531:233,1,64.5999982749939,8|0,0:0|0:0,0:0:0:0:
360,316,100754,1,2,0:0:0:0:
299,263,100918,1,2,0:0:0:0:
289,261,101000,1,2,0:0:0:0:
279,259,101082,5,2,0:0:0:0:
139,309,101246,1,0,0:0:0:0:
91,244,101410,2,0,P|97:191|112:171,1,64.5999982749939,2|0,0:0|0:0,0:0:0:0:
253,124,101738,1,8,0:0:0:0:
191,72,101902,1,0,0:0:0:0:
179,152,102066,1,2,0:0:0:0:
267,45,102230,1,2,0:0:0:0:
365,200,102395,6,0,L|456:207,1,64.5999982749939,6|0,0:2|0:0,0:0:0:0:
336,128,102723,1,2,0:0:0:0:
294,287,102887,1,0,0:0:0:0:
242,229,103051,2,0,P|201:218|173:222,1,64.5999982749939,8|0,0:0|0:0,0:0:0:0:
68,319,103379,1,2,0:0:0:0:
136,360,103543,1,2,0:0:0:0:
145,362,103625,1,2,0:0:0:0:
154,364,103707,5,2,0:0:0:0:
99,203,103871,1,0,0:0:0:0:
152,142,104035,2,0,P|208:124|234:128,1,64.5999982749939,2|0,0:0|0:0,0:0:0:0:
347,239,104363,1,8,0:0:0:0:
268,253,104527,1,0,0:0:0:0:
206,203,104691,1,2,0:0:0:0:
387,171,104855,1,0,0:0:0:0:
235,47,105019,6,0,L|155:44,1,64.5999982749939,6|0,0:2|0:0,0:0:0:0:
292,105,105348,1,2,0:0:0:0:
100,158,105512,1,0,0:0:0:0:
59,89,105676,2,0,P|74:52|103:28,1,64.5999982749939,8|0,0:0|0:0,0:0:0:0:
240,164,106004,1,2,0:0:0:0:
170,204,106168,1,2,0:0:0:0:
169,213,106250,1,2,0:0:0:0:
168,222,106332,5,2,0:0:0:0:
340,257,106496,1,0,0:0:0:0:
269,295,106660,2,0,P|253:339|264:382,1,64.5999982749939,2|0,0:0|0:0,0:0:0:0:
410,218,106988,1,8,0:0:0:0:
341,177,107152,1,0,0:0:0:0:
270,215,107316,1,2,0:0:0:0:
416,298,107480,1,0,0:0:0:0:
412,133,107644,6,0,P|447:101|485:92,1,64.5999982749939,6|0,0:2|0:0,0:0:0:0:
341,177,107972,1,2,0:0:0:0:
336,97,108137,1,0,0:0:0:0:
270,215,108301,6,0,P|212:233|187:229,1,64.5999982749939,8|0,0:0|0:0,0:0:0:0:
268,137,108629,1,2,0:0:0:0:
201,96,108793,1,2,0:0:0:0:
191,99,108875,1,2,0:0:0:0:
181,102,108957,5,2,0:0:0:0:
107,71,109121,1,2,0:0:0:0:
45,122,109285,1,2,0:0:0:0:
52,201,109449,1,2,0:0:0:0:
268,137,109613,5,8,0:0:0:0:
177,23,109777,1,8,0:0:0:0:
128,233,109941,1,8,0:0:0:0:
187,15,110105,1,8,0:0:0:0:
326,316,110269,6,0,B|375:324|375:324|414:308|414:308|481:318,1,138.72000084668,6|2,0:0|0:0,0:0:0:0:
265,370,110761,1,2,0:0:0:0:
461,237,110926,2,0,P|498:244|529:273,1,69.3600004233398,8|0,0:0|0:0,0:0:0:0:
287,244,111254,2,0,P|284:209|298:171,1,69.3600004233398,2|0,0:0|0:0,0:0:0:0:
488,107,111582,6,0,P|444:155|357:143,1,138.72000084668,2|2,0:0|0:0,0:0:0:0:
461,237,112074,1,2,0:0:0:0:
411,82,112238,2,0,P|379:62|345:58,1,69.3600004233398,8|0,0:0|0:0,0:0:0:0:
216,194,112566,1,2,0:0:0:0:
293,162,112730,1,0,0:0:0:0:
293,162,112812,1,0,0:0:0:0:
293,162,112894,6,0,B|237:158|237:158|215:140|215:140|134:135,1,138.72000084668,6|2,0:0|0:0,0:0:0:0:
178,282,113386,1,2,0:0:0:0:
359,211,113550,2,0,P|372:179|372:144,1,69.3600004233398,8|0,0:0|0:0,0:0:0:0:
136,213,113879,2,0,L|44:218,1,69.3600004233398,2|0,0:0|0:0,0:0:0:0:
173,24,114207,6,0,P|234:65|229:140,1,138.72000084668,2|2,0:0|0:0,0:0:0:0:
307,31,114699,1,2,0:0:0:0:
164,101,114863,2,0,P|126:100|79:75,1,69.3600004233398,8|0,0:0|0:0,0:0:0:0:
307,31,115191,1,2,0:0:0:0:
361,102,115355,1,0,0:0:0:0:
361,102,115437,1,0,0:0:0:0:
361,102,115519,6,0,L|369:247,1,138.72000084668,6|2,0:0|0:0,0:0:0:0:
447,137,116011,1,2,0:0:0:0:
220,215,116175,2,0,P|202:248|200:287,1,69.3600004233398,8|0,0:0|0:0,0:0:0:0:
278,97,116503,2,0,P|250:76|216:68,1,69.3600004233398,2|0,0:0|0:0,0:0:0:0:
48,170,116832,6,0,B|103:166|103:166|129:147|129:147|198:138,1,138.72000084668,2|2,0:0|0:0,0:0:0:0:
71,83,117324,1,2,0:0:0:0:
170,224,117488,2,0,L|248:230,1,69.3600004233398,8|0,0:0|0:0,0:0:0:0:
408,143,117816,1,2,0:0:0:0:
333,122,117980,1,0,0:0:0:0:
333,122,118062,1,0,0:0:0:0:
333,122,118144,5,8,0:0:0:0:
353,200,118308,1,8,0:0:0:0:
408,143,118472,1,8,0:0:0:0:
276,179,118636,1,8,0:0:0:0:
430,219,118800,5,8,0:0:0:0:
392,68,118964,1,8,0:0:0:0:
293,257,119128,1,8,0:0:0:0:
486,161,119292,1,8,0:0:0:0:
235,87,119457,5,8,0:0:0:0:
387,304,119621,1,8,0:0:0:0:
315,78,119785,5,8,0:0:0:0:
293,257,119949,1,2,0:0:0:0:
266,12,120113,5,8,0:0:0:0:
358,143,120277,1,2,0:0:0:0:
186,23,120441,5,8,0:0:0:0:
392,68,120605,1,2,0:0:0:0:
218,275,120769,6,0,B|170:271|170:271|133:253|133:253|81:253|43:303,1,183.599994396973,6|2,0:0|0:0,0:0:0:0:
200,194,121425,2,0,P|161:139|105:136,1,122.399996264649,8|2,0:0|0:0,0:0:0:0:
450,337,122081,6,0,B|459:198,1,122.399996264649,8|0,0:0|0:0,0:0:0:0:
436,138,122574,1,2,0:0:0:0:
436,138,122738,2,0,P|368:142|327:101,1,122.399996264649,2|2,0:3|0:0,0:0:0:0:
21,208,123394,6,0,B|90:200|90:200|127:169|127:169|213:160,1,183.599994396973,2|2,0:3|0:0,0:0:0:0:
161,244,124050,2,0,B|157:316|157:316|178:366,1,122.399996264649,2|2,0:3|0:0,0:0:0:0:
435,165,124706,6,0,P|384:128|312:140,1,122.399996264649,8|0,0:0|0:0,0:0:0:0:
367,207,125199,1,8,0:0:0:0:
367,207,125363,2,0,P|363:238|341:275,1,61.1999981323243,2|0,0:3|0:0,0:0:0:0:
327,131,125691,1,8,0:0:0:0:
68,275,126019,6,0,P|117:205|216:231,1,183.599994396973,6|2,0:0|0:0,0:0:0:0:
243,289,126675,2,0,B|292:293|292:293|316:280|316:280|377:285,1,122.399996264649,8|2,0:0|0:0,0:0:0:0:
175,50,127331,6,0,P|137:88|150:174,1,122.399996264649,8|0,0:0|0:0,0:0:0:0:
217,181,127823,1,2,0:0:0:0:
217,181,127988,2,0,P|252:230|236:298,1,122.399996264649,2|2,0:3|0:0,0:0:0:0:
259,37,128644,6,0,B|323:24|323:24|366:40|366:40|444:29,1,183.599994396973,2|2,0:3|0:0,0:0:0:0:
484,94,129300,2,0,P|443:147|455:212,1,122.399996264649,2|2,0:3|0:0,0:0:0:0:
182,132,129956,6,0,L|176:62,1,61.1999981323243,8|0,0:0|0:0,0:0:0:0:
304,120,130284,2,0,L|298:180,1,61.1999981323243,8|0,0:0|0:0,0:0:0:0:
152,270,130612,5,8,0:0:0:0:
182,132,130776,1,8,0:3:0:0:
230,297,130941,1,4,0:3:0:0:
131,192,131105,1,4,0:3:0:0:
285,355,131269,6,0,B|342:363|342:363|377:347|377:347|448:356,1,149.60000456543,6|0,0:0|0:0,0:0:0:0:
281,237,131761,1,2,0:0:0:0:
424,191,131925,2,0,P|477:205|500:233,1,74.8000022827149,8|0,0:0|0:0,0:0:0:0:
230,297,132253,2,0,P|205:259|207:206,1,74.8000022827149,2|0,0:0|0:0,0:0:0:0:
310,82,132581,5,2,0:0:0:0:
295,161,132745,1,0,0:0:0:0:
473,114,132909,2,0,P|472:74|435:26,1,74.8000022827149,8|2,0:0|0:0,0:0:0:0:
235,216,133237,2,0,P|269:239|330:231,1,74.8000022827149,8|0,0:0|0:0,0:0:0:0:
251,29,133565,2,0,L|177:38,1,74.8000022827149,2|0,0:0|0:0,0:0:0:0:
77,219,133894,6,0,P|68:147|122:100,1,149.60000456543,2|0,0:0|0:0,0:0:0:0:
297,153,134386,1,2,0:0:0:0:
72,298,134550,2,0,P|18:271|4:243,1,74.8000022827149,8|0,0:0|0:0,0:0:0:0:
197,136,134878,2,0,P|223:189|217:226,1,74.8000022827149,2|0,0:0|0:0,0:0:0:0:
132,362,135206,5,2,0:0:0:0:
296,294,135370,2,0,L|308:130,1,149.60000456543,8|2,0:0|0:0,0:0:0:0:
132,66,135862,1,8,0:0:0:0:
222,203,136026,1,2,0:0:0:0:
291,67,136190,1,2,0:0:0:0:
291,67,136272,1,2,0:0:0:0:
291,67,136354,1,2,0:0:0:0:
174,269,136519,6,0,B|119:276|119:276|82:254|82:254|10:261,1,149.60000456543,6|0,0:0|0:0,0:0:0:0:
172,136,137011,1,2,0:0:0:0:
224,332,137175,2,0,P|283:348|317:338,1,74.8000022827149,8|0,0:0|0:0,0:0:0:0:
125,204,137503,2,0,P|100:238|96:290,1,74.8000022827149,2|0,0:0|0:0,0:0:0:0:
300,169,137831,5,2,0:0:0:0:
168,132,137995,1,8,0:0:0:0:
373,141,138159,1,0,0:0:0:0:
311,89,138323,1,2,0:0:0:0:
400,267,138487,2,0,L|492:278,1,74.8000022827149,8|0,0:0|0:0,0:0:0:0:
226,197,138815,2,0,P|207:222|203:278,1,74.8000022827149,2|0,0:0|0:0,0:0:0:0:
385,341,139143,6,0,B|327:332|327:332|298:346|298:346|227:335,1,149.60000456543,6|0,0:0|0:0,0:0:0:0:
129,218,139636,1,2,0:0:0:0:
343,199,139800,2,0,P|372:231|381:262,1,74.8000022827149,8|0,0:0|0:0,0:0:0:0:
177,158,140128,2,0,P|181:120|206:83,1,74.8000022827149,2|0,0:0|0:0,0:0:0:0:
399,148,140456,5,2,0:0:0:0:
224,245,140620,1,8,0:0:0:0:
224,245,140702,1,8,0:0:0:0:
224,245,140784,1,8,0:0:0:0:
275,54,140948,1,8,0:0:0:0:
328,277,141112,5,8,0:0:0:0:
273,133,141276,1,8,0:3:0:0:
255,323,141440,5,8,0:3:0:0:
323,197,141604,1,4,0:3:0:0:
417,362,141768,6,0,P|454:364|493:370,1,68,4|0,0:0|0:0,0:0:0:0:
394,270,142425,2,0,P|359:272|321:277,1,68
107,212,143081,5,2,0:0:0:0:
119,133,143607,1,2,0:0:0:0:
132,54,144133,1,6,0:0:0:0:
256,192,144221,12,0,148695,0:0:0:0:
