osu file format v14

[General]
AudioFilename: breath.mp3
AudioLeadIn: 0
PreviewTime: 60970
Countdown: 0
SampleSet: Soft
StackLeniency: 1
Mode: 0
LetterboxInBreaks: 0
WidescreenStoryboard: 0

[Editor]
Bookmarks: 41939,89844,98703,101000,103625,106250,108875,131843,136108,136272,136436,140702
DistanceSpacing: 1.2
BeatDivisor: 4
GridSize: 4
TimelineZoom: 1

[Metadata]
Title:Breath
TitleUnicode:Breath
Artist:Breaking Benjamin
ArtistUnicode:Breaking Benjamin
Creator:pishifat
Version:Expert
Source:
Tags:phobia punk metal
BeatmapID:820764
BeatmapSetID:374683

[Difficulty]
HPDrainRate:7
CircleSize:4.2
OverallDifficulty:8
ApproachRate:8.8
SliderMultiplier:2.4
SliderTickRate:1

[Events]
//Background and Video events
0,0,"ASDSAD.png",0,0
//Break Periods
2,78970,82735
//Storyboard Layer 0 (Background)
//Storyboard Layer 1 (Fail)
//Storyboard Layer 2 (Pass)
//Storyboard Layer 3 (Foreground)
//Storyboard Sound Samples

[TimingPoints]
23,656.231,4,2,2,40,1,0
23,-133.333333333333,4,2,2,40,0,0
1253,-133.333333333333,4,2,2,20,0,0
1499,-133.333333333333,4,2,2,40,0,0
1827,-133.333333333333,4,2,2,10,0,0
1909,-133.333333333333,4,2,2,40,0,0
3878,-133.333333333333,4,2,2,20,0,0
4124,-133.333333333333,4,2,2,40,0,0
4452,-133.333333333333,4,2,2,10,0,0
4534,-133.333333333333,4,2,2,40,0,0
5273,-90.9090909090909,4,2,1,80,0,0
6503,-90.9090909090909,4,2,1,40,0,0
6585,-90.9090909090909,4,2,1,80,0,0
9866,-90.9090909090909,4,2,1,60,0,0
10522,-100,4,2,1,80,0,0
11753,-100,4,2,1,60,0,0
11999,-100,4,2,1,80,0,0
14378,-100,4,2,1,60,0,0
14624,-100,4,2,1,80,0,0
15772,-90.9090909090909,4,2,1,80,0,0
19873,-90.9090909090909,4,2,1,60,0,0
20202,-90.9090909090909,4,2,1,70,0,0
21022,-117.647058823529,4,2,2,65,0,0
62036,-105.263157894737,4,2,1,65,0,0
63021,-100,4,2,1,75,0,0
64251,-100,4,2,1,40,0,0
64333,-100,4,2,1,75,0,0
65153,-153.846153846153,4,2,2,55,0,0
65646,-100,4,2,1,75,0,0
66876,-100,4,2,1,40,0,0
66958,-100,4,2,1,75,0,0
67778,-153.846153846154,4,2,2,55,0,0
68271,-100,4,2,1,75,0,0
69501,-100,4,2,1,40,0,0
69583,-100,4,2,1,75,0,0
70403,-153.846153846154,4,2,2,55,0,0
70895,-100,4,2,1,75,0,0
75653,-100,4,2,2,75,0,0
76145,-100,4,2,1,75,0,0
78114,-100,4,2,1,70,0,0
78278,-100,4,2,1,66,0,0
78442,-100,4,2,1,62,0,0
78606,-100,4,2,1,57,0,0
78770,-100,4,2,2,52,0,0
83364,-100,4,2,2,65,0,0
84020,-90.9090909090909,4,2,1,80,0,1
85250,-90.9090909090909,4,2,1,40,0,1
85333,-90.9090909090909,4,2,1,80,0,1
90500,-90.9090909090909,4,2,1,40,0,1
90582,-90.9090909090909,4,2,1,80,0,1
99770,-105.263157894737,4,3,1,70,0,0
99852,-105.263157894737,4,3,3,70,0,0
102395,-105.263157894737,4,3,1,70,0,0
102477,-105.263157894737,4,3,3,70,0,0
105019,-105.263157894737,4,3,1,70,0,0
105101,-105.263157894737,4,3,3,70,0,0
107644,-105.263157894737,4,3,1,70,0,0
107726,-105.263157894737,4,3,3,70,0,0
110269,-98.0392156862745,4,2,1,70,0,0
118144,-108.695652173913,4,2,1,45,0,0
118308,-98.0392156862745,4,2,1,48,0,0
118472,-98.0392156862745,4,2,1,52,0,0
118636,-98.0392156862745,4,2,1,55,0,0
118800,-98.0392156862745,4,2,1,58,0,0
118964,-98.0392156862745,4,2,1,62,0,0
119128,-98.0392156862745,4,2,1,65,0,0
119292,-98.0392156862745,4,2,1,68,0,0
119457,-98.0392156862745,4,2,1,72,0,0
119621,-98.0392156862745,4,2,1,75,0,0
120769,-111.111111111111,4,2,1,80,0,1
131269,-90.9090909090909,4,2,1,80,0,1
132499,-90.9090909090909,4,2,1,40,0,1
132581,-90.9090909090909,4,2,1,80,0,1
141768,-200,4,2,2,60,0,0
143081,701.754385964912,4,2,2,60,1,0
144133,-100,4,2,2,44,0,0
144221,-100,4,2,2,5,0,0

[Colours]
Combo1 : 109,130,167
Combo2 : 200,209,186
Combo3 : 148,163,182
Combo4 : 176,191,149

[HitObjects]
170,146,23,6,0,P|146:153|114:156,2,45.0000017166138
245,98,515,2,0,L|250:45,1,45.0000017166138
255,111,1007,6,0,P|289:122|334:119,1,67.5000025749207
167,265,1499,6,0,P|217:221|289:231,1,135.000005149841
281,226,2647,6,0,P|309:231|343:232,2,45.0000017166138
206,172,3140,2,0,L|201:117,1,45.0000017166138
193,184,3632,6,0,P|161:203|135:245,1,67.5000025749207
4,67,4124,6,0,P|49:107|43:191,1,135.000005149841
163,50,5273,6,0,P|226:91|293:77,1,132.00000402832,4|0,0:0|0:0,0:0:0:0:
352,27,5765,1,2,0:0:0:0:
306,222,5929,2,0,P|282:209|238:201,1,66.0000020141602,8|0,0:0|0:0,0:0:0:0:
407,288,6257,2,0,L|396:174,1,99.0000030212403,2|0,0:0|0:0,0:0:0:0:
395,173,6585,5,2,0:3:0:0:
337,355,6749,1,2,0:0:0:0:
340,359,6913,2,0,P|306:371|261:375,1,66.0000020141602,2|0,0:0|0:0,0:0:0:0:
70,257,7241,1,8,0:0:0:0:
124,335,7405,1,2,0:0:0:0:
208,285,7569,2,0,L|219:210,1,66.0000020141602
155,82,7897,6,0,B|107:87|107:87|79:105|79:105|14:111,1,132.00000402832,4|0,0:0|0:0,0:0:0:0:
49,19,8390,1,2,0:0:0:0:
144,173,8554,2,0,P|178:185|229:180,1,66.0000020141602,8|0,0:0|0:0,0:0:0:0:
358,52,8882,1,8,0:0:0:0:
273,92,9046,1,2,0:0:0:0:
447,118,9210,5,2,0:3:0:0:
342,245,9374,2,0,L|257:252,1,66.0000020141602,8|2,0:0|0:3,0:0:0:0:
194,198,9702,1,2,0:0:0:0:
179,190,9784,1,2,0:0:0:0:
163,183,9866,5,8,0:0:0:0:
132,187,9948,1,8,0:0:0:0:
110,205,10030,1,2,0:0:0:0:
97,232,10112,1,2,0:0:0:0:
105,273,10194,5,8,0:0:0:0:
134,299,10276,1,8,0:0:0:0:
173,303,10358,1,8,0:0:0:0:
210,288,10440,1,8,0:0:0:0:
236,258,10522,6,0,B|217:209|217:209|228:123,1,120,4|0,0:0|0:0,0:0:0:0:
301,82,11015,1,2,0:0:0:0:
425,259,11179,1,8,0:0:0:0:
411,269,11507,6,0,P|378:246|310:240,1,90,2|0,0:0|0:0,0:0:0:0:
469,125,11999,6,0,P|410:117|347:170,1,120,2|0,0:0|0:0,0:0:0:0:
267,328,12491,2,0,L|123:314,1,120,8|0,0:0|0:0,0:0:0:0:
240,125,12983,1,2,0:0:0:0:
240,125,13065,1,2,0:0:0:0:
240,125,13147,6,0,P|274:181|253:249,1,120,6|0,0:0|0:0,0:0:0:0:
181,196,13639,1,2,0:0:0:0:
352,137,13804,1,8,0:0:0:0:
360,150,14131,6,0,L|467:162,1,90,2|0,0:0|0:0,0:0:0:0:
185,58,14624,5,2,0:0:0:0:
185,58,14788,2,0,L|265:49,1,60,2|0,0:0|0:0,0:0:0:0:
342,243,15116,1,8,0:0:0:0:
266,186,15280,2,0,P|205:185|153:237,1,120,2|2,0:0|0:0,0:0:0:0:
436,361,15772,6,0,B|443:314|443:314|434:280|434:280|445:205,1,132.00000402832,4|0,0:0|0:0,0:0:0:0:
494,149,16264,1,2,0:0:0:0:
342,243,16428,2,0,P|321:283|318:324,1,66.0000020141602,8|0,0:0|0:0,0:0:0:0:
402,80,16756,6,0,B|359:48|359:48|258:40,1,132.00000402832,2|2,0:0|0:3,0:0:0:0:
71,115,17249,1,8,0:0:0:0:
109,33,17413,2,0,P|134:18|186:12,1,66.0000020141602,2|2,0:3|0:0,0:0:0:0:
250,190,17741,5,8,0:0:0:0:
85,210,17905,1,8,0:3:0:0:
162,152,18069,1,4,0:3:0:0:
175,252,18233,1,4,0:3:0:0:
357,126,18397,6,0,L|367:30,1,66.0000020141602,4|0,0:0|0:0,0:0:0:0:
354,226,18725,1,2,0:0:0:0:
354,226,18889,1,2,0:0:0:0:
267,79,19053,2,0,P|235:67|179:67,1,66.0000020141602,2|0,0:3|0:0,0:0:0:0:
6,176,19381,6,0,P|65:161|134:216,1,132.00000402832,8|2,0:0|0:3,0:0:0:0:
161,303,19873,1,8,0:3:0:0:
161,303,19956,1,8,0:3:0:0:
161,303,20038,1,8,0:3:0:0:
222,221,20202,1,8,0:3:0:0:
51,256,20366,5,8,0:3:0:0:
80,111,20530,1,8,0:3:0:0:
124,197,20694,1,4,0:3:0:0:
6,176,20858,1,4,0:3:0:0:
208,99,21022,6,0,L|332:89,1,102.000001945496,4|0,0:0|0:0,0:0:0:0:
322,102,21678,2,0,P|310:128|304:167,1,51.0000009727478,8|0,0:0|0:0,0:0:0:0:
325,248,22006,1,2,0:0:0:0:
325,248,22170,1,2,0:0:0:0:
424,181,22334,5,0,0:0:0:0:
424,181,22498,2,0,P|443:229|445:246,1,51.0000009727478,0|2,0:0|0:3,0:0:0:0:
427,327,22827,1,0,0:0:0:0:
427,327,22991,2,0,L|310:336,1,102.000001945496,8|0,0:0|0:0,0:0:0:0:
143,270,23647,5,2,0:0:0:0:
143,270,23811,1,2,0:0:0:0:
59,320,23975,1,0,0:0:0:0:
47,330,24303,2,0,P|17:277|26:221,1,102.000001945496,8|2,0:0|0:0,0:0:0:0:
89,149,24795,6,0,L|84:95,1,51.0000009727478,2|0,0:0|0:0,0:0:0:0:
178,178,25123,2,0,L|184:113,1,51.0000009727478,0|2,0:0|0:3,0:0:0:0:
254,235,25451,1,0,0:0:0:0:
254,235,25616,2,0,B|290:209|290:209|350:199,1,102.000001945496,8|0,0:0|0:0,0:0:0:0:
440,213,26108,1,0,0:0:0:0:
325,105,26272,6,0,L|261:118,1,51.0000009727478,2|2,0:0|0:0,0:0:0:0:
368,25,26600,1,0,0:0:0:0:
353,15,26928,2,0,P|308:10|244:48,1,102.000001945496,8|2,0:0|0:0,0:0:0:0:
228,150,27420,6,0,L|108:157,1,102.000001945496,2|0,0:0|0:0,0:0:0:0:
35,137,27912,1,2,0:3:0:0:
35,137,28076,1,0,0:0:0:0:
63,230,28240,2,0,B|69:269|69:269|62:294|62:294|68:342,1,102.000001945496,8|0,0:0|0:0,0:0:0:0:
377,315,28897,6,0,P|362:290|338:269,1,51.0000009727478,2|2,0:0|0:0,0:0:0:0:
255,253,29225,1,0,0:0:0:0:
243,263,29553,1,8,0:0:0:0:
480,216,29881,1,2,0:0:0:0:
480,216,30045,1,2,0:0:0:0:
388,183,30209,5,0,0:0:0:0:
372,192,30537,2,0,L|299:198,1,51.0000009727478,2|0,0:3|0:0,0:0:0:0:
236,69,30865,5,8,0:0:0:0:
327,84,31029,1,8,0:3:0:0:
220,78,31193,2,0,P|201:105|194:136,1,51.0000009727478,4|0,0:3|0:0,0:0:0:0:
224,253,31522,5,6,0:0:0:0:
224,253,31686,1,2,0:0:0:0:
136,227,31850,1,0,0:0:0:0:
123,236,32178,2,0,L|48:243,1,51.0000009727478,8|0,0:0|0:0,0:0:0:0:
0,188,32506,1,2,0:0:0:0:
0,188,32670,1,2,0:0:0:0:
79,145,32834,6,0,B|106:108|106:108|111:44,1,102.000001945496,0|2,0:0|0:3,0:0:0:0:
199,21,33326,1,0,0:0:0:0:
199,21,33490,2,0,P|217:67|219:92,1,51.0000009727478,8|0,0:0|0:0,0:0:0:0:
210,210,33818,1,0,0:0:0:0:
280,144,33982,1,0,0:0:0:0:
280,144,34064,1,0,0:0:0:0:
280,144,34147,5,2,0:0:0:0:
365,179,34311,1,2,0:0:0:0:
365,179,34475,2,0,P|355:210|352:247,1,51.0000009727478,2|0,0:3|0:0,0:0:0:0:
386,335,34803,1,8,0:0:0:0:
373,347,35131,1,2,0:0:0:0:
284,373,35295,1,2,0:0:0:0:
215,306,35459,6,0,L|203:183,1,102.000001945496,0|2,0:0|0:3,0:0:0:0:
106,224,35951,1,0,0:0:0:0:
106,224,36115,2,0,L|112:171,1,51.0000009727478,8|0,0:0|0:0,0:0:0:0:
129,28,36443,1,0,0:0:0:0:
183,114,36607,1,0,0:0:0:0:
183,114,36689,1,0,0:0:0:0:
183,114,36771,5,6,0:0:0:0:
268,69,36935,1,2,0:0:0:0:
265,164,37100,2,0,P|299:179|320:182,1,51.0000009727478,2|0,0:3|0:0,0:0:0:0:
434,101,37428,2,0,P|412:114|395:133,1,51.0000009727478,8|0,0:0|0:0,0:0:0:0:
368,260,37756,1,2,0:0:0:0:
368,260,37920,6,0,L|248:270,1,102.000001945496,2|0,0:0|0:0,0:0:0:0:
183,234,38412,2,0,P|167:201|165:173,1,51.0000009727478,2|0,0:3|0:0,0:0:0:0:
190,333,38740,1,8,0:0:0:0:
202,324,39068,1,0,0:0:0:0:
287,356,39232,1,0,0:0:0:0:
362,296,39396,5,2,0:0:0:0:
362,296,39560,1,2,0:0:0:0:
338,203,39724,2,0,P|313:188|280:177,1,51.0000009727478,2|0,0:3|0:0,0:0:0:0:
183,213,40053,1,8,0:0:0:0:
170,222,40381,1,2,0:0:0:0:
79,194,40545,6,0,B|53:157|53:157|47:100,1,102.000001945496,2|0,0:0|0:0,0:0:0:0:
136,62,41037,2,0,P|161:75|199:81,1,51.0000009727478,2|0,0:3|0:0,0:0:0:0:
323,33,41365,1,8,0:0:0:0:
235,4,41529,1,8,0:3:0:0:
247,156,41693,1,4,0:3:0:0:
259,167,42021,6,0,L|316:175,1,51.0000009727478,6|2,0:0|0:0,0:0:0:0:
438,150,42349,1,0,0:0:0:0:
423,157,42678,2,0,P|397:203|411:269,1,102.000001945496,8|2,0:0|0:0,0:0:0:0:
474,311,43170,1,2,0:0:0:0:
336,376,43334,5,0,0:0:0:0:
336,376,43498,2,0,L|344:302,1,51.0000009727478,0|2,0:0|0:3,0:0:0:0:
247,350,43826,1,0,0:0:0:0:
184,285,43990,2,0,L|174:164,1,102.000001945496,8|0,0:0|0:0,0:0:0:0:
390,23,44646,5,2,0:0:0:0:
390,23,44810,1,2,0:0:0:0:
373,110,44974,1,0,0:0:0:0:
360,123,45302,2,0,P|320:141|256:136,1,102.000001945496,8|2,0:0|0:0,0:0:0:0:
166,63,45795,6,0,P|158:31|158:-8,1,51.0000009727478,2|0,0:0|0:0,0:0:0:0:
92,122,46123,2,0,P|70:101|53:68,1,51.0000009727478,0|2,0:0|0:3,0:0:0:0:
64,211,46451,1,0,0:0:0:0:
64,211,46615,2,0,L|-2:206,1,51.0000009727478,8|0,0:0|0:0,0:0:0:0:
74,301,46943,2,0,L|139:297,1,51.0000009727478
277,300,47271,6,0,P|296:332|303:367,1,51.0000009727478,2|2,0:0|0:0,0:0:0:0:
200,240,47599,1,0,0:0:0:0:
211,229,47927,2,0,B|217:186|217:186|212:168|212:168|220:121,1,102.000001945496,8|2,0:0|0:0,0:0:0:0:
316,54,48420,6,0,P|371:50|427:86,1,102.000001945496,2|0,0:0|0:0,0:0:0:0:
441,165,48912,1,2,0:3:0:0:
441,165,49076,1,0,0:0:0:0:
373,229,49240,2,0,L|366:344,1,102.000001945496,8|0,0:0|0:0,0:0:0:0:
131,174,49896,6,0,P|175:144|191:139,1,51.0000009727478,2|2,0:0|0:0,0:0:0:0:
268,133,50224,1,0,0:0:0:0:
279,120,50552,1,8,0:0:0:0:
103,256,50880,1,2,0:0:0:0:
103,256,51044,1,2,0:0:0:0:
187,297,51209,5,0,0:0:0:0:
201,287,51537,2,0,L|268:281,1,51.0000009727478,2|0,0:3|0:0,0:0:0:0:
373,319,51865,5,8,0:0:0:0:
365,225,52029,1,8,0:3:0:0:
385,331,52193,2,0,P|427:343|453:346,1,51.0000009727478,4|0,0:3|0:0,0:0:0:0:
512,186,52521,5,6,0:0:0:0:
512,186,52685,1,2,0:0:0:0:
422,138,52849,1,2,0:3:0:0:
409,150,53177,2,0,L|334:157,1,51.0000009727478,8|0,0:0|0:0,0:0:0:0:
266,139,53505,1,2,0:0:0:0:
266,139,53669,1,2,0:0:0:0:
322,244,53833,6,0,P|325:296|287:354,1,102.000001945496,0|2,0:0|0:3,0:0:0:0:
208,357,54326,1,0,0:0:0:0:
236,271,54490,1,8,0:0:0:0:
231,254,54818,1,0,0:0:0:0:
145,286,54982,1,0,0:0:0:0:
52,223,55146,5,2,0:0:0:0:
52,223,55310,1,2,0:0:0:0:
81,132,55474,2,0,P|123:116|148:114,1,51.0000009727478,2|0,0:3|0:0,0:0:0:0:
216,139,55802,1,8,0:0:0:0:
228,148,56130,1,2,0:0:0:0:
295,75,56294,1,2,0:0:0:0:
385,110,56458,6,0,L|390:231,1,102.000001945496,0|2,0:0|0:3,0:0:0:0:
487,194,56951,1,0,0:0:0:0:
487,194,57115,2,0,L|478:266,1,51.0000009727478,8|0,0:0|0:0,0:0:0:0:
417,362,57443,1,0,0:0:0:0:
346,299,57607,1,0,0:0:0:0:
346,299,57689,1,0,0:0:0:0:
346,299,57771,5,6,0:0:0:0:
255,335,57935,1,2,0:0:0:0:
180,275,58099,2,0,P|170:249|168:215,1,51.0000009727478,2|0,0:3|0:0,0:0:0:0:
246,111,58427,1,8,0:0:0:0:
233,125,58755,1,2,0:0:0:0:
144,93,58919,6,0,L|19:103,1,102.000001945496,2|0,0:0|0:0,0:0:0:0:
0,186,59411,2,0,P|42:195|68:208,1,51.0000009727478,2|0,0:3|0:0,0:0:0:0:
102,273,59740,1,8,0:0:0:0:
114,286,60068,2,0,L|172:280,1,51.0000009727478
300,240,60396,5,2,0:0:0:0:
185,194,60560,1,8,0:0:0:0:
265,319,60724,1,8,0:0:0:0:
278,329,61052,5,8,0:0:0:0:
197,183,61216,1,8,0:0:0:0:
315,231,61380,2,0,L|388:237,1,51.0000009727478,2|2,0:3|0:0,0:0:0:0:
431,118,61708,5,0,0:0:0:0:
282,138,61872,1,8,0:3:0:0:
282,138,62036,2,0,P|272:108|270:67,1,56.9999984779358,4|0,0:3|0:0,0:0:0:0:
380,237,62364,5,10,0:0:0:0:
194,179,62528,1,10,0:0:0:0:
343,328,62693,1,10,0:0:0:0:
282,138,62857,1,10,0:0:0:0:
192,341,63021,6,0,P|149:351|75:309,1,120,6|0,0:0|0:0,0:0:0:0:
64,223,63513,1,2,0:0:0:0:
251,265,63677,2,0,L|329:254,1,60,8|0,0:0|0:0,0:0:0:0:
208,124,64005,2,0,L|111:136,1,90,8|0,0:0|0:0,0:0:0:0:
103,133,64333,6,0,P|83:104|75:78,1,60,2|2,0:3|0:0,0:0:0:0:
155,32,64661,1,0,0:0:0:0:
167,221,64825,1,0,0:0:0:0:
360,106,64989,5,8,0:0:0:0:
360,106,65153,2,0,P|345:130|349:193,1,77.9999964294435,2|2,0:0|0:0,0:0:0:0:
491,279,65646,6,0,L|352:269,1,120,6|0,0:0|0:0,0:0:0:0:
281,306,66138,1,2,0:0:0:0:
176,177,66302,2,0,P|177:140|195:94,1,60,8|0,0:0|0:0,0:0:0:0:
188,347,66630,2,0,P|144:338|107:313,1,90,8|0,0:0|0:0,0:0:0:0:
99,300,66958,6,0,L|94:222,1,60,2|2,0:3|0:0,0:0:0:0:
189,253,67286,1,0,0:0:0:0:
0,275,67450,1,0,0:0:0:0:
160,116,67614,5,8,0:0:0:0:
160,116,67778,2,0,P|112:127|83:153,1,77.9999964294435,2|2,0:0|0:0,0:0:0:0:
248,153,68271,6,0,B|256:105|256:105|247:77|247:77|260:20,1,120,6|0,0:0|0:0,0:0:0:0:
348,0,68763,1,2,0:0:0:0:
311,225,68927,2,0,P|362:250|384:251,1,60,8|0,0:0|0:0,0:0:0:0:
171,212,69255,2,0,P|143:258|143:317,1,90,8|0,0:0|0:0,0:0:0:0:
147,305,69583,6,0,L|66:313,1,60,2|2,0:3|0:0,0:0:0:0:
26,246,69911,1,0,0:0:0:0:
227,278,70075,1,0,0:0:0:0:
91,98,70239,5,8,0:0:0:0:
91,98,70403,2,0,L|175:105,1,77.9999964294435,2|2,0:0|0:0,0:0:0:0:
311,33,70895,6,0,P|269:73|268:142,1,120,6|0,0:0|0:0,0:0:0:0:
317,203,71388,1,2,0:0:0:0:
157,228,71552,5,8,0:0:0:0:
387,263,71716,2,0,B|408:304|408:304|400:384,1,120,8|2,0:0|0:0,0:0:0:0:
128,308,72208,5,8,0:0:0:0:
317,203,72372,2,0,B|336:160|336:160|328:72,1,120,8|2,0:0|0:0,0:0:0:0:
171,67,72864,5,8,0:0:0:0:
157,228,73028,1,8,0:3:0:0:
227,135,73192,1,8,0:3:0:0:
100,155,73356,1,4,0:3:0:0:
303,272,73520,6,0,B|351:268|351:268|374:254|374:254|436:250,1,120,6|0,0:0|0:0,0:0:0:0:
410,342,74013,1,2,0:0:0:0:
318,182,74177,2,0,P|326:134|341:110,1,60,8|0,0:0|0:0,0:0:0:0:
488,61,74505,1,8,0:0:0:0:
451,142,74669,1,0,0:0:0:0:
305,21,74833,5,2,0:3:0:0:
250,93,74997,2,0,L|126:99,1,120,2|2,0:0|0:0,0:0:0:0:
114,106,75407,1,2,0:0:0:0:
98,114,75489,1,8,0:0:0:0:
247,247,75653,5,2,0:0:0:0:
261,255,75981,1,2,0:0:0:0:
43,336,76145,6,0,P|10:281|31:211,1,120,6|0,0:0|0:0,0:0:0:0:
90,168,76637,1,2,0:0:0:0:
180,340,76802,2,0,L|247:347,1,60,8|0,0:0|0:0,0:0:0:0:
352,226,77130,1,8,0:0:0:0:
261,255,77294,1,0,0:0:0:0:
432,296,77458,5,2,0:3:0:0:
452,197,77622,2,0,L|446:118,1,60,8|0,0:0|0:0,0:0:0:0:
300,22,77950,1,8,0:0:0:0:
261,255,78114,5,8,0:0:0:0:
347,111,78278,1,8,0:3:0:0:
261,158,78442,1,4,0:3:0:0:
346,208,78606,1,4,0:3:0:0:
149,312,78770,5,4,2:0:0:0:
365,122,83364,5,2,0:0:0:0:
406,274,83528,1,2,0:0:0:0:
418,282,83856,1,2,0:0:0:0:
166,163,84020,6,0,P|159:101|218:34,1,132.00000402832,6|0,0:0|0:0,0:0:0:0:
248,120,84512,1,2,0:0:0:0:
112,240,84676,2,0,L|46:231,1,66.0000020141602,8|0,0:0|0:0,0:0:0:0:
249,206,85004,2,0,B|273:242|273:242|279:316,1,99.0000030212403,2|0,0:0|0:0,0:0:0:0:
278,317,85333,5,2,0:3:0:0:
366,250,85497,1,2,0:0:0:0:
188,282,85661,2,0,P|170:318|167:351,1,66.0000020141602,2|0,0:0|0:0,0:0:0:0:
309,142,85989,2,0,P|267:123|224:119,1,66.0000020141602,8|2,0:0|0:0,0:0:0:0:
117,215,86317,2,0,P|167:190|197:186,1,66.0000020141602
370,342,86645,6,0,P|434:349|496:280,1,132.00000402832,2|0,0:0|0:0,0:0:0:0:
497,219,87137,1,2,0:0:0:0:
310,272,87301,2,0,L|244:265,1,66.0000020141602,8|0,0:0|0:0,0:0:0:0:
398,87,87629,2,0,P|419:120|429:151,1,66.0000020141602,2|0,0:0|0:0,0:0:0:0:
182,196,87957,6,0,B|177:147|177:147|188:119|188:119|182:67,1,132.00000402832,2|0,0:0|0:0,0:0:0:0:
95,102,88450,1,2,0:0:0:0:
271,160,88614,2,0,L|352:154,1,66.0000020141602,8|0,0:0|0:0,0:0:0:0:
81,110,88942,2,0,P|65:150|70:201,1,66.0000020141602,2|0,0:0|0:0,0:0:0:0:
256,274,89270,6,0,P|191:228|123:242,1,132.00000402832,6|0,0:0|0:0,0:0:0:0:
167,381,89762,1,2,0:0:0:0:
167,381,89844,1,2,0:0:0:0:
167,381,89926,2,0,L|177:297,1,66.0000020141602,8|0,0:0|0:0,0:0:0:0:
195,131,90254,2,0,B|224:102|224:102|281:94,1,99.0000030212403,2|0,0:0|0:0,0:0:0:0:
296,101,90582,5,2,0:3:0:0:
244,9,90746,1,2,0:0:0:0:
270,194,90910,2,0,P|309:218|357:223,1,66.0000020141602,2|0,0:0|0:0,0:0:0:0:
95,51,91239,2,0,P|73:99|74:142,1,66.0000020141602,8|2,0:0|0:0,0:0:0:0:
173,234,91567,2,0,P|142:190|104:170,1,66.0000020141602,0|2,0:0|0:0,0:0:0:0:
0,328,91895,6,0,L|152:313,1,132.00000402832,2|0,0:0|0:0,0:0:0:0:
216,356,92387,1,2,0:0:0:0:
330,167,92551,2,0,P|305:105|283:85,1,66.0000020141602,8|0,0:0|0:0,0:0:0:0:
368,260,92879,2,0,P|433:269|462:260,1,66.0000020141602,2|0,0:0|0:0,0:0:0:0:
277,251,93207,5,2,0:3:0:0:
420,178,93371,2,0,L|496:168,1,66.0000020141602,8|2,0:0|0:3,0:0:0:0:
306,106,93699,1,2,0:0:0:0:
317,337,93864,5,12,0:0:0:0:
333,188,94028,1,2,0:0:0:0:
168,238,94192,1,2,0:0:0:0:
394,266,94356,1,2,0:0:0:0:
156,230,94520,6,0,P|124:189|139:98,1,132.00000402832,6|0,0:0|0:0,0:0:0:0:
205,154,95012,1,2,0:0:0:0:
121,310,95176,2,0,P|57:293|35:282,1,66.0000020141602,8|0,0:0|0:0,0:0:0:0:
216,164,95504,6,0,L|372:154,1,132.00000402832,2|2,0:0|0:3,0:0:0:0:
504,143,95996,1,8,0:0:0:0:
366,61,96160,2,0,P|395:73|439:119,1,66.0000020141602,2|2,0:3|0:0,0:0:0:0:
462,287,96488,6,0,L|471:346,2,44.0000013427735,8|8|8,0:0|0:0|0:0,0:0:0:0:
373,318,96817,2,0,L|382:375,2,44.0000013427735,8|4|2,0:3|0:3|0:3,0:0:0:0:
333,227,97145,6,0,P|258:191|190:217,1,132.00000402832,6|0,0:0|0:0,0:0:0:0:
259,283,97637,1,2,0:0:0:0:
300,107,97801,2,0,P|252:67|222:61,1,66.0000020141602,8|0,0:0|0:0,0:0:0:0:
86,146,98129,2,0,L|-5:156,1,66.0000020141602,2|0,0:0|0:0,0:0:0:0:
163,83,98457,5,2,0:0:0:0:
121,248,98621,1,8,0:0:0:0:
121,248,98703,1,8,0:0:0:0:
121,248,98785,1,8,0:0:0:0:
281,201,98949,1,8,0:0:0:0:
188,173,99113,5,8,0:0:0:0:
236,349,99277,1,8,0:3:0:0:
261,247,99441,1,8,0:3:0:0:
162,273,99606,1,4,0:3:0:0:
349,319,99770,6,0,L|472:308,1,113.999996955872,6|2,0:2|0:0,0:0:0:0:
274,259,100262,1,0,0:0:0:0:
274,259,100426,2,0,P|314:231|343:223,1,56.9999984779358,8|0,0:0|0:0,0:0:0:0:
184,278,100754,1,2,0:0:0:0:
210,191,100918,1,2,0:0:0:0:
210,191,101000,1,2,0:0:0:0:
210,191,101082,1,2,0:0:0:0:
97,314,101246,5,0,0:0:0:0:
168,371,101410,1,2,0:0:0:0:
255,345,101574,1,0,0:0:0:0:
108,221,101738,2,0,L|32:229,1,56.9999984779358,8|0,0:0|0:0,0:0:0:0:
184,278,102066,1,2,0:0:0:0:
184,278,102230,1,2,0:0:0:0:
90,126,102395,6,0,P|99:77|118:53,1,56.9999984779358,6|0,0:2|0:0,0:0:0:0:
171,13,102723,1,2,0:0:0:0:
179,160,102887,1,0,0:0:0:0:
179,160,103051,2,0,P|222:138|254:135,1,56.9999984779358,8|0,0:0|0:0,0:0:0:0:
194,253,103379,1,2,0:0:0:0:
290,285,103543,1,2,0:0:0:0:
290,285,103625,1,2,0:0:0:0:
290,285,103707,1,2,0:0:0:0:
410,127,103871,5,0,0:0:0:0:
320,154,104035,1,2,0:0:0:0:
389,224,104199,1,0,0:0:0:0:
340,64,104363,1,8,0:0:0:0:
340,64,104527,1,0,0:0:0:0:
410,127,104691,1,2,0:0:0:0:
410,127,104855,1,0,0:0:0:0:
222,189,105019,6,0,P|194:184|147:162,1,56.9999984779358,6|0,0:2|0:0,0:0:0:0:
119,96,105348,1,2,0:0:0:0:
138,266,105512,1,0,0:0:0:0:
138,266,105676,2,0,P|92:233|80:214,1,56.9999984779358,8|0,0:0|0:0,0:0:0:0:
205,338,106004,1,2,0:0:0:0:
117,367,106168,1,2,0:0:0:0:
117,367,106250,1,2,0:0:0:0:
117,367,106332,1,2,0:0:0:0:
259,208,106496,5,0,0:0:0:0:
343,242,106660,1,2,0:0:0:0:
348,333,106824,1,0,0:0:0:0:
473,208,106988,2,0,P|472:175|459:135,1,56.9999984779358,8|0,0:0|0:0,0:0:0:0:
407,85,107316,1,2,0:0:0:0:
407,85,107480,1,0,0:0:0:0:
259,208,107644,6,0,L|178:212,1,56.9999984779358,6|0,0:2|0:0,0:0:0:0:
117,175,107972,1,2,0:0:0:0:
117,175,108137,1,0,0:0:0:0:
231,303,108301,2,0,L|305:298,1,56.9999984779358,8|0,0:0|0:0,0:0:0:0:
356,228,108629,1,2,0:0:0:0:
450,275,108793,1,2,0:0:0:0:
450,275,108875,1,2,0:0:0:0:
450,275,108957,5,2,0:0:0:0:
437,176,109121,1,2,0:0:0:0:
355,133,109285,1,2,0:0:0:0:
271,179,109449,1,2,0:0:0:0:
345,41,109613,5,8,0:0:0:0:
356,228,109777,1,8,0:0:0:0:
335,32,109941,1,8,0:0:0:0:
367,241,110105,1,8,0:0:0:0:
186,132,110269,6,0,B|178:83|178:83|185:55|185:55|176:-5,1,122.40000074707,6|2,0:0|0:0,0:0:0:0:
90,116,110761,1,2,0:0:0:0:
271,181,110926,2,0,P|299:173|329:153,1,61.2000003735352,8|0,0:0|0:0,0:0:0:0:
177,232,111254,2,0,P|162:266|160:307,1,61.2000003735352,2|0,0:0|0:0,0:0:0:0:
408,276,111582,6,0,L|401:201,1,61.2000003735352,2|0,0:0|0:0,0:0:0:0:
341,338,111910,1,2,0:0:0:0:
341,338,112074,1,2,0:0:0:0:
177,232,112238,2,0,P|180:200|198:157,1,61.2000003735352,8|0,0:0|0:0,0:0:0:0:
247,296,112566,1,2,0:0:0:0:
183,365,112730,1,0,0:0:0:0:
183,365,112812,1,0,0:0:0:0:
183,365,112894,6,0,L|51:372,1,122.40000074707,6|2,0:0|0:0,0:0:0:0:
2,299,113386,1,2,0:0:0:0:
177,232,113550,2,0,L|258:242,1,61.2000003735352,8|0,0:0|0:0,0:0:0:0:
64,180,113879,2,0,P|30:193|-1:222,1,61.2000003735352,2|0,0:0|0:0,0:0:0:0:
233,154,114207,6,0,P|242:129|245:94,1,61.2000003735352,2|0,0:0|0:0,0:0:0:0:
168,46,114535,1,2,0:0:0:0:
168,46,114699,1,2,0:0:0:0:
177,232,114863,2,0,L|258:242,1,61.2000003735352,8|0,0:0|0:0,0:0:0:0:
402,226,115191,1,2,0:0:0:0:
335,289,115355,1,0,0:0:0:0:
335,289,115437,1,0,0:0:0:0:
335,289,115519,6,0,P|385:315|468:291,1,122.40000074707,6|2,0:0|0:0,0:0:0:0:
402,226,116011,1,2,0:0:0:0:
272,362,116175,2,0,L|192:371,1,61.2000003735352,8|0,0:0|0:0,0:0:0:0:
95,284,116503,2,0,L|170:293,1,61.2000003735352,2|0,0:0|0:0,0:0:0:0:
227,87,116832,6,0,P|180:91|145:107,1,61.2000003735352,2|0,0:0|0:0,0:0:0:0:
307,142,117160,1,2,0:0:0:0:
307,142,117324,1,2,0:0:0:0:
128,176,117488,2,0,P|101:159|77:126,1,61.2000003735352,8|0,0:0|0:0,0:0:0:0:
250,219,117816,1,2,0:0:0:0:
191,283,117980,1,0,0:0:0:0:
178,286,118062,1,0,0:0:0:0:
165,289,118144,6,0,L|61:297,1,55.1999981469727,8|8,0:0|0:0,0:0:0:0:
0,226,118472,1,8,0:0:0:0:
0,226,118636,1,8,0:0:0:0:
163,198,118800,5,8,0:0:0:0:
106,379,118964,1,8,0:0:0:0:
73,173,119128,2,0,P|85:150|113:118,1,61.2000003735352,8|8,0:0|0:0,0:0:0:0:
330,112,119457,5,8,0:0:0:0:
163,198,119621,1,8,0:0:0:0:
402,232,119785,1,8,0:0:0:0:
402,232,120113,6,0,P|378:212|350:201,1,61.2000003735352,8|2,0:0|0:0,0:0:0:0:
487,175,120441,2,0,P|478:142|456:111,1,61.2000003735352,8|2,0:0|0:0,0:0:0:0:
343,312,120769,6,0,B|290:317|290:317|246:302|246:302|161:312,1,161.999995056153,6|2,0:0|0:0,0:0:0:0:
103,262,121425,2,0,P|99:206|137:157,1,107.999996704102,8|2,0:0|0:0,0:0:0:0:
401,235,122081,6,0,P|465:239|515:198,1,107.999996704102,8|0,0:0|0:0,0:0:0:0:
438,156,122574,1,2,0:0:0:0:
438,156,122738,2,0,B|435:89|435:89|465:42,1,107.999996704102,2|2,0:3|0:0,0:0:0:0:
286,311,123394,6,0,P|278:227|252:140,1,161.999995056153,2|2,0:3|0:0,0:0:0:0:
171,120,124050,2,0,B|128:136|128:136|50:127,1,107.999996704102,2|2,0:3|0:0,0:0:0:0:
365,32,124706,6,0,P|392:76|384:145,1,107.999996704102,8|0,0:0|0:0,0:0:0:0:
332,201,125199,1,8,0:0:0:0:
332,201,125363,2,0,P|323:240|325:270,1,53.9999983520508,2|0,0:3|0:0,0:0:0:0:
352,336,125691,1,8,0:0:0:0:
339,349,126019,6,0,P|300:301|191:301,1,161.999995056153,6|2,0:0|0:0,0:0:0:0:
137,350,126675,2,0,L|19:355,1,107.999996704102,8|2,0:0|0:0,0:0:0:0:
200,183,127331,6,0,B|134:176|134:176|87:135,1,107.999996704102,8|0,0:0|0:0,0:0:0:0:
82,63,127823,1,2,0:0:0:0:
82,63,127988,2,0,P|133:35|197:45,1,107.999996704102,2|2,0:3|0:0,0:0:0:0:
288,247,128644,6,0,B|354:253|354:253|391:237|391:237|463:244,1,161.999995056153,2|2,0:3|0:0,0:0:0:0:
407,324,129300,2,0,P|434:352|507:357,1,107.999996704102,2|2,0:3|0:0,0:0:0:0:
334,102,129956,6,0,L|269:108,1,53.9999983520508,8|0,0:0|0:0,0:0:0:0:
359,188,130284,2,0,L|296:196,1,53.9999983520508,8|0,0:0|0:0,0:0:0:0:
119,237,130612,5,8,0:0:0:0:
304,289,130776,1,8,0:3:0:0:
201,199,130941,1,4,0:3:0:0:
225,339,131105,1,4,0:3:0:0:
285,86,131269,6,0,P|221:44|164:50,1,132.00000402832,6|0,0:0|0:0,0:0:0:0:
126,140,131761,1,2,0:0:0:0:
126,140,131843,1,2,0:0:0:0:
126,140,131925,2,0,L|39:150,1,66.0000020141602,8|0,0:0|0:0,0:0:0:0:
200,198,132253,2,0,P|217:235|214:300,1,99.0000030212403,2|0,0:0|0:0,0:0:0:0:
211,308,132581,5,2,0:0:0:0:
312,246,132745,1,0,0:0:0:0:
130,262,132909,2,0,P|90:280|58:307,1,66.0000020141602,8|2,0:0|0:0,0:0:0:0:
201,87,133237,2,0,P|191:55|171:29,1,66.0000020141602,8|0,0:0|0:0,0:0:0:0:
268,150,133565,2,0,L|335:157,1,66.0000020141602,2|0,0:0|0:0,0:0:0:0:
468,55,133894,6,0,B|439:92|439:92|426:193,1,132.00000402832,2|0,0:0|0:0,0:0:0:0:
464,264,134386,1,2,0:0:0:0:
320,363,134550,2,0,L|232:367,1,66.0000020141602,8|0,0:0|0:0,0:0:0:0:
334,199,134878,2,0,P|358:233|366:279,1,66.0000020141602,2|0,0:0|0:0,0:0:0:0:
183,304,135206,5,2,0:0:0:0:
245,163,135370,2,0,L|253:75,1,66.0000020141602,8|2,0:0|0:3,0:0:0:0:
144,139,135698,1,2,0:0:0:0:
286,276,135862,1,8,0:0:0:0:
334,199,136026,1,2,0:0:0:0:
155,236,136190,1,2,0:0:0:0:
155,236,136272,1,2,0:0:0:0:
155,236,136354,1,2,0:0:0:0:
317,69,136519,6,0,B|402:61|402:61|452:78,1,132.00000402832,6|0,0:0|0:0,0:0:0:0:
502,154,137011,1,2,0:0:0:0:
311,207,137175,2,0,P|284:241|276:285,1,66.0000020141602,8|0,0:0|0:0,0:0:0:0:
455,285,137503,2,0,P|447:235|423:200,1,66.0000020141602,2|0,0:0|0:0,0:0:0:0:
206,199,137831,5,2,0:0:0:0:
368,272,137995,1,8,0:0:0:0:
233,373,138159,2,0,L|156:369,1,66.0000020141602,0|2,0:0|0:0,0:0:0:0:
96,160,138487,2,0,P|123:207|126:248,1,66.0000020141602,8|0,0:0|0:0,0:0:0:0:
237,33,138815,2,0,P|217:73|212:110,1,66.0000020141602,2|0,0:0|0:0,0:0:0:0:
408,180,139143,6,0,P|381:153|281:149,1,132.00000402832,6|0,0:0|0:0,0:0:0:0:
246,223,139636,1,2,0:0:0:0:
439,270,139800,2,0,L|527:257,1,66.0000020141602,8|0,0:0|0:0,0:0:0:0:
315,290,140128,2,0,P|303:316|300:364,1,66.0000020141602,2|0,0:0|0:0,0:0:0:0:
408,180,140456,5,2,0:0:0:0:
246,223,140620,1,8,0:0:0:0:
246,223,140702,1,8,0:0:0:0:
246,223,140784,1,8,0:0:0:0:
294,51,140948,1,8,0:0:0:0:
314,146,141112,5,8,0:0:0:0:
134,92,141276,1,8,0:3:0:0:
208,184,141440,1,8,0:3:0:0:
245,70,141604,1,4,0:3:0:0:
98,272,141768,6,0,P|64:280|32:281,1,60,4|0,0:0|0:0,0:0:0:0:
138,188,142425,2,0,P|180:196|204:208,1,60
293,308,143081,5,2,0:0:0:0:
381,292,143607,1,2,0:0:0:0:
472,275,144133,1,6,0:0:0:0:
256,192,144221,12,0,148695,0:0:0:0:
