osu file format v14

[General]
AudioFilename: Breaking Benjamin - Breath.mp3
AudioLeadIn: 0
PreviewTime: 85564
Countdown: 0
SampleSet: Normal
StackLeniency: 0.5
Mode: 0
LetterboxInBreaks: 0
EpilepsyWarning: 1
WidescreenStoryboard: 1

[Editor]
Bookmarks: 73753,79002,105249,126247,162992,173491,183989,194488,204987
DistanceSpacing: 1.1
BeatDivisor: 1
GridSize: 16
TimelineZoom: 0.5999999

[Metadata]
Title:Breath
TitleUnicode:Breath
Artist:Breaking Benjamin
ArtistUnicode:Breaking Benjamin
Creator:R4UP1
Version:Easy
Source:
Tags:EZ3B R4UP1 rock english
BeatmapID:796180
BeatmapSetID:362510

[Difficulty]
HPDrainRate:2
CircleSize:3.3
OverallDifficulty:3
ApproachRate:3
SliderMultiplier:1.1
SliderTickRate:2

[Events]
//Background and Video events
0,0,"ebanQlW.jpg",0,0
//Break Periods
2,79202,82156
2,100199,103809
2,163192,169426
//Storyboard Layer 0 (Background)
//Storyboard Layer 1 (Fail)
//Storyboard Layer 2 (Pass)
//Storyboard Layer 3 (Foreground)
//Storyboard Sound Samples

[TimingPoints]
5512.10313218355,656.167979002625,4,1,1,70,1,0
16010,-111.111111111111,4,1,1,70,0,0
21260,-125,4,2,1,50,0,0
63254,-83.3333333333333,4,1,1,70,0,1
78346,-111.111111111111,4,1,1,70,0,0
83596,-76.9230769230769,4,1,1,70,0,0
84252,-83.3333333333333,4,1,1,70,0,1
100000,-111.111111111111,4,2,1,50,0,0
126247,-83.3333333333333,4,1,1,70,0,1
162992,-90.9090909090909,4,1,1,60,0,0
183989,-133.333333333333,4,1,1,70,0,1
193832,-111.111111111111,4,1,1,70,0,0
194488,-83.3333333333333,4,1,1,70,0,0
201706,-100,4,1,1,70,0,0
203674,-111.111111111111,4,1,1,60,0,0
205643,-111.111111111111,4,2,1,5,0,0

[HitObjects]
96,128,5512,6,0,B|126:119|141:98|141:98|165:108|211:94,1,110,4|0,0:0|0:0,0:0:0:0:
288,160,6824,2,0,B|257:168|242:189|242:189|218:179|172:193,1,110
80,224,8136,6,0,P|116:279|160:304,1,110,4|0,0:0|0:0,0:0:0:0:
274,301,9449,2,0,P|319:270|347:223,1,110
368,112,10761,6,0,B|336:192|448:256|384:336,1,220,4|0,0:0|0:0,0:0:0:0:
279,281,12729,1,0,0:0:0:0:
160,312,13386,6,0,P|184:200|280:160,1,220,4|0,0:0|0:0,0:0:0:0:
384,216,15354,1,0,0:0:0:0:
256,192,16010,12,0,18635,0:0:0:0:
224,112,19619,6,0,P|320:112|352:176,1,148.49999546814
272,176,21260,1,2,0:0:0:0:
188,225,21916,5,0,0:0:0:0:
145,311,22572,2,0,B|200:352|271:303|271:303|344:352|416:291,1,264
471,254,25197,6,0,P|479:206|471:166,1,88
408,96,26509,1,0,0:0:0:0:
352,176,27165,6,0,P|272:208|184:176,1,176
156,92,29134,2,0,P|107:134|96:171,1,88,0|0,0:0|0:0,0:0:0:0:
94,251,30446,2,0,L|93:347,1,88
183,304,31758,6,0,P|279:240|183:208,1,264
109,258,34383,2,0,P|94:312|107:350,1,88,0|0,0:0|0:0,0:0:0:0:
193,309,35695,6,0,P|334:303|362:193,1,264
270,224,38320,1,0,0:0:0:0:
173,226,38976,2,0,P|127:251|106:299,2,88
261,186,40945,1,2,0:0:0:0:
441,116,42257,5,0,0:0:0:0:
384,194,42913,2,0,P|353:232|310:254,1,88
319,347,44226,2,0,P|412:310|469:233,1,176
459,156,46194,6,0,P|416:140|387:97,1,88
478,66,47506,1,0,0:0:0:0:
459,156,48163,6,0,P|402:229|316:243,1,176
225,241,50131,2,0,P|264:166|348:150,1,176
432,197,52100,1,0,0:0:0:0:
395,286,52756,6,0,P|305:334|229:335,1,176,0|0,0:0|0:0,0:0:0:0:
142,301,54724,1,0,0:0:0:0:
102,212,55380,2,0,P|75:159|76:106,1,88
163,144,56693,6,0,P|242:94|336:100,1,176,0|0,0:0|0:0,0:0:0:0:
377,174,58661,1,0,0:0:0:0:
473,161,59317,2,0,P|462:228|434:260,1,88
361,279,60630,2,0,L|434:340,2,88
269,202,62598,5,0,0:0:0:0:
269,202,63254,2,0,P|219:243|147:261,1,131.99999597168,4|0,0:0|0:0,0:0:0:0:
23,198,64567,5,0,0:0:0:0:
156,139,65223,1,0,0:0:0:0:
48,41,65879,2,0,B|81:62|113:49|113:49|143:35|191:48,1,131.99999597168,4|0,0:0|0:0,0:0:0:0:
301,122,67191,5,0,0:0:0:0:
218,241,67848,1,0,0:0:0:0:
360,229,68504,2,0,P|349:165|287:117,1,131.99999597168,4|0,0:0|0:0,0:0:0:0:
155,120,69816,5,0,0:0:0:0:
53,224,70472,1,0,0:0:0:0:
198,224,71128,2,0,B|226:230|247:223|247:223|270:228|287:223|287:223|312:233|338:221,1,131.99999597168,4|0,0:0|0:0,0:0:0:0:
435,126,72441,2,0,B|407:120|386:127|386:127|363:122|346:127|346:127|321:117|295:129,1,131.99999597168
166,82,73753,6,0,B|155:169|64:166|64:166|70:233|164:245,1,263.99999194336
257,155,75722,1,2,0:0:0:0:
346,82,76378,2,0,B|357:169|448:166|448:166|442:233|348:245,1,263.99999194336
263,257,78346,6,0,P|207:282|186:331,1,98.9999969787599,0|6,0:0|0:0,0:0:0:0:
121,80,83596,6,0,B|122:126|122:126|137:177|137:177|137:248,1,142.99999345398,0|8,0:0|0:0,0:0:0:0:
271,275,84908,1,0,0:0:0:0:
329,142,85564,1,0,0:0:0:0:
468,182,86220,2,0,P|432:249|361:273,1,131.99999597168,0|8,0:0|0:0,0:0:0:0:
256,203,87533,5,0,0:0:0:0:
132,124,88189,2,0,B|200:124|200:124|256:88|256:88|312:124|312:124|380:124,1,263.99999194336,0|8,0:0|0:0,0:0:0:0:
320,257,90157,2,0,P|254:268|189:257,1,131.99999597168
81,161,91470,5,0,0:0:0:0:
194,70,92126,2,0,B|240:70|240:70|278:85|278:85|334:85,1,131.99999597168,8|0,0:0|0:0,0:0:0:0:
461,43,93438,2,0,P|462:139|432:182,1,131.99999597168
320,241,94750,6,0,P|305:326|392:251,1,263.99999194336,8|0,0:0|0:0,0:0:0:0:
320,145,96719,2,0,P|250:188|217:244,1,131.99999597168,0|8,0:0|0:0,0:0:0:0:
333,322,98031,1,0,0:0:0:0:
333,322,98687,2,0,B|258:363|133:284|57:333,1,263.99999194336,2|0,0:0|0:0,0:0:0:0:
119,282,105249,5,0,0:0:0:0:
163,182,105905,2,0,P|203:230|259:255,1,98.9999969787599
297,336,107218,2,0,P|338:246|287:152,1,197.99999395752
190,151,109186,2,0,P|210:104|249:69,1,98.9999969787599
353,65,110498,1,0,0:0:0:0:
415,154,111155,6,0,P|381:200|379:248,1,98.9999969787599
486,240,112467,1,0,0:0:0:0:
415,154,113123,2,0,P|301:157|240:209,1,197.99999395752
336,260,115092,1,0,0:0:0:0:
444,246,115748,6,0,P|504:170|466:81,1,197.99999395752,0|0,0:0|0:0,0:0:0:0:
367,47,117716,1,0,0:0:0:0:
300,133,118372,2,0,P|244:138|188:115,1,98.9999969787599
112,66,119685,6,0,P|-6:82|83:167,1,296.99999093628,0|0,0:0|0:0,0:0:0:0:
182,143,122310,2,0,P|211:97|209:38,1,98.9999969787599
108,80,123622,2,0,P|78:125|81:185,2,98.9999969787599
213,53,125590,5,0,0:0:0:0:
213,53,126247,2,0,P|242:122|295:148,1,131.99999597168,8|0,0:0|0:0,0:0:0:0:
400,52,127559,5,0,0:0:0:0:
479,173,128215,1,0,0:0:0:0:
479,173,128871,2,0,P|428:223|353:232,1,131.99999597168,8|0,0:0|0:0,0:0:0:0:
270,129,130184,5,0,0:0:0:0:
190,250,130840,1,0,0:0:0:0:
190,250,131496,2,0,P|241:300|316:309,1,131.99999597168,8|0,0:0|0:0,0:0:0:0:
389,197,132808,5,0,0:0:0:0:
248,160,133464,1,0,0:0:0:0:
148,54,134121,2,0,P|94:120|32:135,1,131.99999597168,8|0,0:0|0:0,0:0:0:0:
162,227,135433,2,0,P|231:246|281:314,1,131.99999597168
391,268,136745,6,0,B|385:206|317:182|317:182|395:134|380:51,1,263.99999194336
256,69,138714,1,0,0:0:0:0:
130,63,139370,6,0,B|117:134|195:182|195:182|127:206|121:268,1,263.99999194336
261,305,141338,2,0,P|319:263|332:184,1,131.99999597168
234,102,142651,2,0,P|165:119|108:165,1,131.99999597168
46,283,143963,5,0,0:0:0:0:
46,283,144619,2,0,P|108:321|187:330,1,131.99999597168,8|0,0:0|0:0,0:0:0:0:
279,240,145932,2,0,P|223:204|159:191,1,131.99999597168
165,331,147244,2,0,B|237:362|290:323|290:323|386:335|413:253,1,263.99999194336,8|0,0:0|0:0,0:0:0:0:
459,140,149212,6,0,P|381:149|316:120,1,131.99999597168,0|8,0:0|0:0,0:0:0:0:
205,60,150525,1,0,0:0:0:0:
120,178,151181,2,0,B|164:200|164:200|270:192,1,131.99999597168
320,69,152493,2,0,B|369:112|366:167|366:167|317:230|357:316,1,263.99999194336,8|0,0:0|0:0,0:0:0:0:
491,245,154462,5,0,0:0:0:0:
365,171,155118,2,8,P|297:167|206:193,1,131.99999597168,8|0,0:0|0:0,0:0:0:0:
144,293,156430,2,0,P|211:296|303:271,1,131.99999597168
360,166,157743,2,0,B|283:136|256:92|256:92|227:137|145:169,1,263.99999194336,8|0,0:0|0:0,0:0:0:0:
53,278,159711,6,0,P|93:323|182:293,1,131.99999597168,0|8,0:0|0:0,0:0:0:0:
256,208,161023,1,0,0:0:0:0:
368,112,161680,2,0,B|352:176|368:208|368:208|304:256|336:368|480:256|368:240,1,263.99999194336
256,192,170866,12,0,172834,0:0:0:0:
217,182,174147,6,0,P|174:140|156:82,1,121.000003692627
292,69,175459,1,0,0:0:0:0:
292,69,176115,1,8,0:0:0:0:
362,182,176771,6,0,P|337:248|290:287,1,121.000003692627
169,262,178084,1,0,0:0:0:0:
169,262,178740,1,8,0:0:0:0:
195,131,179396,6,0,P|263:128|315:162,1,121.000003692627,0|4,0:0|0:0,0:0:0:0:
347,242,180708,2,0,P|279:245|227:211,5,121.000003692627,0|0|0|0|0|2,0:0|0:0|0:0|0:0|0:0|0:0,0:0:0:0:
322,60,185302,5,0,0:0:0:0:
157,135,186614,1,2,0:0:0:0:
329,192,187926,6,0,P|359:263|441:258,1,165.000006294251,0|2,0:0|0:0,0:0:0:0:
255,268,190551,1,0,0:0:0:0:
183,192,191863,2,0,P|153:263|71:258,1,165.000006294251,2|0,0:0|0:0,0:0:0:0:
101,155,193832,2,0,P|137:112|195:101,1,98.9999969787599,0|8,0:0|0:0,0:0:0:0:
317,133,195144,5,0,0:0:0:0:
429,224,195800,2,0,P|391:273|317:292,1,131.99999597168
181,293,197113,2,0,P|70:251|86:119,1,263.99999194336,8|0,0:0|0:0,0:0:0:0:
204,47,199081,1,0,0:0:0:0:
204,47,199737,6,0,B|227:137|227:137|282:199|282:199|309:310,1,263.99999194336,8|0,0:0|0:0,0:0:0:0:
391,202,201706,2,0,P|439:172|507:175,1,110,0|8,0:0|0:0,0:0:0:0:
474,289,203018,1,0,0:0:0:0:
365,292,203674,2,0,B|321:271|275:292|275:292|213:316|160:268,1,197.99999395752,0|2,0:0|0:0,0:0:0:0:
256,192,205643,12,0,212861,0:0:0:0:
