osu file format v14

[General]
AudioFilename: audio.mp3
AudioLeadIn: 0
PreviewTime: 140157
Countdown: 0
SampleSet: Normal
StackLeniency: 0.7
Mode: 1
LetterboxInBreaks: 0
WidescreenStoryboard: 0

[Editor]
DistanceSpacing: 0.3
BeatDivisor: 4
GridSize: 32
TimelineZoom: 3.799998

[Metadata]
Title:The Writer
TitleUnicode:The Writer
Artist:Breakdown of Sanity
ArtistUnicode:Breakdown of Sanity
Creator:Akonine
Version:Perception
Source:
Tags:Metalcore English Perception
BeatmapID:2265032
BeatmapSetID:1082875

[Difficulty]
HPDrainRate:5
CircleSize:5
OverallDifficulty:6
ApproachRate:5
SliderMultiplier:1.4
SliderTickRate:1

[Events]
//Background and Video events
0,0,"w-3Z3_eMyJ.jpg",0,0
//Break Periods
//Storyboard Layer 0 (Background)
//Storyboard Layer 1 (Fail)
//Storyboard Layer 2 (Pass)
//Storyboard Layer 3 (Foreground)
//Storyboard Layer 4 (Overlay)
//Storyboard Sound Samples

[TimingPoints]
257,400,4,1,0,100,1,0
13057,-83.3333333333333,4,1,0,100,0,0
25857,-86.9565217391304,4,1,0,100,0,0
26657,-90.9090909090909,4,1,0,100,0,0
28457,-95.2380952380952,4,1,0,100,0,0
28557,-96.1538461538461,4,1,0,100,0,0
28657,-97.0873786407767,4,1,0,100,0,0
28857,-98.0392156862745,4,1,0,100,0,0
29057,-99.009900990099,4,1,0,100,0,0
29357,-100,4,1,0,100,0,0
35757,-86.9565217391304,4,1,0,100,0,0
41257,-90.0900900900901,4,1,0,100,0,0
41357,-93.4579439252336,4,1,0,100,0,0
41457,-97.0873786407767,4,1,0,100,0,0
41657,-101.010101010101,4,1,0,100,0,0
41857,-105.263157894737,4,1,0,100,0,0
45057,-100,4,1,0,100,0,0
47757,-98.0392156862745,4,1,0,100,0,0
47857,-96.1538461538461,4,1,0,100,0,0
47957,-94.3396226415094,4,1,0,100,0,0
48057,-92.5925925925926,4,1,0,100,0,0
48257,-90.9090909090909,4,1,0,100,0,0
48557,-86.9565217391304,4,1,0,100,0,0
62657,-87.719298245614,4,1,0,100,0,0
62857,-88.4955752212389,4,1,0,100,0,0
63057,-89.2857142857143,4,1,0,100,0,0
63257,-90.0900900900901,4,1,0,100,0,0
63457,-90.9090909090909,4,1,0,100,0,0
63657,-92.5925925925926,4,1,0,100,0,0
63757,-94.3396226415094,4,1,0,100,0,0
63857,-96.1538461538461,4,1,0,100,0,0
64057,-98.0392156862745,4,1,0,100,0,0
64257,-95.2380952380952,4,1,0,100,0,0
69257,-94.3396226415094,4,1,0,100,0,0
69657,-93.4579439252336,4,1,0,100,0,0
70257,-92.5925925925926,4,1,0,100,0,0
70457,-91.743119266055,4,1,0,100,0,0
70657,-90.9090909090909,4,1,0,100,0,1
77057,-90.9090909090909,4,1,0,100,0,0
77457,-90.9090909090909,4,1,0,100,0,0
87057,-93.7505859411621,4,1,0,100,0,0
87257,-96.774505724212,4,1,0,100,0,0
87357,-98.3613007298408,4,1,0,100,0,0
87457,-100,4,1,0,100,0,0
90257,-105.263157894737,4,1,0,100,0,0
95857,-104.166666666667,4,1,0,100,0,0
95957,-103.092783505155,4,1,0,100,0,0
96057,-102.040816326531,4,1,0,100,0,0
96157,-101.010101010101,4,1,0,100,0,0
96257,-100,4,1,0,100,0,0
101457,-99.009900990099,4,1,0,100,0,0
101557,-98.0392156862745,4,1,0,100,0,0
101657,-97.0873786407767,4,1,0,100,0,0
101757,-96.1538461538461,4,1,0,100,0,0
101857,-95.2380952380952,4,1,0,100,0,0
101957,-94.3396226415094,4,1,0,100,0,0
102057,-93.4579439252336,4,1,0,100,0,0
102157,-92.5925925925926,4,1,0,100,0,0
102257,-91.743119266055,4,1,0,100,0,0
102357,-90.9090909090909,4,1,0,100,0,0
102457,-90.0900900900901,4,1,0,100,0,0
102557,-89.2857142857143,4,1,0,100,0,0
102657,-87.719298245614,4,1,0,100,0,0
108457,-89.2857142857143,4,1,0,100,0,0
108557,-90.9090909090909,4,1,0,100,0,0
108657,-92.5925925925926,4,1,0,100,0,0
108757,-94.3396226415094,4,1,0,100,0,0
108857,-96.1538461538461,4,1,0,100,0,0
108957,-98.0392156862745,4,1,0,100,0,0
109057,-100,4,1,0,100,0,0
121857,-111.111111111111,4,1,0,100,0,0
127257,-109.89010989011,4,1,0,100,0,0
127657,-108.695652173913,4,1,0,100,0,0
127857,-107.52688172043,4,1,0,100,0,0
128057,-106.382978723404,4,1,0,100,0,0
128257,-105.263157894737,4,1,0,100,0,1
134657,-100,4,1,0,100,0,0
141057,-83.3333333333333,4,1,0,100,0,1
153257,-86.9565217391304,4,1,0,100,0,1
153357,-88.8888888888889,4,1,0,100,0,1
153457,-90.9090909090909,4,1,0,100,0,1
153523,-92.3077207100679,4,1,0,100,0,1
153590,-93.7499707031342,4,1,0,100,0,1
153657,-95.2380952380952,4,1,0,100,0,1
153723,-96.774224765879,4,1,0,100,0,1
153790,-98.3606234883202,4,1,0,100,0,1
153857,-100,4,1,0,100,0,0
170257,-90.9090909090909,4,1,0,100,0,0
181857,-91.743119266055,4,1,0,100,0,0
181957,-92.5925925925926,4,1,0,100,0,0
182057,-93.4579439252336,4,1,0,100,0,0
182157,-94.3396226415094,4,1,0,100,0,0
182257,-95.2380952380952,4,1,0,100,0,0
182357,-96.1538461538461,4,1,0,100,0,0
182457,-97.0873786407767,4,1,0,100,0,0
182557,-98.0392156862745,4,1,0,100,0,0
182657,-99.009900990099,4,1,0,100,0,0
182757,-100,4,1,0,100,0,0
188657,-99.009900990099,4,1,0,100,0,0
188757,-97.0873786407767,4,1,0,100,0,0
188857,-95.2380952380952,4,1,0,100,0,0
188957,-93.4579439252336,4,1,0,100,0,0
189057,-91.743119266055,4,1,0,100,0,0
189157,-90.0900900900901,4,1,0,100,0,0
189457,-86.9565217391304,4,1,0,100,0,0
195857,-87.719298245614,4,1,0,100,0,0
195957,-88.4955752212389,4,1,0,100,0,0
196257,-89.2857142857143,4,1,0,100,0,0
196357,-90.0900900900901,4,1,0,100,0,0
196457,-90.9090909090909,4,1,0,100,0,0
196857,-91.743119266055,4,1,0,100,0,0
196923,-92.5925925925926,4,1,0,100,0,0
196990,-93.4579439252336,4,1,0,100,0,0
197057,-94.3396226415094,4,1,0,100,0,0
197257,-95.2380952380952,4,1,0,100,0,0
197323,-96.1538461538461,4,1,0,100,0,0
197390,-97.0873786407767,4,1,0,100,0,0
197457,-98.0392156862745,4,1,0,100,0,0
197657,-99.009900990099,4,1,0,100,0,0
197757,-100,4,1,0,100,0,0
200857,-100,4,1,0,100,0,0
200957,-95.2380952380952,4,1,0,100,0,0
201057,-90.9090909090909,4,1,0,100,0,0
201257,-86.8809730668983,4,1,0,100,0,0
201357,-83.3333333333333,4,1,0,100,0,0
201457,-80,4,1,0,100,0,0
201557,-76.9230769230769,4,1,0,100,0,0
201657,-74.0740740740741,4,1,0,100,0,0
201757,-71.4285714285714,4,1,0,100,0,0
201857,272.727272727273,4,1,0,100,1,0
210584,-100,4,1,0,100,0,1
217129,-100,4,1,0,100,0,0
228038,-100,4,1,0,100,0,1
245493,-100,4,1,0,100,0,0
292947,-102.040816326531,4,1,0,100,0,0
293220,-103.092783505155,4,1,0,100,0,0
293357,-104.166666666667,4,1,0,100,0,0
293493,-105.263157894737,4,1,0,100,0,1
295675,-105.263157894737,4,1,0,100,0,0

[HitObjects]
179,154,257,5,4,0:0:0:0:
158,125,3857,1,8,0:0:0:0:
194,104,4257,1,8,0:0:0:0:
24,290,6657,1,4,0:0:0:0:
314,47,10257,1,8,0:0:0:0:
272,48,10657,1,8,0:0:0:0:
119,248,13057,1,4,0:0:0:0:
136,188,13357,1,0,0:0:0:0:
128,207,13457,1,0,0:0:0:0:
141,190,13657,1,0,0:0:0:0:
148,182,13757,1,0,0:0:0:0:
155,174,13857,1,8,0:0:0:0:
172,161,14057,1,0,0:0:0:0:
179,153,14157,1,0,0:0:0:0:
185,144,14257,1,0,0:0:0:0:
185,144,14357,1,0,0:0:0:0:
154,150,14657,1,0,0:0:0:0:
154,150,14757,1,0,0:0:0:0:
134,141,14957,1,0,0:0:0:0:
144,140,15057,1,0,0:0:0:0:
164,138,15257,1,0,0:0:0:0:
184,136,15457,1,8,0:0:0:0:
160,132,15657,1,0,0:0:0:0:
149,129,15757,1,0,0:0:0:0:
138,126,15857,1,0,0:0:0:0:
154,139,16057,1,0,0:0:0:0:
165,156,16257,1,0,0:0:0:0:
184,131,16557,1,0,0:0:0:0:
194,128,16657,1,0,0:0:0:0:
186,108,16857,1,0,0:0:0:0:
186,108,16957,1,0,0:0:0:0:
186,108,17057,1,8,0:0:0:0:
165,156,17257,1,0,0:0:0:0:
165,156,17357,1,0,0:0:0:0:
165,156,17457,1,0,0:0:0:0:
165,156,17557,1,0,0:0:0:0:
141,135,17857,1,0,0:0:0:0:
151,133,17957,1,0,0:0:0:0:
141,135,18157,1,0,0:0:0:0:
119,133,18257,1,0,0:0:0:0:
141,135,18457,1,0,0:0:0:0:
151,133,18657,1,8,0:0:0:0:
160,138,18857,1,0,0:0:0:0:
160,138,18957,1,0,0:0:0:0:
160,138,19057,1,0,0:0:0:0:
151,133,19257,1,8,0:0:0:0:
129,132,19457,1,0,0:0:0:0:
101,147,19757,1,0,0:0:0:0:
101,147,19857,1,0,0:0:0:0:
121,151,20057,1,0,0:0:0:0:
121,151,20157,1,0,0:0:0:0:
121,151,20257,1,8,0:0:0:0:
141,149,20457,1,0,0:0:0:0:
141,149,20557,1,0,0:0:0:0:
141,149,20657,1,0,0:0:0:0:
141,149,20757,1,0,0:0:0:0:
121,151,21057,1,0,0:0:0:0:
121,151,21157,1,0,0:0:0:0:
121,151,21357,1,0,0:0:0:0:
121,151,21457,1,0,0:0:0:0:
141,149,21657,1,0,0:0:0:0:
141,149,21857,1,8,0:0:0:0:
138,138,22057,1,0,0:0:0:0:
138,138,22157,1,0,0:0:0:0:
138,138,22257,1,0,0:0:0:0:
121,151,22457,1,0,0:0:0:0:
141,149,22657,1,0,0:0:0:0:
121,151,22957,1,0,0:0:0:0:
131,149,23057,1,0,0:0:0:0:
151,147,23257,1,0,0:0:0:0:
121,151,23357,1,0,0:0:0:0:
127,159,23457,1,8,0:0:0:0:
141,149,23657,1,0,0:0:0:0:
147,140,23757,1,0,0:0:0:0:
147,140,23857,1,0,0:0:0:0:
147,140,23957,1,0,0:0:0:0:
115,142,24257,1,0,0:0:0:0:
121,151,24357,1,0,0:0:0:0:
115,142,24557,1,0,0:0:0:0:
115,142,24657,1,0,0:0:0:0:
147,140,24857,1,0,0:0:0:0:
147,140,25057,1,8,0:0:0:0:
151,126,25257,1,0,0:0:0:0:
155,116,25357,1,0,0:0:0:0:
144,117,25457,1,0,0:0:0:0:
151,126,25657,1,8,0:0:0:0:
155,116,25857,1,4,0:0:0:0:
79,153,26657,1,4,0:0:0:0:
253,81,28457,1,0,0:0:0:0:
243,85,28557,1,0,0:0:0:0:
233,89,28657,1,8,0:0:0:0:
217,102,28857,1,0,0:0:0:0:
202,117,29057,1,4,0:0:0:0:
173,130,29357,1,8,0:0:0:0:
183,126,29457,1,0,0:0:0:0:
162,131,29657,1,0,0:0:0:0:
151,134,29757,1,0,0:0:0:0:
140,137,29857,1,8,0:0:0:0:
120,144,30057,1,0,0:0:0:0:
120,144,30157,1,8,0:0:0:0:
120,144,30257,1,8,0:0:0:0:
110,147,30357,1,0,0:0:0:0:
88,169,30657,1,8,0:0:0:0:
86,158,30757,1,0,0:0:0:0:
118,177,30957,1,0,0:0:0:0:
118,177,31057,1,8,0:0:0:0:
105,160,31257,1,0,0:0:0:0:
108,139,31457,1,8,0:0:0:0:
86,158,31657,1,0,0:0:0:0:
108,139,31757,1,0,0:0:0:0:
108,139,31857,1,0,0:0:0:0:
105,160,32057,1,8,0:0:0:0:
105,160,32257,1,0,0:0:0:0:
86,158,32557,1,8,0:0:0:0:
86,158,32657,1,0,0:0:0:0:
105,160,32857,1,0,0:0:0:0:
105,160,32957,1,0,0:0:0:0:
105,160,33057,1,8,0:0:0:0:
105,160,33257,1,0,0:0:0:0:
112,152,33357,1,8,0:0:0:0:
112,152,33457,1,8,0:0:0:0:
112,152,33557,1,0,0:0:0:0:
141,142,33857,1,8,0:0:0:0:
141,142,33957,1,0,0:0:0:0:
141,142,34157,1,0,0:0:0:0:
144,132,34257,1,8,0:0:0:0:
144,132,34457,1,0,0:0:0:0:
144,132,34657,1,8,0:0:0:0:
140,127,34857,1,0,0:0:0:0:
140,127,34957,1,0,0:0:0:0:
140,127,35057,1,8,0:0:0:0:
119,133,35257,1,8,0:0:0:0:
119,133,35357,1,8,0:0:0:0:
119,133,35457,1,8,0:0:0:0:
119,133,35757,1,8,0:0:0:0:
129,134,35857,1,0,0:0:0:0:
150,134,36057,1,0,0:0:0:0:
150,134,36157,1,0,0:0:0:0:
150,134,36257,1,8,0:0:0:0:
119,133,36457,1,0,0:0:0:0:
119,133,36557,1,8,0:0:0:0:
119,133,36657,1,8,0:0:0:0:
119,133,36757,1,0,0:0:0:0:
119,133,37057,1,8,0:0:0:0:
129,132,37157,1,0,0:0:0:0:
149,130,37357,1,0,0:0:0:0:
159,129,37457,1,8,0:0:0:0:
145,145,37657,1,0,0:0:0:0:
160,159,37857,1,8,0:0:0:0:
119,133,38057,1,0,0:0:0:0:
129,132,38157,1,0,0:0:0:0:
119,133,38257,1,0,0:0:0:0:
106,150,38457,1,8,0:0:0:0:
106,150,38657,1,0,0:0:0:0:
106,150,38957,1,8,0:0:0:0:
106,150,39057,1,0,0:0:0:0:
106,150,39257,1,0,0:0:0:0:
106,150,39357,1,0,0:0:0:0:
106,150,39457,1,8,0:0:0:0:
106,150,39657,1,0,0:0:0:0:
114,143,39757,1,8,0:0:0:0:
114,143,39857,1,8,0:0:0:0:
114,143,39957,1,0,0:0:0:0:
106,150,40257,1,8,0:0:0:0:
106,150,40357,1,0,0:0:0:0:
87,150,40557,1,0,0:0:0:0:
106,150,40657,1,8,0:0:0:0:
126,154,40857,1,0,0:0:0:0:
146,156,41057,1,12,0:0:0:0:
132,140,41257,1,0,0:0:0:0:
141,135,41357,1,0,0:0:0:0:
150,130,41457,1,8,0:0:0:0:
106,150,41657,1,12,0:0:0:0:
114,130,41857,1,4,0:0:0:0:
93,151,42157,1,0,0:0:0:0:
102,152,42257,1,0,0:0:0:0:
106,150,42457,1,0,0:0:0:0:
115,150,42557,1,0,0:0:0:0:
124,150,42657,1,8,0:0:0:0:
172,87,43457,1,8,0:0:0:0:
149,163,44257,1,8,0:0:0:0:
110,152,44457,1,0,0:0:0:0:
110,152,44557,1,0,0:0:0:0:
110,152,44657,1,0,0:0:0:0:
110,152,44857,1,8,0:0:0:0:
98,134,45057,1,0,0:0:0:0:
129,132,45357,1,8,0:0:0:0:
139,131,45457,1,0,0:0:0:0:
98,134,45657,1,8,0:0:0:0:
129,132,45757,1,0,0:0:0:0:
129,132,45857,1,8,0:0:0:0:
139,150,46057,1,0,0:0:0:0:
149,150,46157,1,0,0:0:0:0:
149,150,46257,1,8,0:0:0:0:
149,150,46357,1,8,0:0:0:0:
149,150,46457,1,0,0:0:0:0:
149,150,46557,1,0,0:0:0:0:
149,150,46657,1,8,0:0:0:0:
128,153,46857,1,0,0:0:0:0:
139,150,47057,1,8,0:0:0:0:
148,138,47257,1,0,0:0:0:0:
166,128,47357,1,0,0:0:0:0:
166,128,47457,1,8,0:0:0:0:
128,153,47657,1,0,0:0:0:0:
144,140,47757,1,0,0:0:0:0:
144,140,47857,1,8,0:0:0:0:
152,133,47957,1,0,0:0:0:0:
161,128,48057,1,0,0:0:0:0:
166,128,48257,1,4,0:0:0:0:
152,133,48657,1,8,0:0:0:0:
161,125,48757,1,0,0:0:0:0:
150,112,48857,1,0,0:0:0:0:
155,102,48957,1,0,0:0:0:0:
155,102,49057,1,8,0:0:0:0:
139,129,49257,1,0,0:0:0:0:
144,140,49357,1,8,0:0:0:0:
144,140,49557,1,0,0:0:0:0:
152,133,49657,1,8,0:0:0:0:
152,133,49757,1,8,0:0:0:0:
152,133,49857,1,0,0:0:0:0:
121,140,50057,1,8,0:0:0:0:
121,140,50157,1,0,0:0:0:0:
100,133,50357,1,0,0:0:0:0:
100,133,50457,1,0,0:0:0:0:
100,133,50557,1,0,0:0:0:0:
100,133,50657,1,8,0:0:0:0:
119,140,50857,1,0,0:0:0:0:
129,140,50957,1,0,0:0:0:0:
108,140,51157,1,8,0:0:0:0:
119,140,51257,1,0,0:0:0:0:
129,140,51457,1,4,0:0:0:0:
119,140,51857,1,0,0:0:0:0:
129,140,51957,1,0,0:0:0:0:
108,140,52057,1,0,0:0:0:0:
108,140,52157,1,0,0:0:0:0:
119,140,52257,1,8,0:0:0:0:
129,140,52457,1,0,0:0:0:0:
138,135,52557,1,0,0:0:0:0:
119,140,52757,1,0,0:0:0:0:
126,147,52857,1,8,0:0:0:0:
129,140,52957,1,8,0:0:0:0:
129,140,53057,1,0,0:0:0:0:
119,140,53257,1,4,0:0:0:0:
138,135,53457,1,4,0:0:0:0:
158,139,53657,1,4,0:0:0:0:
138,135,53857,1,12,0:0:0:0:
129,140,54057,1,4,0:0:0:0:
158,139,54257,1,4,0:0:0:0:
158,139,54457,1,4,0:0:0:0:
158,139,54657,1,8,0:0:0:0:
158,139,54857,1,4,0:0:0:0:
129,140,55057,1,4,0:0:0:0:
129,140,55257,1,4,0:0:0:0:
129,140,55457,1,12,0:0:0:0:
158,139,55657,1,4,0:0:0:0:
179,139,55857,1,4,0:0:0:0:
179,139,56057,1,4,0:0:0:0:
179,139,56257,1,4,0:0:0:0:
139,154,56657,1,0,0:0:0:0:
149,153,56757,1,8,0:0:0:0:
159,152,56857,1,0,0:0:0:0:
179,139,56957,1,0,0:0:0:0:
179,139,57057,1,8,0:0:0:0:
139,154,57257,1,8,0:0:0:0:
179,139,57357,1,0,0:0:0:0:
159,130,57557,1,0,0:0:0:0:
179,139,57657,1,0,0:0:0:0:
179,139,57757,1,0,0:0:0:0:
179,139,57857,1,8,0:0:0:0:
139,154,58057,1,0,0:0:0:0:
139,154,58157,1,8,0:0:0:0:
139,154,58357,1,8,0:0:0:0:
159,130,58457,1,0,0:0:0:0:
159,130,58557,1,0,0:0:0:0:
159,130,58657,1,8,0:0:0:0:
175,117,58857,1,0,0:0:0:0:
184,112,58957,1,8,0:0:0:0:
203,104,59157,1,8,0:0:0:0:
203,104,59257,1,0,0:0:0:0:
183,111,59457,1,4,0:0:0:0:
147,133,59857,1,0,0:0:0:0:
156,128,59957,1,0,0:0:0:0:
156,128,60057,1,0,0:0:0:0:
156,128,60157,1,0,0:0:0:0:
156,128,60257,1,8,0:0:0:0:
147,133,60457,1,8,0:0:0:0:
157,134,60557,1,0,0:0:0:0:
136,138,60757,1,0,0:0:0:0:
136,138,60857,1,8,0:0:0:0:
136,138,61057,1,12,0:0:0:0:
147,133,61257,1,0,0:0:0:0:
147,133,61457,1,4,0:0:0:0:
136,138,61657,1,4,0:0:0:0:
136,138,61857,1,12,0:0:0:0:
118,126,62057,1,4,0:0:0:0:
135,115,62257,1,4,0:0:0:0:
135,115,62457,1,4,0:0:0:0:
135,115,62657,1,8,0:0:0:0:
135,115,62857,1,4,0:0:0:0:
135,115,63057,1,4,0:0:0:0:
146,132,63257,1,4,0:0:0:0:
165,138,63457,1,12,0:0:0:0:
146,132,63657,1,0,0:0:0:0:
165,138,63757,1,0,0:0:0:0:
165,138,63857,1,8,0:0:0:0:
145,145,64057,1,8,0:0:0:0:
164,136,64257,1,4,0:0:0:0:
146,132,64457,1,0,0:0:0:0:
146,132,64557,1,0,0:0:0:0:
146,132,64657,1,0,0:0:0:0:
165,121,64857,1,0,0:0:0:0:
165,121,65057,1,8,0:0:0:0:
161,117,65157,1,0,0:0:0:0:
168,96,65357,1,0,0:0:0:0:
158,138,65457,1,0,0:0:0:0:
158,138,65557,1,8,0:0:0:0:
158,138,65657,1,8,0:0:0:0:
147,136,65757,1,0,0:0:0:0:
136,134,65857,1,0,0:0:0:0:
147,136,66057,1,0,0:0:0:0:
158,138,66157,1,0,0:0:0:0:
158,138,66257,1,0,0:0:0:0:
158,138,66457,1,0,0:0:0:0:
135,138,66657,1,8,0:0:0:0:
142,129,66757,1,0,0:0:0:0:
158,138,67057,1,0,0:0:0:0:
177,148,67257,1,8,0:0:0:0:
155,145,67457,1,0,0:0:0:0:
133,141,67657,1,0,0:0:0:0:
122,139,67757,1,0,0:0:0:0:
122,139,67857,1,8,0:0:0:0:
158,138,68057,1,0,0:0:0:0:
155,145,68257,1,8,0:0:0:0:
155,145,68357,1,0,0:0:0:0:
133,141,68557,1,0,0:0:0:0:
133,141,68657,1,0,0:0:0:0:
122,139,68757,1,8,0:0:0:0:
133,141,68857,1,8,0:0:0:0:
133,141,68957,1,0,0:0:0:0:
155,145,69057,1,0,0:0:0:0:
122,139,69257,1,0,0:0:0:0:
133,141,69357,1,0,0:0:0:0:
133,141,69457,1,8,0:0:0:0:
155,145,69657,1,0,0:0:0:0:
176,149,69857,1,8,0:0:0:0:
186,150,69957,1,0,0:0:0:0:
122,139,70257,1,12,0:0:0:0:
133,141,70457,1,12,0:0:0:0:
122,139,70657,1,4,0:0:0:0:
176,149,70857,1,0,0:0:0:0:
176,149,70957,1,0,0:0:0:0:
176,149,71057,1,8,0:0:0:0:
195,137,71257,1,0,0:0:0:0:
172,139,71457,1,8,0:0:0:0:
172,139,71557,1,0,0:0:0:0:
149,132,71757,1,0,0:0:0:0:
149,132,71857,1,0,0:0:0:0:
149,132,71957,1,8,0:0:0:0:
149,132,72057,1,8,0:0:0:0:
149,132,72157,1,0,0:0:0:0:
149,132,72257,1,0,0:0:0:0:
126,134,72457,1,0,0:0:0:0:
126,134,72557,1,0,0:0:0:0:
126,134,72657,1,8,0:0:0:0:
105,144,72857,1,0,0:0:0:0:
127,146,73057,1,8,0:0:0:0:
138,147,73157,1,0,0:0:0:0:
127,146,73457,1,0,0:0:0:0:
147,156,73657,1,0,0:0:0:0:
168,148,73857,1,0,0:0:0:0:
145,151,74057,1,0,0:0:0:0:
127,146,74157,1,0,0:0:0:0:
127,146,74257,1,8,0:0:0:0:
149,142,74457,1,0,0:0:0:0:
149,142,74657,1,8,0:0:0:0:
149,142,74757,1,0,0:0:0:0:
169,152,74957,1,0,0:0:0:0:
169,152,75057,1,0,0:0:0:0:
180,152,75157,1,8,0:0:0:0:
180,152,75257,1,8,0:0:0:0:
168,150,75357,1,0,0:0:0:0:
156,148,75457,1,8,0:0:0:0:
149,142,75657,1,8,0:0:0:0:
149,142,75757,1,8,0:0:0:0:
156,148,75857,1,8,0:0:0:0:
156,148,76057,1,12,0:0:0:0:
125,131,76357,1,0,0:0:0:0:
149,142,76657,1,0,0:0:0:0:
150,147,76857,1,0,0:0:0:0:
156,148,77057,1,4,0:0:0:0:
79,152,77457,5,8,0:0:0:0:
85,143,77557,1,0,0:0:0:0:
94,138,77657,1,0,0:0:0:0:
103,133,77757,1,0,0:0:0:0:
112,129,77857,1,8,0:0:0:0:
122,131,77957,1,0,0:0:0:0:
132,129,78057,1,8,0:0:0:0:
142,127,78157,1,0,0:0:0:0:
152,126,78257,1,8,0:0:0:0:
85,143,78357,1,8,0:0:0:0:
122,131,78457,1,8,0:0:0:0:
122,131,78557,1,8,0:0:0:0:
122,131,78657,1,0,0:0:0:0:
122,131,78757,1,8,0:0:0:0:
122,131,78857,1,0,0:0:0:0:
122,131,78957,1,0,0:0:0:0:
127,122,79057,1,8,0:0:0:0:
125,132,79157,1,0,0:0:0:0:
133,137,79257,1,8,0:0:0:0:
141,143,79357,1,8,0:0:0:0:
141,143,79457,1,0,0:0:0:0:
141,143,79557,1,8,0:0:0:0:
141,143,79657,1,0,0:0:0:0:
141,143,79757,1,0,0:0:0:0:
141,143,79857,1,8,0:0:0:0:
133,137,79957,1,8,0:0:0:0:
133,137,80057,1,0,0:0:0:0:
133,137,80157,1,0,0:0:0:0:
133,137,80257,1,8,0:0:0:0:
141,143,80357,1,8,0:0:0:0:
141,143,80457,1,0,0:0:0:0:
141,143,80557,1,0,0:0:0:0:
141,143,80657,1,8,0:0:0:0:
151,140,80757,1,8,0:0:0:0:
161,138,80857,1,8,0:0:0:0:
161,138,80957,1,0,0:0:0:0:
161,138,81057,1,8,0:0:0:0:
161,138,81157,1,8,0:0:0:0:
161,138,81257,1,0,0:0:0:0:
161,138,81357,1,0,0:0:0:0:
161,138,81457,1,8,0:0:0:0:
150,140,81557,1,0,0:0:0:0:
139,142,81657,1,0,0:0:0:0:
128,144,81757,1,0,0:0:0:0:
128,144,81857,1,8,0:0:0:0:
128,144,81957,1,0,0:0:0:0:
139,142,82057,1,0,0:0:0:0:
139,142,82157,1,8,0:0:0:0:
139,142,82257,1,0,0:0:0:0:
150,140,82357,1,0,0:0:0:0:
150,140,82457,1,8,0:0:0:0:
139,140,82557,1,0,0:0:0:0:
128,140,82657,1,8,0:0:0:0:
138,140,82757,1,0,0:0:0:0:
148,140,82857,1,8,0:0:0:0:
138,143,82957,1,8,0:0:0:0:
146,136,83057,1,0,0:0:0:0:
154,129,83157,1,0,0:0:0:0:
162,123,83257,1,8,0:0:0:0:
162,123,83357,1,8,0:0:0:0:
151,121,83457,1,0,0:0:0:0:
112,137,83857,1,8,0:0:0:0:
154,129,83957,1,0,0:0:0:0:
162,123,84057,1,0,0:0:0:0:
162,123,84157,1,0,0:0:0:0:
162,123,84257,1,8,0:0:0:0:
162,123,84357,1,8,0:0:0:0:
162,123,84457,1,0,0:0:0:0:
162,123,84557,1,0,0:0:0:0:
162,123,84657,1,8,0:0:0:0:
151,124,84757,1,8,0:0:0:0:
154,129,84857,1,8,0:0:0:0:
154,129,84957,1,0,0:0:0:0:
162,123,85057,1,8,0:0:0:0:
162,123,85157,1,8,0:0:0:0:
162,123,85257,1,0,0:0:0:0:
162,123,85357,1,0,0:0:0:0:
162,123,85457,1,8,0:0:0:0:
224,115,85557,1,0,0:0:0:0:
224,115,85657,1,8,0:0:0:0:
224,115,85757,1,8,0:0:0:0:
224,115,85857,1,0,0:0:0:0:
224,115,85957,1,8,0:0:0:0:
224,115,86057,1,0,0:0:0:0:
235,121,86157,1,0,0:0:0:0:
79,139,86257,1,8,0:0:0:0:
89,137,86357,1,0,0:0:0:0:
99,135,86457,1,0,0:0:0:0:
109,133,86557,1,0,0:0:0:0:
119,132,86657,1,8,0:0:0:0:
109,133,86757,1,0,0:0:0:0:
119,132,86857,1,0,0:0:0:0:
99,135,87057,1,8,0:0:0:0:
119,132,87257,1,0,0:0:0:0:
129,130,87357,1,0,0:0:0:0:
139,128,87457,1,8,0:0:0:0:
129,130,87857,1,8,0:0:0:0:
139,128,88057,1,0,0:0:0:0:
148,123,88157,1,0,0:0:0:0:
157,119,88257,1,8,0:0:0:0:
157,119,88357,1,8,0:0:0:0:
166,114,88457,1,0,0:0:0:0:
166,114,88557,1,0,0:0:0:0:
166,114,88657,1,8,0:0:0:0:
148,123,88757,1,0,0:0:0:0:
157,118,88857,1,8,0:0:0:0:
166,114,88957,1,0,0:0:0:0:
155,116,89057,1,8,0:0:0:0:
165,115,89157,1,8,0:0:0:0:
175,114,89257,1,0,0:0:0:0:
175,114,89357,1,0,0:0:0:0:
164,115,89457,1,8,0:0:0:0:
153,116,89557,1,8,0:0:0:0:
142,117,89657,1,0,0:0:0:0:
131,118,89757,1,8,0:0:0:0:
310,50,89857,1,4,0:0:0:0:
271,65,90257,1,0,0:0:0:0:
142,117,90357,1,8,0:0:0:0:
142,117,90457,1,8,0:0:0:0:
142,117,90557,1,0,0:0:0:0:
142,117,90657,1,8,0:0:0:0:
161,124,90857,1,8,0:0:0:0:
170,127,90957,1,0,0:0:0:0:
142,117,91157,1,0,0:0:0:0:
161,124,91257,1,8,0:0:0:0:
128,160,91857,1,0,0:0:0:0:
69,145,92257,1,8,0:0:0:0:
96,128,92657,1,0,0:0:0:0:
128,160,93057,1,4,0:0:0:0:
128,160,93457,1,0,0:0:0:0:
128,160,93557,1,8,0:0:0:0:
128,160,93657,1,0,0:0:0:0:
128,160,93757,1,0,0:0:0:0:
128,160,93857,1,8,0:0:0:0:
96,160,94057,1,0,0:0:0:0:
160,128,94157,1,0,0:0:0:0:
192,128,94357,1,0,0:0:0:0:
192,128,94457,1,0,0:0:0:0:
96,160,94657,1,8,0:0:0:0:
96,160,94757,1,0,0:0:0:0:
96,160,94857,1,0,0:0:0:0:
96,160,94957,1,8,0:0:0:0:
96,160,95057,1,0,0:0:0:0:
96,160,95157,1,0,0:0:0:0:
96,160,95257,1,8,0:0:0:0:
96,160,95357,1,0,0:0:0:0:
96,160,95457,1,8,0:0:0:0:
96,160,95557,1,0,0:0:0:0:
96,160,95657,1,0,0:0:0:0:
96,160,95757,1,8,0:0:0:0:
96,160,95857,1,8,0:0:0:0:
96,160,95957,1,0,0:0:0:0:
96,160,96057,1,0,0:0:0:0:
96,160,96157,1,8,0:0:0:0:
128,160,96257,1,4,0:0:0:0:
160,128,96657,1,8,0:0:0:0:
160,128,96757,1,0,0:0:0:0:
160,128,96857,1,0,0:0:0:0:
160,128,96957,1,0,0:0:0:0:
160,128,97057,1,8,0:0:0:0:
128,128,97257,1,0,0:0:0:0:
160,128,97357,1,0,0:0:0:0:
160,128,97457,1,8,0:0:0:0:
128,128,97557,1,0,0:0:0:0:
128,128,97657,1,0,0:0:0:0:
128,128,97857,1,12,0:0:0:0:
128,128,98057,1,0,0:0:0:0:
160,128,98257,1,12,0:0:0:0:
160,128,98457,1,0,0:0:0:0:
192,128,98657,1,12,0:0:0:0:
192,128,98857,1,0,0:0:0:0:
192,128,99057,1,12,0:0:0:0:
192,128,99257,1,0,0:0:0:0:
160,128,99457,1,8,0:0:0:0:
160,128,99557,1,0,0:0:0:0:
160,128,99657,1,0,0:0:0:0:
160,96,99857,1,12,0:0:0:0:
160,96,100057,1,0,0:0:0:0:
160,96,100157,1,0,0:0:0:0:
160,96,100257,1,8,0:0:0:0:
192,96,100657,1,12,0:0:0:0:
192,96,100857,1,0,0:0:0:0:
192,96,100957,1,0,0:0:0:0:
192,96,101057,1,8,0:0:0:0:
192,96,101157,1,8,0:0:0:0:
192,96,101257,1,0,0:0:0:0:
192,96,101357,1,0,0:0:0:0:
192,96,101457,1,8,0:0:0:0:
192,96,101557,5,0,0:0:0:0:
192,96,101657,1,0,0:0:0:0:
192,96,101757,1,0,0:0:0:0:
192,96,101857,1,8,0:0:0:0:
192,96,101957,1,8,0:0:0:0:
192,96,102057,1,0,0:0:0:0:
192,96,102157,1,0,0:0:0:0:
192,96,102257,1,8,0:0:0:0:
192,96,102357,1,8,0:0:0:0:
160,128,102457,1,8,0:0:0:0:
160,128,102557,1,8,0:0:0:0:
96,128,102657,5,0,0:0:0:0:
96,128,102723,1,0,0:0:0:0:
96,128,102790,1,0,0:0:0:0:
96,128,102857,1,8,0:0:0:0:
128,128,103057,1,0,0:0:0:0:
128,128,103123,1,0,0:0:0:0:
128,128,103190,1,0,0:0:0:0:
128,128,103257,1,0,0:0:0:0:
128,128,103323,1,0,0:0:0:0:
128,128,103390,1,0,0:0:0:0:
128,128,103457,1,8,0:0:0:0:
160,128,103657,1,8,0:0:0:0:
160,128,103723,1,0,0:0:0:0:
160,128,103790,1,0,0:0:0:0:
160,128,103857,1,8,0:0:0:0:
160,128,104057,1,0,0:0:0:0:
160,128,104123,1,0,0:0:0:0:
160,128,104190,1,0,0:0:0:0:
160,128,104257,1,8,0:0:0:0:
160,128,104457,1,8,0:0:0:0:
160,128,104523,1,0,0:0:0:0:
160,128,104590,1,0,0:0:0:0:
160,128,104657,1,8,0:0:0:0:
128,128,104857,1,0,0:0:0:0:
128,128,104957,1,0,0:0:0:0:
128,128,105057,1,8,0:0:0:0:
160,128,105257,1,0,0:0:0:0:
160,128,105657,1,0,0:0:0:0:
160,128,105857,1,0,0:0:0:0:
160,128,105923,1,0,0:0:0:0:
160,128,105990,1,0,0:0:0:0:
160,128,106057,1,8,0:0:0:0:
128,128,106257,1,0,0:0:0:0:
128,128,106323,1,0,0:0:0:0:
128,128,106390,1,0,0:0:0:0:
128,128,106457,1,0,0:0:0:0:
128,128,106523,1,0,0:0:0:0:
128,128,106590,1,0,0:0:0:0:
128,128,106657,1,8,0:0:0:0:
160,128,106857,1,8,0:0:0:0:
160,128,106923,1,0,0:0:0:0:
160,128,106990,1,0,0:0:0:0:
160,128,107057,1,8,0:0:0:0:
160,96,107257,1,0,0:0:0:0:
160,96,107323,1,0,0:0:0:0:
160,96,107390,1,0,0:0:0:0:
160,96,107457,1,8,0:0:0:0:
128,96,107657,1,8,0:0:0:0:
128,96,107723,1,0,0:0:0:0:
128,96,107790,1,0,0:0:0:0:
128,96,107857,1,8,0:0:0:0:
160,96,108057,1,0,0:0:0:0:
160,96,108157,1,0,0:0:0:0:
160,96,108257,1,8,0:0:0:0:
160,128,108457,1,0,0:0:0:0:
160,128,108557,1,8,0:0:0:0:
160,128,108657,1,8,0:0:0:0:
160,128,108757,1,8,0:0:0:0:
224,160,108857,1,0,0:0:0:0:
224,160,108957,1,8,0:0:0:0:
224,160,109057,1,4,0:0:0:0:
140,151,109857,1,8,0:0:0:0:
111,133,111457,1,8,0:0:0:0:
111,133,111657,1,4,0:0:0:0:
130,125,112057,1,4,0:0:0:0:
109,128,112257,1,12,0:0:0:0:
109,128,113057,1,8,0:0:0:0:
50,138,114657,1,8,0:0:0:0:
70,136,114857,1,4,0:0:0:0:
111,138,115257,1,4,0:0:0:0:
131,139,115457,1,12,0:0:0:0:
111,130,115657,1,8,0:0:0:0:
120,125,115757,1,8,0:0:0:0:
129,121,115857,1,0,0:0:0:0:
135,112,115957,1,0,0:0:0:0:
144,107,116057,1,0,0:0:0:0:
153,103,116157,1,0,0:0:0:0:
88,132,116257,1,8,0:0:0:0:
111,130,116457,1,0,0:0:0:0:
121,130,116557,1,0,0:0:0:0:
131,130,116657,1,8,0:0:0:0:
141,129,116757,1,8,0:0:0:0:
130,126,116857,1,0,0:0:0:0:
135,112,116957,1,0,0:0:0:0:
135,112,117057,1,0,0:0:0:0:
135,112,117157,1,0,0:0:0:0:
125,107,117257,1,8,0:0:0:0:
133,101,117357,1,8,0:0:0:0:
142,95,117457,1,8,0:0:0:0:
142,95,117557,1,8,0:0:0:0:
131,93,117657,1,0,0:0:0:0:
139,86,117757,1,0,0:0:0:0:
148,82,117857,1,8,0:0:0:0:
158,79,117957,1,8,0:0:0:0:
148,84,118057,1,0,0:0:0:0:
135,112,118157,1,0,0:0:0:0:
125,112,118257,1,8,0:0:0:0:
115,107,118357,1,8,0:0:0:0:
125,104,118457,1,0,0:0:0:0:
135,102,118557,1,0,0:0:0:0:
144,98,118657,1,12,0:0:0:0:
128,136,119057,1,4,0:0:0:0:
125,112,119257,1,8,0:0:0:0:
145,111,119457,1,4,0:0:0:0:
165,110,119657,1,8,0:0:0:0:
185,109,119857,1,4,0:0:0:0:
205,108,120057,1,8,0:0:0:0:
14,80,120257,1,12,0:0:0:0:
143,155,121857,1,0,0:0:0:0:
152,153,121957,1,0,0:0:0:0:
161,151,122057,1,0,0:0:0:0:
143,143,122257,1,0,0:0:0:0:
147,134,122357,1,0,0:0:0:0:
151,125,122457,1,0,0:0:0:0:
151,125,122557,1,0,0:0:0:0:
151,125,122657,1,8,0:0:0:0:
132,127,122857,1,0,0:0:0:0:
132,127,122957,1,0,0:0:0:0:
132,127,123057,1,0,0:0:0:0:
113,126,123257,1,0,0:0:0:0:
113,126,123357,1,0,0:0:0:0:
113,126,123457,1,0,0:0:0:0:
96,117,123657,1,0,0:0:0:0:
103,111,123757,1,0,0:0:0:0:
110,105,123857,1,0,0:0:0:0:
94,115,124057,1,0,0:0:0:0:
113,126,124157,1,0,0:0:0:0:
113,126,124257,1,8,0:0:0:0:
94,127,124457,1,0,0:0:0:0:
130,136,124857,1,0,0:0:0:0:
111,134,125057,1,8,0:0:0:0:
130,136,125157,1,0,0:0:0:0:
130,136,125257,1,0,0:0:0:0:
94,127,125457,1,8,0:0:0:0:
103,125,125557,1,0,0:0:0:0:
112,123,125657,1,0,0:0:0:0:
121,121,125757,1,0,0:0:0:0:
130,119,125857,1,8,0:0:0:0:
111,134,126057,1,0,0:0:0:0:
120,134,126157,1,0,0:0:0:0:
127,118,126257,1,0,0:0:0:0:
111,127,126457,1,0,0:0:0:0:
119,123,126557,1,0,0:0:0:0:
129,134,126657,1,8,0:0:0:0:
108,118,126857,1,8,0:0:0:0:
111,127,126957,1,8,0:0:0:0:
119,123,127057,1,0,0:0:0:0:
100,125,127257,1,8,0:0:0:0:
111,127,127357,1,0,0:0:0:0:
120,125,127457,1,8,0:0:0:0:
101,125,127657,1,0,0:0:0:0:
119,123,127857,1,12,0:0:0:0:
117,141,128057,1,0,0:0:0:0:
100,125,128257,1,8,0:0:0:0:
109,124,128357,1,0,0:0:0:0:
118,123,128457,1,0,0:0:0:0:
98,123,128657,1,8,0:0:0:0:
88,125,128757,1,0,0:0:0:0:
97,125,128857,1,0,0:0:0:0:
106,125,128957,1,0,0:0:0:0:
115,125,129057,1,8,0:0:0:0:
100,125,129257,1,0,0:0:0:0:
108,119,129357,1,0,0:0:0:0:
116,114,129457,1,8,0:0:0:0:
98,105,129657,1,0,0:0:0:0:
107,103,129757,1,0,0:0:0:0:
116,101,129857,1,0,0:0:0:0:
96,101,130057,1,8,0:0:0:0:
105,100,130157,1,8,0:0:0:0:
114,98,130257,1,0,0:0:0:0:
105,116,130457,1,8,0:0:0:0:
114,117,130557,1,0,0:0:0:0:
123,118,130657,1,8,0:0:0:0:
104,125,130857,1,0,0:0:0:0:
104,125,131257,1,0,0:0:0:0:
84,128,131457,1,8,0:0:0:0:
93,129,131557,1,0,0:0:0:0:
102,130,131657,1,0,0:0:0:0:
82,125,131857,1,8,0:0:0:0:
91,122,131957,1,0,0:0:0:0:
100,119,132057,1,0,0:0:0:0:
109,116,132157,1,0,0:0:0:0:
118,113,132257,1,8,0:0:0:0:
98,109,132457,1,0,0:0:0:0:
98,109,132557,1,0,0:0:0:0:
98,109,132657,1,0,0:0:0:0:
80,118,132857,1,8,0:0:0:0:
91,122,132957,1,0,0:0:0:0:
100,119,133057,1,0,0:0:0:0:
98,109,133257,1,8,0:0:0:0:
98,109,133357,1,8,0:0:0:0:
98,109,133457,1,8,0:0:0:0:
80,118,133657,1,0,0:0:0:0:
91,122,133757,1,0,0:0:0:0:
91,122,133857,1,8,0:0:0:0:
109,128,133907,1,8,0:0:0:0:
91,122,134057,1,0,0:0:0:0:
109,128,134257,1,8,0:0:0:0:
113,129,134307,1,8,0:0:0:0:
126,118,134457,1,0,0:0:0:0:
80,118,134657,1,4,0:0:0:0:
87,156,138257,1,8,0:0:0:0:
127,145,138657,1,8,0:0:0:0:
220,378,141057,1,4,0:0:0:0:
207,349,141357,1,8,0:0:0:0:
205,338,141457,1,0,0:0:0:0:
197,318,141657,1,0,0:0:0:0:
192,308,141757,1,0,0:0:0:0:
189,297,141857,1,8,0:0:0:0:
180,277,142057,1,0,0:0:0:0:
176,266,142157,1,0,0:0:0:0:
172,255,142257,1,0,0:0:0:0:
168,244,142357,1,8,0:0:0:0:
166,212,142657,1,0,0:0:0:0:
164,223,142757,1,8,0:0:0:0:
151,205,142957,1,8,0:0:0:0:
153,194,143057,1,0,0:0:0:0:
155,173,143257,1,0,0:0:0:0:
163,153,143457,1,8,0:0:0:0:
157,132,143657,1,0,0:0:0:0:
164,124,143757,1,0,0:0:0:0:
164,124,143857,1,0,0:0:0:0:
143,129,144057,1,0,0:0:0:0:
157,132,144257,1,0,0:0:0:0:
125,127,144557,1,0,0:0:0:0:
127,116,144657,1,8,0:0:0:0:
125,127,144857,1,0,0:0:0:0:
135,126,144957,1,0,0:0:0:0:
145,125,145057,1,8,0:0:0:0:
157,132,145257,1,0,0:0:0:0:
165,125,145357,1,8,0:0:0:0:
165,125,145457,1,8,0:0:0:0:
165,125,145557,1,0,0:0:0:0:
125,127,145857,1,8,0:0:0:0:
135,126,145957,1,0,0:0:0:0:
157,132,146157,1,0,0:0:0:0:
166,127,146257,1,8,0:0:0:0:
125,127,146457,1,0,0:0:0:0:
157,132,146657,1,8,0:0:0:0:
136,130,146857,1,0,0:0:0:0:
135,126,146957,1,0,0:0:0:0:
125,127,147057,1,0,0:0:0:0:
157,132,147257,1,8,0:0:0:0:
158,110,147457,1,4,0:0:0:0:
157,132,147757,1,8,0:0:0:0:
167,130,147857,1,0,0:0:0:0:
125,127,148057,1,8,0:0:0:0:
125,127,148157,1,0,0:0:0:0:
125,127,148257,1,8,0:0:0:0:
157,132,148457,1,0,0:0:0:0:
167,130,148557,1,0,0:0:0:0:
167,130,148657,1,0,0:0:0:0:
167,130,148757,1,8,0:0:0:0:
157,132,149057,1,0,0:0:0:0:
157,132,149157,1,8,0:0:0:0:
157,132,149357,1,8,0:0:0:0:
157,132,149457,1,0,0:0:0:0:
136,126,149657,1,0,0:0:0:0:
136,126,149857,1,8,0:0:0:0:
140,110,150057,1,0,0:0:0:0:
149,106,150157,1,0,0:0:0:0:
158,102,150257,1,0,0:0:0:0:
178,106,150457,1,8,0:0:0:0:
198,107,150657,1,0,0:0:0:0:
167,115,150957,1,8,0:0:0:0:
156,117,151057,1,0,0:0:0:0:
178,106,151257,1,8,0:0:0:0:
186,100,151357,1,8,0:0:0:0:
195,94,151457,1,8,0:0:0:0:
174,99,151657,1,0,0:0:0:0:
164,102,151757,1,8,0:0:0:0:
154,105,151857,1,8,0:0:0:0:
154,105,151957,1,0,0:0:0:0:
154,105,152257,1,8,0:0:0:0:
154,105,152357,1,0,0:0:0:0:
154,105,152557,1,0,0:0:0:0:
154,105,152657,1,8,0:0:0:0:
134,112,152857,1,0,0:0:0:0:
134,132,153057,1,12,0:0:0:0:
146,127,153257,1,8,0:0:0:0:
155,131,153357,1,8,0:0:0:0:
154,105,153457,1,0,0:0:0:0:
154,105,153523,1,0,0:0:0:0:
154,105,153590,1,0,0:0:0:0:
154,105,153657,1,0,0:0:0:0:
154,105,153723,1,8,0:0:0:0:
154,105,153790,1,8,0:0:0:0:
154,105,153857,1,0,0:0:0:0:
134,132,154057,1,0,0:0:0:0:
144,131,154157,1,0,0:0:0:0:
154,130,154257,1,0,0:0:0:0:
174,135,154457,1,0,0:0:0:0:
194,133,154657,1,8,0:0:0:0:
185,126,154757,1,0,0:0:0:0:
164,123,154957,1,8,0:0:0:0:
164,123,155057,1,0,0:0:0:0:
153,126,155157,1,0,0:0:0:0:
143,129,155257,1,0,0:0:0:0:
143,129,155357,1,8,0:0:0:0:
143,129,155457,1,0,0:0:0:0:
164,123,155657,1,8,0:0:0:0:
185,126,155757,1,0,0:0:0:0:
185,126,155857,1,0,0:0:0:0:
164,129,156057,1,0,0:0:0:0:
143,129,156257,1,8,0:0:0:0:
155,111,156357,1,0,0:0:0:0:
127,125,156657,1,0,0:0:0:0:
127,125,156857,1,8,0:0:0:0:
143,129,157057,1,0,0:0:0:0:
127,125,157257,1,8,0:0:0:0:
127,125,157357,1,0,0:0:0:0:
127,125,157457,1,8,0:0:0:0:
143,129,157657,1,0,0:0:0:0:
122,130,157857,1,8,0:0:0:0:
122,130,157957,1,0,0:0:0:0:
122,130,158157,1,8,0:0:0:0:
122,130,158257,1,0,0:0:0:0:
122,130,158357,1,0,0:0:0:0:
122,130,158457,1,0,0:0:0:0:
122,130,158557,1,8,0:0:0:0:
122,130,158657,1,0,0:0:0:0:
101,134,158857,1,0,0:0:0:0:
101,134,158957,1,0,0:0:0:0:
101,134,159057,1,8,0:0:0:0:
122,130,159257,1,0,0:0:0:0:
122,130,159457,1,8,0:0:0:0:
129,122,159557,1,0,0:0:0:0:
101,134,159857,1,0,0:0:0:0:
101,134,160057,1,8,0:0:0:0:
121,139,160257,1,4,0:0:0:0:
141,143,160457,1,8,0:0:0:0:
151,145,160557,1,0,0:0:0:0:
161,148,160657,1,0,0:0:0:0:
141,143,160857,1,0,0:0:0:0:
141,143,161057,1,8,0:0:0:0:
141,143,161157,1,0,0:0:0:0:
141,143,161357,1,8,0:0:0:0:
151,145,161457,1,0,0:0:0:0:
151,145,161557,1,0,0:0:0:0:
161,148,161657,1,8,0:0:0:0:
151,145,161757,1,8,0:0:0:0:
151,145,161857,1,0,0:0:0:0:
141,143,162057,1,0,0:0:0:0:
141,143,162157,1,0,0:0:0:0:
141,143,162257,1,8,0:0:0:0:
141,143,162457,1,0,0:0:0:0:
121,135,162657,1,8,0:0:0:0:
141,143,162757,1,0,0:0:0:0:
172,142,163057,1,0,0:0:0:0:
193,142,163257,1,0,0:0:0:0:
141,143,163457,1,0,0:0:0:0:
141,143,163657,1,8,0:0:0:0:
141,143,163757,1,0,0:0:0:0:
141,143,163857,1,8,0:0:0:0:
123,131,164057,1,0,0:0:0:0:
123,131,164257,1,8,0:0:0:0:
123,131,164357,1,0,0:0:0:0:
143,130,164557,1,8,0:0:0:0:
153,129,164657,1,0,0:0:0:0:
163,128,164757,1,0,0:0:0:0:
163,128,164857,1,8,0:0:0:0:
163,128,164957,1,8,0:0:0:0:
163,128,165057,1,0,0:0:0:0:
123,131,165257,1,8,0:0:0:0:
123,131,165357,1,0,0:0:0:0:
123,131,165457,1,0,0:0:0:0:
123,131,165657,1,0,0:0:0:0:
123,131,165857,1,8,0:0:0:0:
133,133,165957,1,0,0:0:0:0:
133,133,166257,1,8,0:0:0:0:
143,131,166357,1,8,0:0:0:0:
143,131,166457,1,8,0:0:0:0:
143,131,166557,1,8,0:0:0:0:
143,131,166657,1,0,0:0:0:0:
180,111,167057,1,0,0:0:0:0:
133,133,167257,1,8,0:0:0:0:
180,111,167457,1,0,0:0:0:0:
200,107,167657,1,12,0:0:0:0:
133,133,167857,1,0,0:0:0:0:
153,135,168057,1,8,0:0:0:0:
153,135,168157,1,8,0:0:0:0:
153,135,168257,1,0,0:0:0:0:
133,133,168457,1,8,0:0:0:0:
146,149,168657,1,0,0:0:0:0:
165,155,168857,1,12,0:0:0:0:
184,161,169057,1,0,0:0:0:0:
177,141,169257,1,8,0:0:0:0:
177,134,169323,1,8,0:0:0:0:
177,126,169390,1,8,0:0:0:0:
177,126,169457,1,0,0:0:0:0:
157,117,169657,1,0,0:0:0:0:
174,105,169857,1,4,0:0:0:0:
135,120,170257,1,8,0:0:0:0:
135,120,170357,1,0,0:0:0:0:
135,120,170457,1,0,0:0:0:0:
135,120,170557,1,0,0:0:0:0:
135,120,170657,1,8,0:0:0:0:
135,120,170757,1,8,0:0:0:0:
135,120,170857,1,0,0:0:0:0:
135,120,170957,1,0,0:0:0:0:
135,120,171057,1,8,0:0:0:0:
135,120,171157,1,0,0:0:0:0:
135,120,171257,1,8,0:0:0:0:
135,120,171357,1,8,0:0:0:0:
135,120,171457,1,0,0:0:0:0:
135,120,171557,1,0,0:0:0:0:
135,120,171657,1,8,0:0:0:0:
135,120,171757,1,0,0:0:0:0:
135,120,171857,1,8,0:0:0:0:
135,120,171957,1,0,0:0:0:0:
135,120,172057,1,8,0:0:0:0:
135,120,172157,1,8,0:0:0:0:
135,120,172257,1,0,0:0:0:0:
135,120,172357,1,0,0:0:0:0:
135,120,172457,1,8,0:0:0:0:
135,120,172557,1,0,0:0:0:0:
135,120,172657,1,8,0:0:0:0:
135,120,172757,1,0,0:0:0:0:
135,120,172857,1,8,0:0:0:0:
135,120,172957,1,8,0:0:0:0:
135,120,173057,1,0,0:0:0:0:
238,209,173157,1,8,0:0:0:0:
238,209,173257,1,0,0:0:0:0:
238,209,173357,1,0,0:0:0:0:
238,209,173457,1,8,0:0:0:0:
238,209,173557,1,8,0:0:0:0:
238,209,173657,1,0,0:0:0:0:
238,209,173757,1,8,0:0:0:0:
238,209,173857,1,0,0:0:0:0:
238,209,173957,1,0,0:0:0:0:
238,209,174057,1,8,0:0:0:0:
238,209,174157,1,0,0:0:0:0:
238,209,174257,1,8,0:0:0:0:
238,209,174357,1,0,0:0:0:0:
246,216,174457,1,0,0:0:0:0:
254,222,174557,1,0,0:0:0:0:
262,229,174657,1,8,0:0:0:0:
270,236,174757,1,0,0:0:0:0:
278,242,174857,1,0,0:0:0:0:
287,248,174957,1,8,0:0:0:0:
295,255,175057,1,0,0:0:0:0:
304,261,175157,1,0,0:0:0:0:
312,268,175257,1,8,0:0:0:0:
320,274,175357,1,0,0:0:0:0:
329,280,175457,1,8,0:0:0:0:
337,287,175557,1,0,0:0:0:0:
345,293,175657,1,8,0:0:0:0:
353,300,175757,1,8,0:0:0:0:
361,307,175857,1,0,0:0:0:0:
369,313,175957,1,0,0:0:0:0:
377,320,176057,1,8,0:0:0:0:
385,327,176157,1,8,0:0:0:0:
382,347,176257,1,4,0:0:0:0:
351,317,176657,1,8,0:0:0:0:
343,309,176757,1,0,0:0:0:0:
335,301,176857,1,8,0:0:0:0:
327,293,176957,1,0,0:0:0:0:
319,285,177057,1,8,0:0:0:0:
311,277,177157,1,0,0:0:0:0:
303,269,177257,1,0,0:0:0:0:
296,261,177357,1,0,0:0:0:0:
289,253,177457,1,8,0:0:0:0:
281,245,177557,1,8,0:0:0:0:
274,237,177657,1,0,0:0:0:0:
266,229,177757,1,0,0:0:0:0:
259,221,177857,1,8,0:0:0:0:
251,213,177957,1,8,0:0:0:0:
244,205,178057,1,8,0:0:0:0:
236,197,178157,1,8,0:0:0:0:
228,189,178257,1,0,0:0:0:0:
221,181,178357,1,0,0:0:0:0:
214,173,178457,1,8,0:0:0:0:
207,165,178557,1,8,0:0:0:0:
200,157,178657,1,0,0:0:0:0:
193,149,178757,1,8,0:0:0:0:
186,141,178857,1,0,0:0:0:0:
179,133,178957,1,0,0:0:0:0:
179,133,179057,1,8,0:0:0:0:
179,133,179157,1,0,0:0:0:0:
179,133,179257,1,8,0:0:0:0:
179,133,179357,1,8,0:0:0:0:
129,110,179457,1,8,0:0:0:0:
138,114,179557,1,0,0:0:0:0:
148,116,179657,1,8,0:0:0:0:
168,119,179857,1,8,0:0:0:0:
178,119,179957,1,0,0:0:0:0:
178,119,180057,1,0,0:0:0:0:
129,110,180157,1,0,0:0:0:0:
137,103,180257,1,8,0:0:0:0:
100,124,180657,1,8,0:0:0:0:
136,128,180857,1,0,0:0:0:0:
136,128,180957,1,0,0:0:0:0:
136,128,181057,1,8,0:0:0:0:
146,129,181157,1,8,0:0:0:0:
156,130,181257,1,0,0:0:0:0:
166,131,181357,1,8,0:0:0:0:
155,132,181457,1,0,0:0:0:0:
144,134,181557,1,0,0:0:0:0:
133,136,181657,1,8,0:0:0:0:
139,127,181757,1,0,0:0:0:0:
147,120,181857,1,8,0:0:0:0:
155,114,181957,1,8,0:0:0:0:
155,114,182057,1,0,0:0:0:0:
155,114,182157,1,8,0:0:0:0:
155,114,182257,1,0,0:0:0:0:
164,110,182357,1,0,0:0:0:0:
173,106,182457,1,8,0:0:0:0:
177,96,182557,1,8,0:0:0:0:
29,136,182657,1,0,0:0:0:0:
139,127,182757,1,0,0:0:0:0:
168,117,183057,1,0,0:0:0:0:
177,113,183157,1,0,0:0:0:0:
146,121,183457,1,8,0:0:0:0:
177,113,183557,1,0,0:0:0:0:
166,116,183657,1,0,0:0:0:0:
124,122,184057,1,8,0:0:0:0:
146,121,184157,1,0,0:0:0:0:
121,140,184457,1,0,0:0:0:0:
121,140,184557,1,8,0:0:0:0:
148,124,184857,1,0,0:0:0:0:
157,120,184957,1,0,0:0:0:0:
166,116,185057,1,8,0:0:0:0:
148,124,185257,1,8,0:0:0:0:
148,124,185357,1,0,0:0:0:0:
148,124,185457,1,0,0:0:0:0:
148,124,185557,1,8,0:0:0:0:
137,125,185657,1,0,0:0:0:0:
137,125,185757,1,0,0:0:0:0:
137,125,185857,1,8,0:0:0:0:
126,125,185957,1,0,0:0:0:0:
148,124,186257,1,0,0:0:0:0:
148,124,186357,1,8,0:0:0:0:
137,125,186657,1,8,0:0:0:0:
137,125,186757,1,0,0:0:0:0:
137,125,186857,1,0,0:0:0:0:
177,112,187257,1,8,0:0:0:0:
177,112,187357,1,0,0:0:0:0:
137,125,187657,1,0,0:0:0:0:
137,125,187757,1,8,0:0:0:0:
137,125,188057,1,0,0:0:0:0:
147,125,188157,1,0,0:0:0:0:
157,125,188257,1,8,0:0:0:0:
136,122,188457,1,8,0:0:0:0:
137,125,188557,1,0,0:0:0:0:
137,125,188657,1,0,0:0:0:0:
137,125,188757,1,8,0:0:0:0:
137,125,188857,1,0,0:0:0:0:
137,125,188957,1,0,0:0:0:0:
137,125,189057,1,8,0:0:0:0:
147,124,189157,1,0,0:0:0:0:
99,144,189457,1,0,0:0:0:0:
99,144,189557,1,0,0:0:0:0:
99,144,189857,1,8,0:0:0:0:
99,144,189957,1,0,0:0:0:0:
99,144,190057,1,0,0:0:0:0:
99,144,190457,1,0,0:0:0:0:
99,144,190557,1,0,0:0:0:0:
127,131,190857,1,0,0:0:0:0:
137,127,190957,1,0,0:0:0:0:
127,131,191257,1,0,0:0:0:0:
127,131,191357,1,0,0:0:0:0:
127,131,191457,1,8,0:0:0:0:
137,127,191657,1,0,0:0:0:0:
147,123,191757,1,0,0:0:0:0:
147,123,191857,1,8,0:0:0:0:
147,123,191957,1,8,0:0:0:0:
147,123,192057,1,0,0:0:0:0:
147,123,192157,1,0,0:0:0:0:
147,123,192257,1,8,0:0:0:0:
153,131,192357,1,8,0:0:0:0:
122,136,192657,1,0,0:0:0:0:
122,136,192757,1,0,0:0:0:0:
122,136,193057,1,8,0:0:0:0:
122,136,193157,1,0,0:0:0:0:
153,131,193257,1,0,0:0:0:0:
111,136,193657,1,8,0:0:0:0:
121,137,193757,1,0,0:0:0:0:
150,149,194057,1,8,0:0:0:0:
150,149,194157,1,0,0:0:0:0:
111,136,194457,1,8,0:0:0:0:
111,136,194557,1,0,0:0:0:0:
111,136,194657,1,8,0:0:0:0:
131,136,194857,1,8,0:0:0:0:
141,136,194957,1,8,0:0:0:0:
151,136,195057,1,0,0:0:0:0:
151,136,195157,1,0,0:0:0:0:
151,136,195257,1,8,0:0:0:0:
151,136,195357,1,8,0:0:0:0:
151,136,195457,1,0,0:0:0:0:
157,128,195557,1,0,0:0:0:0:
182,108,195857,5,0,0:0:0:0:
182,108,195957,1,0,0:0:0:0:
151,136,196257,1,8,0:0:0:0:
151,136,196357,1,0,0:0:0:0:
159,131,196457,1,0,0:0:0:0:
122,133,196857,5,8,0:0:0:0:
122,133,196923,1,0,0:0:0:0:
122,133,196990,1,0,0:0:0:0:
122,133,197057,1,8,0:0:0:0:
122,133,197257,1,0,0:0:0:0:
122,133,197323,1,8,0:0:0:0:
122,133,197390,1,8,0:0:0:0:
122,133,197457,1,0,0:0:0:0:
137,119,197657,1,0,0:0:0:0:
146,115,197757,1,0,0:0:0:0:
156,112,197857,1,8,0:0:0:0:
146,115,198057,1,0,0:0:0:0:
156,117,198157,1,8,0:0:0:0:
156,117,198257,1,0,0:0:0:0:
156,117,198357,1,8,0:0:0:0:
156,117,198457,1,0,0:0:0:0:
156,117,198557,1,8,0:0:0:0:
156,117,198657,1,0,0:0:0:0:
151,126,198757,1,8,0:0:0:0:
146,115,199057,1,0,0:0:0:0:
156,117,199157,1,8,0:0:0:0:
124,119,199457,1,8,0:0:0:0:
151,126,199557,1,0,0:0:0:0:
151,126,199657,1,0,0:0:0:0:
110,114,200057,1,0,0:0:0:0:
124,119,200123,1,8,0:0:0:0:
124,119,200190,1,8,0:0:0:0:
124,119,200257,1,0,0:0:0:0:
144,113,200457,1,0,0:0:0:0:
150,111,200523,1,0,0:0:0:0:
156,109,200590,1,0,0:0:0:0:
162,107,200657,1,8,0:0:0:0:
141,110,200857,5,0,0:0:0:0:
110,114,200957,1,0,0:0:0:0:
110,114,201057,1,8,0:0:0:0:
144,113,201257,1,8,0:0:0:0:
154,110,201357,1,0,0:0:0:0:
164,108,201457,1,0,0:0:0:0:
164,108,201557,1,8,0:0:0:0:
164,108,201657,1,0,0:0:0:0:
173,118,201757,1,0,0:0:0:0:
141,142,201857,5,8,0:0:0:0:
71,117,202334,1,0,0:0:0:0:
81,119,202402,1,8,0:0:0:0:
129,223,203084,1,8,0:0:0:0:
102,177,203357,1,0,0:0:0:0:
110,170,203493,1,8,0:0:0:0:
133,135,203766,1,8,0:0:0:0:
133,135,203902,1,8,0:0:0:0:
133,135,204038,1,0,0:0:0:0:
91,138,204447,1,0,0:0:0:0:
133,135,204516,1,0,0:0:0:0:
133,135,204584,1,8,0:0:0:0:
61,179,205266,1,8,0:0:0:0:
96,126,205538,1,0,0:0:0:0:
116,130,205675,1,8,0:0:0:0:
135,138,205811,1,0,0:0:0:0:
135,138,205947,1,0,0:0:0:0:
135,138,206084,1,0,0:0:0:0:
116,130,206220,1,8,0:0:0:0:
74,138,206493,1,8,0:0:0:0:
116,130,206561,1,8,0:0:0:0:
116,130,206629,1,8,0:0:0:0:
137,131,206766,1,0,0:0:0:0:
135,138,206902,1,8,0:0:0:0:
135,138,206970,1,8,0:0:0:0:
135,138,207038,1,0,0:0:0:0:
137,131,207175,1,0,0:0:0:0:
157,133,207311,1,8,0:0:0:0:
157,133,207447,1,8,0:0:0:0:
157,133,207584,1,8,0:0:0:0:
167,132,207652,1,8,0:0:0:0:
167,132,207720,1,8,0:0:0:0:
169,111,207857,1,8,0:0:0:0:
148,114,207993,1,8,0:0:0:0:
145,103,208061,1,8,0:0:0:0:
154,98,208129,1,0,0:0:0:0:
167,132,208266,1,0,0:0:0:0:
187,134,208402,1,8,0:0:0:0:
146,121,208675,1,8,0:0:0:0:
135,122,208743,1,8,0:0:0:0:
135,122,208811,1,0,0:0:0:0:
135,122,208879,1,8,0:0:0:0:
135,122,208947,1,8,0:0:0:0:
135,122,209016,1,8,0:0:0:0:
135,122,209084,1,0,0:0:0:0:
135,122,209152,1,0,0:0:0:0:
135,122,209220,1,8,0:0:0:0:
135,122,209288,1,8,0:0:0:0:
135,122,209357,1,8,0:0:0:0:
135,122,209425,1,8,0:0:0:0:
233,211,209493,1,0,0:0:0:0:
92,119,210584,1,4,0:0:0:0:
111,126,210720,1,8,0:0:0:0:
111,126,210857,1,0,0:0:0:0:
121,125,210925,1,0,0:0:0:0:
121,125,210993,1,8,0:0:0:0:
112,144,211129,1,0,0:0:0:0:
112,144,211266,1,8,0:0:0:0:
111,126,211402,1,8,0:0:0:0:
131,126,211538,1,0,0:0:0:0:
152,125,211675,1,0,0:0:0:0:
170,134,211811,1,8,0:0:0:0:
190,128,211947,1,0,0:0:0:0:
121,125,212016,1,0,0:0:0:0:
131,126,212084,1,8,0:0:0:0:
151,131,212220,1,0,0:0:0:0:
111,126,212357,1,8,0:0:0:0:
111,126,212493,1,0,0:0:0:0:
120,122,212561,1,8,0:0:0:0:
129,118,212629,1,8,0:0:0:0:
121,125,212766,1,0,0:0:0:0:
151,131,212902,1,8,0:0:0:0:
151,131,213038,1,0,0:0:0:0:
151,131,213175,1,0,0:0:0:0:
128,128,213311,1,8,0:0:0:0:
129,118,213447,1,0,0:0:0:0:
120,122,213584,1,0,0:0:0:0:
128,128,213720,1,8,0:0:0:0:
96,128,213857,1,0,0:0:0:0:
96,128,213925,1,8,0:0:0:0:
96,128,213993,1,0,0:0:0:0:
96,128,214061,1,0,0:0:0:0:
96,128,214129,1,8,0:0:0:0:
128,128,214266,1,0,0:0:0:0:
160,128,214402,1,8,0:0:0:0:
160,128,214470,1,0,0:0:0:0:
160,128,214538,1,8,0:0:0:0:
160,128,214607,1,8,0:0:0:0:
160,128,214675,1,0,0:0:0:0:
166,119,214743,1,0,0:0:0:0:
160,128,214811,1,8,0:0:0:0:
160,96,214947,1,0,0:0:0:0:
160,96,215016,1,0,0:0:0:0:
160,96,215084,1,8,0:0:0:0:
160,96,215220,1,0,0:0:0:0:
149,96,215288,1,0,0:0:0:0:
128,96,215357,1,0,0:0:0:0:
128,128,215493,1,8,0:0:0:0:
160,128,215629,1,0,0:0:0:0:
192,128,215766,1,0,0:0:0:0:
224,128,215902,1,8,0:0:0:0:
192,128,216038,1,0,0:0:0:0:
160,96,216175,1,0,0:0:0:0:
192,96,216311,1,8,0:0:0:0:
192,96,216379,1,0,0:0:0:0:
192,96,216447,1,8,0:0:0:0:
192,96,216516,1,8,0:0:0:0:
192,96,216584,1,0,0:0:0:0:
160,96,216720,1,8,0:0:0:0:
192,96,216857,1,0,0:0:0:0:
192,96,216925,1,0,0:0:0:0:
192,96,216993,1,8,0:0:0:0:
192,96,217061,1,8,0:0:0:0:
192,96,217129,1,0,0:0:0:0:
192,128,217266,1,0,0:0:0:0:
192,128,217402,1,0,0:0:0:0:
192,96,217538,1,0,0:0:0:0:
192,96,217675,1,8,0:0:0:0:
192,96,217811,1,0,0:0:0:0:
160,96,217947,1,8,0:0:0:0:
128,96,218084,1,8,0:0:0:0:
160,96,218220,1,0,0:0:0:0:
128,96,218357,1,0,0:0:0:0:
128,128,218493,1,8,0:0:0:0:
160,128,218629,1,0,0:0:0:0:
192,128,218766,1,8,0:0:0:0:
192,128,218902,1,8,0:0:0:0:
160,128,219038,1,0,0:0:0:0:
192,128,219175,1,0,0:0:0:0:
160,128,219311,1,0,0:0:0:0:
160,128,219379,1,0,0:0:0:0:
160,128,219447,1,8,0:0:0:0:
160,128,219516,1,0,0:0:0:0:
160,128,219584,1,8,0:0:0:0:
160,128,219652,1,8,0:0:0:0:
160,128,219720,1,0,0:0:0:0:
160,128,219788,1,8,0:0:0:0:
160,128,219857,1,0,0:0:0:0:
160,128,219925,1,0,0:0:0:0:
160,128,219993,1,8,0:0:0:0:
160,128,220061,1,0,0:0:0:0:
160,128,220129,1,8,0:0:0:0:
160,128,220197,1,8,0:0:0:0:
160,128,220266,1,0,0:0:0:0:
160,128,220334,1,0,0:0:0:0:
0,160,220402,1,8,0:0:0:0:
96,160,220947,1,8,0:0:0:0:
192,128,221493,1,8,0:0:0:0:
192,128,221561,1,0,0:0:0:0:
192,128,221629,1,8,0:0:0:0:
192,128,221697,1,8,0:0:0:0:
192,128,221766,1,0,0:0:0:0:
192,128,221834,1,0,0:0:0:0:
192,128,221902,1,8,0:0:0:0:
192,128,221970,1,0,0:0:0:0:
192,128,222038,1,8,0:0:0:0:
192,128,222107,1,0,0:0:0:0:
192,128,222175,1,8,0:0:0:0:
192,128,222243,1,8,0:0:0:0:
224,128,222311,1,0,0:0:0:0:
224,128,222379,1,8,0:0:0:0:
224,128,222447,1,0,0:0:0:0:
224,128,222516,1,0,0:0:0:0:
224,128,222584,1,8,0:0:0:0:
192,128,222720,1,0,0:0:0:0:
192,128,222857,1,0,0:0:0:0:
160,128,222993,1,0,0:0:0:0:
192,128,223129,1,8,0:0:0:0:
224,128,223266,1,8,0:0:0:0:
192,128,223402,1,0,0:0:0:0:
171,129,223538,1,8,0:0:0:0:
192,128,223675,1,4,0:0:0:0:
171,131,223811,1,0,0:0:0:0:
150,134,223947,1,8,0:0:0:0:
129,129,224084,1,0,0:0:0:0:
171,129,224220,1,8,0:0:0:0:
171,129,224357,1,8,0:0:0:0:
171,129,224493,1,0,0:0:0:0:
171,131,224629,1,8,0:0:0:0:
171,131,224766,1,8,0:0:0:0:
150,130,224902,1,0,0:0:0:0:
170,127,225038,1,8,0:0:0:0:
149,132,225175,1,8,0:0:0:0:
165,145,225311,1,0,0:0:0:0:
173,151,225379,1,8,0:0:0:0:
181,157,225447,1,0,0:0:0:0:
189,163,225516,1,0,0:0:0:0:
197,169,225584,1,8,0:0:0:0:
205,175,225652,1,8,0:0:0:0:
213,181,225720,1,0,0:0:0:0:
221,187,225788,1,8,0:0:0:0:
232,196,225857,1,0,0:0:0:0:
182,180,226129,1,0,0:0:0:0:
172,176,226266,1,8,0:0:0:0:
173,151,226402,1,0,0:0:0:0:
173,151,226538,1,0,0:0:0:0:
173,151,226675,1,8,0:0:0:0:
134,135,226947,1,0,0:0:0:0:
113,137,227084,1,8,0:0:0:0:
113,137,227220,1,8,0:0:0:0:
134,135,227357,1,0,0:0:0:0:
134,135,227425,1,0,0:0:0:0:
134,135,227493,1,8,0:0:0:0:
134,135,227629,1,8,0:0:0:0:
154,129,227766,1,8,0:0:0:0:
154,129,227902,1,8,0:0:0:0:
154,129,228038,1,0,0:0:0:0:
172,119,228175,1,0,0:0:0:0:
192,113,228311,1,8,0:0:0:0:
212,107,228447,1,0,0:0:0:0:
192,113,228584,1,0,0:0:0:0:
192,113,228720,1,8,0:0:0:0:
192,113,228857,1,0,0:0:0:0:
171,117,228993,1,8,0:0:0:0:
192,113,229129,1,8,0:0:0:0:
192,113,229266,1,0,0:0:0:0:
212,107,229402,1,8,0:0:0:0:
192,113,229538,1,0,0:0:0:0:
173,123,229675,1,8,0:0:0:0:
173,123,229743,1,0,0:0:0:0:
173,123,229811,1,8,0:0:0:0:
173,123,229879,1,8,0:0:0:0:
173,123,229947,1,0,0:0:0:0:
173,123,230084,1,8,0:0:0:0:
152,117,230220,1,0,0:0:0:0:
131,122,230357,1,0,0:0:0:0:
152,117,230493,1,8,0:0:0:0:
131,122,230629,1,0,0:0:0:0:
152,117,230766,1,0,0:0:0:0:
160,110,230834,1,0,0:0:0:0:
169,104,230902,1,8,0:0:0:0:
149,110,231038,1,0,0:0:0:0:
131,122,231175,1,8,0:0:0:0:
152,117,231311,1,8,0:0:0:0:
155,106,231379,1,0,0:0:0:0:
145,136,231447,1,0,0:0:0:0:
130,120,231584,1,8,0:0:0:0:
149,110,231720,1,0,0:0:0:0:
129,116,231857,1,8,0:0:0:0:
131,122,231925,1,8,0:0:0:0:
131,122,231993,1,8,0:0:0:0:
131,122,232061,1,8,0:0:0:0:
131,122,232129,1,0,0:0:0:0:
128,142,232266,1,8,0:0:0:0:
141,158,232402,1,0,0:0:0:0:
126,142,232538,1,0,0:0:0:0:
145,134,232675,1,8,0:0:0:0:
129,116,232811,1,0,0:0:0:0:
149,117,232947,1,0,0:0:0:0:
128,142,233084,1,8,0:0:0:0:
148,139,233220,1,0,0:0:0:0:
158,138,233288,1,0,0:0:0:0:
158,138,233357,1,8,0:0:0:0:
174,125,233493,1,8,0:0:0:0:
194,121,233629,1,0,0:0:0:0:
172,122,233766,1,8,0:0:0:0:
149,117,233834,1,8,0:0:0:0:
149,117,233902,1,0,0:0:0:0:
149,117,233970,1,0,0:0:0:0:
158,138,234038,1,8,0:0:0:0:
136,138,234175,1,8,0:0:0:0:
136,138,234311,1,0,0:0:0:0:
174,125,234447,1,0,0:0:0:0:
158,138,234584,1,8,0:0:0:0:
158,138,234720,1,8,0:0:0:0:
174,125,234857,1,8,0:0:0:0:
184,124,234925,1,8,0:0:0:0:
194,124,234993,1,0,0:0:0:0:
174,127,235129,1,0,0:0:0:0:
167,147,235266,1,8,0:0:0:0:
151,133,235402,1,0,0:0:0:0:
149,122,235470,1,8,0:0:0:0:
149,122,235538,1,8,0:0:0:0:
129,114,235675,1,8,0:0:0:0:
129,114,235811,1,8,0:0:0:0:
129,114,235947,1,0,0:0:0:0:
149,122,236084,1,0,0:0:0:0:
149,122,236220,1,0,0:0:0:0:
149,122,236288,1,0,0:0:0:0:
149,122,236357,1,8,0:0:0:0:
149,122,236425,1,8,0:0:0:0:
152,112,236493,1,0,0:0:0:0:
140,129,236629,1,8,0:0:0:0:
158,138,236766,1,0,0:0:0:0:
129,114,236902,1,8,0:0:0:0:
149,122,237038,1,8,0:0:0:0:
164,108,237175,1,0,0:0:0:0:
149,122,237311,1,8,0:0:0:0:
158,138,237447,1,8,0:0:0:0:
158,138,237584,1,0,0:0:0:0:
158,138,237652,1,0,0:0:0:0:
158,138,237720,1,8,0:0:0:0:
176,127,237857,1,0,0:0:0:0:
155,129,237993,1,8,0:0:0:0:
158,138,238129,1,8,0:0:0:0:
158,138,238266,1,0,0:0:0:0:
161,117,238402,1,8,0:0:0:0:
171,114,238470,1,8,0:0:0:0:
171,114,238538,1,8,0:0:0:0:
171,114,238607,1,8,0:0:0:0:
171,114,238675,1,0,0:0:0:0:
191,114,238811,1,8,0:0:0:0:
170,118,238947,1,0,0:0:0:0:
149,123,239084,1,0,0:0:0:0:
141,103,239220,1,8,0:0:0:0:
151,100,239288,1,8,0:0:0:0:
161,97,239357,1,0,0:0:0:0:
171,114,239493,1,8,0:0:0:0:
171,114,239629,1,8,0:0:0:0:
170,118,239766,1,0,0:0:0:0:
191,114,239834,1,0,0:0:0:0:
191,114,239902,1,0,0:0:0:0:
170,116,240038,1,8,0:0:0:0:
170,118,240175,1,0,0:0:0:0:
171,114,240311,1,8,0:0:0:0:
171,114,240379,1,0,0:0:0:0:
191,114,240447,1,0,0:0:0:0:
191,114,240516,1,0,0:0:0:0:
191,114,240584,1,8,0:0:0:0:
171,120,240720,1,0,0:0:0:0:
151,128,240857,1,8,0:0:0:0:
141,132,240925,1,0,0:0:0:0:
131,136,240993,1,8,0:0:0:0:
131,136,241061,1,8,0:0:0:0:
131,136,241129,1,0,0:0:0:0:
111,143,241266,1,0,0:0:0:0:
141,132,241402,1,8,0:0:0:0:
131,136,241538,1,0,0:0:0:0:
142,153,241675,1,8,0:0:0:0:
149,160,241743,1,8,0:0:0:0:
157,166,241811,1,0,0:0:0:0:
141,132,241947,1,0,0:0:0:0:
161,127,242084,1,8,0:0:0:0:
162,165,242220,1,8,0:0:0:0:
141,132,242357,1,0,0:0:0:0:
146,152,242493,1,8,0:0:0:0:
166,151,242629,1,8,0:0:0:0:
145,148,242766,1,8,0:0:0:0:
157,166,242834,1,8,0:0:0:0:
162,165,242902,1,0,0:0:0:0:
179,152,243038,1,8,0:0:0:0:
141,132,243175,1,0,0:0:0:0:
161,127,243311,1,8,0:0:0:0:
161,127,243379,1,8,0:0:0:0:
161,127,243447,1,0,0:0:0:0:
174,142,243584,1,8,0:0:0:0:
154,134,243720,1,8,0:0:0:0:
141,132,243857,1,0,0:0:0:0:
150,128,243925,1,8,0:0:0:0:
160,125,243993,1,0,0:0:0:0:
170,122,244061,1,0,0:0:0:0:
170,122,244129,1,8,0:0:0:0:
190,126,244266,1,0,0:0:0:0:
210,128,244402,1,8,0:0:0:0:
220,129,244470,1,8,0:0:0:0:
220,129,244538,1,8,0:0:0:0:
220,129,244607,1,8,0:0:0:0:
220,129,244675,1,0,0:0:0:0:
199,130,244811,1,0,0:0:0:0:
150,128,244947,1,8,0:0:0:0:
160,125,245016,1,8,0:0:0:0:
150,128,245084,1,8,0:0:0:0:
150,128,245152,1,8,0:0:0:0:
150,128,245220,1,0,0:0:0:0:
150,128,245288,1,0,0:0:0:0:
150,128,245357,1,8,0:0:0:0:
150,128,245425,1,8,0:0:0:0:
150,128,245493,1,0,0:0:0:0:
165,167,245766,1,0,0:0:0:0:
191,130,245902,1,8,0:0:0:0:
171,136,246038,1,0,0:0:0:0:
232,134,246311,1,12,0:0:0:0:
24,170,247675,1,0,0:0:0:0:
145,156,247947,1,0,0:0:0:0:
86,161,248084,1,8,0:0:0:0:
106,155,248220,1,0,0:0:0:0:
148,161,248493,1,12,0:0:0:0:
117,82,248902,1,0,0:0:0:0:
128,99,249038,1,8,0:0:0:0:
138,116,249175,1,0,0:0:0:0:
138,116,249311,1,12,0:0:0:0:
93,187,249857,1,0,0:0:0:0:
100,179,249925,1,0,0:0:0:0:
107,171,249993,1,0,0:0:0:0:
140,145,250266,1,0,0:0:0:0:
140,145,250334,1,0,0:0:0:0:
140,145,250402,1,8,0:0:0:0:
180,133,250675,1,0,0:0:0:0:
180,133,250811,1,0,0:0:0:0:
140,145,251084,1,8,0:0:0:0:
140,145,251220,1,8,0:0:0:0:
140,145,251357,1,0,0:0:0:0:
140,145,251493,1,12,0:0:0:0:
140,145,251629,1,0,0:0:0:0:
120,137,251766,1,8,0:0:0:0:
161,141,252038,1,0,0:0:0:0:
171,141,252107,1,0,0:0:0:0:
181,141,252175,1,0,0:0:0:0:
167,101,252447,1,0,0:0:0:0:
167,101,252516,1,8,0:0:0:0:
167,101,252584,1,8,0:0:0:0:
200,126,252857,1,0,0:0:0:0:
217,137,252993,1,0,0:0:0:0:
175,141,253266,1,12,0:0:0:0:
175,141,253402,1,0,0:0:0:0:
200,126,253538,1,0,0:0:0:0:
200,126,253675,1,12,0:0:0:0:
179,132,253811,1,0,0:0:0:0:
158,135,253947,1,8,0:0:0:0:
137,140,254084,1,8,0:0:0:0:
157,136,254220,1,0,0:0:0:0:
146,137,254288,1,0,0:0:0:0:
125,141,254357,1,0,0:0:0:0:
179,132,254629,1,0,0:0:0:0:
200,126,254697,1,0,0:0:0:0:
200,126,254766,1,8,0:0:0:0:
137,140,255038,1,0,0:0:0:0:
157,136,255175,1,0,0:0:0:0:
222,217,255857,1,12,0:0:0:0:
173,147,256402,1,0,0:0:0:0:
173,147,256470,1,0,0:0:0:0:
173,147,256538,1,0,0:0:0:0:
173,147,256811,1,0,0:0:0:0:
173,147,256879,1,0,0:0:0:0:
173,147,256947,1,8,0:0:0:0:
134,131,257220,1,0,0:0:0:0:
134,131,257357,1,8,0:0:0:0:
173,147,257629,1,12,0:0:0:0:
191,157,257766,1,0,0:0:0:0:
191,157,257902,1,0,0:0:0:0:
191,157,258038,1,12,0:0:0:0:
169,155,258175,1,0,0:0:0:0:
148,151,258311,1,0,0:0:0:0:
127,148,258447,1,8,0:0:0:0:
148,151,258584,1,4,0:0:0:0:
178,133,260766,1,4,0:0:0:0:
117,132,262675,1,0,0:0:0:0:
158,130,262947,1,4,0:0:0:0:
111,146,265129,1,4,0:0:0:0:
404,163,267038,1,0,0:0:0:0:
382,161,267175,1,8,0:0:0:0:
361,159,267311,1,4,0:0:0:0:
319,155,267857,1,8,0:0:0:0:
235,155,268402,1,8,0:0:0:0:
151,147,268947,1,8,0:0:0:0:
228,178,269493,1,12,0:0:0:0:
151,143,270038,1,8,0:0:0:0:
234,148,270584,1,8,0:0:0:0:
153,170,271129,1,8,0:0:0:0:
164,129,271402,1,0,0:0:0:0:
184,130,271538,1,0,0:0:0:0:
184,130,271675,1,12,0:0:0:0:
110,170,272220,1,8,0:0:0:0:
139,140,272766,1,8,0:0:0:0:
201,142,273038,1,0,0:0:0:0:
139,140,273311,1,12,0:0:0:0:
176,128,273584,1,0,0:0:0:0:
215,113,273857,1,12,0:0:0:0:
73,125,276038,5,8,0:0:0:0:
83,124,276107,1,0,0:0:0:0:
93,123,276175,1,0,0:0:0:0:
73,129,276311,1,0,0:0:0:0:
93,123,276379,1,0,0:0:0:0:
93,123,276447,1,0,0:0:0:0:
116,225,277129,1,8,0:0:0:0:
142,59,278220,1,12,0:0:0:0:
67,137,279038,1,0,0:0:0:0:
88,137,279175,1,0,0:0:0:0:
67,137,279311,1,8,0:0:0:0:
77,136,279379,1,0,0:0:0:0:
87,135,279447,1,0,0:0:0:0:
107,131,279584,1,8,0:0:0:0:
117,131,279652,1,0,0:0:0:0:
127,131,279720,1,0,0:0:0:0:
67,137,280129,1,0,0:0:0:0:
87,135,280266,1,0,0:0:0:0:
107,131,280402,1,8,0:0:0:0:
107,131,280470,1,0,0:0:0:0:
107,131,280538,1,0,0:0:0:0:
117,131,280675,1,8,0:0:0:0:
107,131,280743,1,0,0:0:0:0:
107,131,280811,1,0,0:0:0:0:
86,128,280947,1,8,0:0:0:0:
95,124,281016,1,8,0:0:0:0:
104,120,281084,1,0,0:0:0:0:
123,112,281220,1,8,0:0:0:0:
123,112,281288,1,8,0:0:0:0:
123,112,281357,1,0,0:0:0:0:
126,132,281493,1,8,0:0:0:0:
287,86,282584,1,12,0:0:0:0:
141,170,283675,1,8,0:0:0:0:
88,134,283947,1,8,0:0:0:0:
107,140,284016,1,0,0:0:0:0:
107,140,284084,1,0,0:0:0:0:
107,140,284220,1,8,0:0:0:0:
116,135,284288,1,0,0:0:0:0:
126,132,284357,1,0,0:0:0:0:
146,134,284493,1,0,0:0:0:0:
166,135,284629,1,0,0:0:0:0:
146,134,284766,1,8,0:0:0:0:
166,135,284834,1,0,0:0:0:0:
166,135,284902,1,0,0:0:0:0:
116,135,285038,1,8,0:0:0:0:
126,132,285107,1,8,0:0:0:0:
126,132,285175,1,0,0:0:0:0:
126,237,285857,1,8,0:0:0:0:
134,69,286947,1,12,0:0:0:0:
132,194,287766,1,0,0:0:0:0:
136,173,287902,1,0,0:0:0:0:
140,151,288038,1,8,0:0:0:0:
138,162,288107,1,0,0:0:0:0:
144,153,288175,1,0,0:0:0:0:
124,144,288311,1,8,0:0:0:0:
140,151,288379,1,0,0:0:0:0:
140,151,288447,1,0,0:0:0:0:
123,127,288857,1,0,0:0:0:0:
142,133,288993,1,0,0:0:0:0:
158,146,289129,1,8,0:0:0:0:
167,149,289197,1,0,0:0:0:0:
176,153,289266,1,0,0:0:0:0:
176,153,289402,1,8,0:0:0:0:
176,153,289470,1,0,0:0:0:0:
176,153,289538,1,0,0:0:0:0:
176,153,289675,1,8,0:0:0:0:
176,153,289743,1,8,0:0:0:0:
176,153,289811,1,0,0:0:0:0:
176,153,289947,1,8,0:0:0:0:
176,153,290016,1,8,0:0:0:0:
176,153,290084,1,0,0:0:0:0:
155,151,290220,1,8,0:0:0:0:
23,255,291311,1,12,0:0:0:0:
142,136,292402,1,8,0:0:0:0:
139,52,292675,1,8,0:0:0:0:
143,61,292743,1,8,0:0:0:0:
147,70,292811,1,0,0:0:0:0:
157,88,292947,1,8,0:0:0:0:
167,106,293016,1,8,0:0:0:0:
167,106,293084,1,8,0:0:0:0:
184,117,293220,1,0,0:0:0:0:
203,125,293357,1,0,0:0:0:0:
221,133,293493,1,8,0:0:0:0:
210,133,293561,1,0,0:0:0:0:
199,134,293629,1,0,0:0:0:0:
178,136,293766,1,8,0:0:0:0:
167,137,293834,1,0,0:0:0:0:
156,138,293902,1,0,0:0:0:0:
71,191,294584,1,8,0:0:0:0:
207,108,295675,1,12,0:0:0:0:
94,147,296493,1,0,0:0:0:0:
113,142,296629,1,0,0:0:0:0:
128,155,296766,1,8,0:0:0:0:
135,161,296834,1,0,0:0:0:0:
142,167,296902,1,0,0:0:0:0:
157,179,297038,1,0,0:0:0:0:
164,185,297107,1,0,0:0:0:0:
171,191,297175,1,0,0:0:0:0:
166,131,297584,1,0,0:0:0:0:
183,120,297720,1,0,0:0:0:0:
183,120,297857,1,8,0:0:0:0:
183,120,297925,1,0,0:0:0:0:
183,120,297993,1,0,0:0:0:0:
183,120,298129,1,8,0:0:0:0:
183,120,298197,1,8,0:0:0:0:
183,120,298266,1,0,0:0:0:0:
183,120,298402,1,8,0:0:0:0:
183,120,298470,1,8,0:0:0:0:
183,120,298538,1,8,0:0:0:0:
183,120,298675,1,8,0:0:0:0:
183,120,298743,1,8,0:0:0:0:
183,120,298811,1,0,0:0:0:0:
164,126,298947,1,8,0:0:0:0:
38,223,300038,1,12,0:0:0:0:
182,156,301129,1,8,0:0:0:0:
113,115,301402,1,0,0:0:0:0:
122,117,301470,1,0,0:0:0:0:
131,120,301538,1,0,0:0:0:0:
149,126,301675,1,0,0:0:0:0:
149,126,301743,1,0,0:0:0:0:
149,126,301811,1,0,0:0:0:0:
168,121,301947,1,8,0:0:0:0:
149,126,302084,1,8,0:0:0:0:
149,126,302220,1,0,0:0:0:0:
