osu file format v14

[General]
AudioFilename: audio.mp3
AudioLeadIn: 0
PreviewTime: 49028
Countdown: 0
SampleSet: Normal
StackLeniency: 0.7
Mode: 1
LetterboxInBreaks: 0
WidescreenStoryboard: 1

[Editor]
Bookmarks: 4914,9714,19314,28914,33714,38514,48114,67314,76914,86514,96114,108114,117714,127314,136914,165714
DistanceSpacing: 0.9
BeatDivisor: 4
GridSize: 32
TimelineZoom: 2.3

[Metadata]
Title:METEORITE
TitleUnicode:METEORITE
Artist:Breakchild & II-L
ArtistUnicode:Breakchild & II-L
Creator:WTHBRO
Version:ONI
Source:
Tags:electronic instrumental psy footcore breakcore footwork breakchild re:birth rebirth ai futuristic lovestory good luck 胡桃 chan
BeatmapID:3109256
BeatmapSetID:1487513

[Difficulty]
HPDrainRate:5.5
CircleSize:3
OverallDifficulty:6
ApproachRate:6
SliderMultiplier:1.4
SliderTickRate:1

[Events]
//Background and Video events
0,0,"space-4401094_1920.jpg",0,0
//Break Periods
//Storyboard Layer 0 (Background)
//Storyboard Layer 1 (Fail)
//Storyboard Layer 2 (Pass)
//Storyboard Layer 3 (Foreground)
//Storyboard Layer 4 (Overlay)
//Storyboard Sound Samples

[TimingPoints]
1028,300,4,1,0,50,1,0
1028,-142.857142857143,4,1,0,50,0,0
5828,-142.857142857143,4,1,0,60,0,0
9953,-140.845070422535,4,1,0,50,0,0
10028,-138.888888888889,4,1,0,50,0,0
10103,-136.986301369863,4,1,0,50,0,0
10178,-135.135135135135,4,1,0,50,0,0
10253,-133.333333333333,4,1,0,50,0,0
10328,-131.578947368421,4,1,0,50,0,0
10403,-129.87012987013,4,1,0,50,0,0
10478,-128.205128205128,4,1,0,50,0,0
10553,-126.582278481013,4,1,0,50,0,0
10628,-125,4,1,0,70,0,0
19628,-125,4,1,0,70,0,0
19778,-121.256214380987,4,1,0,70,0,0
19853,-119.460040616414,4,1,0,70,0,0
20003,-116.02274045713,4,1,0,70,0,0
20153,-112.790435371081,4,1,0,70,0,0
20528,-111.111111111111,4,1,0,70,0,0
46628,-111.111111111111,4,1,0,70,0,0
46778,-110.302228105008,4,1,0,70,0,0
46853,-109.89010989011,4,1,0,70,0,0
46928,-109.493047191503,4,1,0,70,0,0
47003,-109.098843552258,4,1,0,70,0,0
47078,-108.707468203066,4,1,0,70,0,0
47228,-107.921433196633,4,1,0,70,0,0
47378,-107.158165452207,4,1,0,70,0,0
47453,-106.769165065129,4,1,0,70,0,0
47603,-106.022052586938,4,1,0,70,0,0
47753,-105.27423939362,4,1,0,70,0,0
47828,-104.909777591272,4,1,0,70,0,0
47903,-104.547830632514,4,1,0,70,0,0
47978,-103.820598006645,4,1,0,70,0,0
48128,-103.466114847387,4,1,0,70,0,0
48278,-102.764361319494,4,1,0,70,0,0
48428,-102.061645233721,4,1,0,70,0,0
48503,-101.719051978436,4,1,0,70,0,0
48578,-101.378751013788,4,1,0,70,0,0
48653,-101.030511214387,4,1,0,70,0,0
48803,-100.361300682457,4,1,0,70,0,0
48878,-100.030009002701,4,1,0,70,0,0
49028,-100,4,1,0,90,0,1
68228,-100,4,1,0,70,0,0
68378,-111.111111111111,4,1,0,70,0,0
77828,-105.263157894737,4,1,0,90,0,0
87428,-95.2380952380953,4,1,0,90,0,1
106553,-95.2380952380952,4,1,0,60,0,0
106628,-125,4,1,0,60,0,0
109028,-100,4,1,0,90,0,1
113828,-95.2380952380953,4,1,0,90,0,1
118628,-100,4,1,0,90,0,0
128228,-100,4,1,0,90,0,1
133028,-95.2380952380953,4,1,0,90,0,1
137828,-100,4,1,0,90,0,0
147428,-111.111111111111,4,1,0,70,0,0

[HitObjects]
245,165,1028,5,0,0:0:0:0:
236,160,1253,1,0,0:0:0:0:
236,160,1403,1,0,0:0:0:0:
237,175,1628,1,0,0:0:0:0:
237,175,1778,1,0,0:0:0:0:
237,175,2003,1,0,0:0:0:0:
234,170,2228,1,0,0:0:0:0:
234,170,2378,1,0,0:0:0:0:
234,170,2603,1,0,0:0:0:0:
229,175,2828,1,0,0:0:0:0:
230,185,2978,1,0,0:0:0:0:
218,178,3428,1,0,0:0:0:0:
219,189,3653,1,0,0:0:0:0:
219,189,3803,1,0,0:0:0:0:
219,189,4028,1,0,0:0:0:0:
219,189,4178,1,0,0:0:0:0:
224,189,4403,1,0,0:0:0:0:
224,189,4628,1,0,0:0:0:0:
224,189,4778,1,0,0:0:0:0:
220,181,5003,1,0,0:0:0:0:
220,181,5228,1,0,0:0:0:0:
220,181,5378,1,0,0:0:0:0:
220,181,5828,1,0,0:0:0:0:
231,196,6053,1,0,0:0:0:0:
245,165,6128,1,8,0:0:0:0:
231,196,6203,1,0,0:0:0:0:
237,175,6428,1,0,0:0:0:0:
237,175,6578,1,0,0:0:0:0:
237,175,6803,1,0,0:0:0:0:
234,170,7028,1,0,0:0:0:0:
241,163,7178,1,0,0:0:0:0:
231,198,7328,1,8,0:0:0:0:
224,179,7403,1,0,0:0:0:0:
231,174,7628,1,0,0:0:0:0:
229,175,7778,1,0,0:0:0:0:
218,178,8003,1,0,0:0:0:0:
218,178,8228,1,0,0:0:0:0:
219,189,8453,1,0,0:0:0:0:
231,198,8528,1,8,0:0:0:0:
219,189,8603,1,0,0:0:0:0:
219,189,8828,1,0,0:0:0:0:
219,189,8978,1,0,0:0:0:0:
224,189,9203,1,0,0:0:0:0:
224,189,9428,1,0,0:0:0:0:
224,189,9578,1,0,0:0:0:0:
231,198,9728,1,8,0:0:0:0:
219,182,10028,1,8,0:0:0:0:
219,182,10178,1,8,0:0:0:0:
207,180,10403,1,8,0:0:0:0:
238,176,10553,1,8,0:0:0:0:
207,180,10628,1,0,0:0:0:0:
207,180,10853,1,8,0:0:0:0:
207,180,11003,1,0,0:0:0:0:
207,180,11228,1,8,0:0:0:0:
207,180,11378,1,0,0:0:0:0:
203,175,11603,1,0,0:0:0:0:
207,180,11828,1,8,0:0:0:0:
207,180,11978,1,0,0:0:0:0:
207,180,12203,1,0,0:0:0:0:
207,180,12428,1,0,0:0:0:0:
208,175,12578,1,8,0:0:0:0:
208,175,12803,1,8,0:0:0:0:
208,175,13028,1,8,0:0:0:0:
208,175,13253,1,0,0:0:0:0:
208,175,13403,1,0,0:0:0:0:
213,171,13628,1,8,0:0:0:0:
213,171,13778,1,0,0:0:0:0:
213,171,14003,1,0,0:0:0:0:
215,167,14228,1,8,0:0:0:0:
215,167,14378,1,8,0:0:0:0:
213,171,14603,1,0,0:0:0:0:
208,146,14828,1,8,0:0:0:0:
208,146,14978,1,8,0:0:0:0:
208,146,15053,1,8,0:0:0:0:
208,146,15428,1,0,0:0:0:0:
219,160,15653,1,8,0:0:0:0:
219,160,15803,1,0,0:0:0:0:
219,160,16028,1,8,0:0:0:0:
219,160,16178,1,0,0:0:0:0:
223,141,16403,1,0,0:0:0:0:
219,160,16628,1,8,0:0:0:0:
219,160,16778,1,0,0:0:0:0:
219,160,17003,1,0,0:0:0:0:
219,160,17228,1,0,0:0:0:0:
219,160,17378,1,8,0:0:0:0:
219,160,17603,1,8,0:0:0:0:
219,160,17828,1,8,0:0:0:0:
227,148,18053,1,0,0:0:0:0:
213,146,18203,1,0,0:0:0:0:
213,146,18428,1,8,0:0:0:0:
213,146,18578,1,0,0:0:0:0:
213,146,18803,1,0,0:0:0:0:
213,146,19028,1,8,0:0:0:0:
213,146,19178,1,8,0:0:0:0:
213,146,19403,1,0,0:0:0:0:
213,146,19628,1,8,0:0:0:0:
213,146,19778,1,8,0:0:0:0:
229,152,19853,1,8,0:0:0:0:
213,146,20003,1,8,0:0:0:0:
213,146,20228,1,4,0:0:0:0:
211,151,20528,1,8,0:0:0:0:
207,151,20678,1,0,0:0:0:0:
205,150,20828,1,0,0:0:0:0:
205,150,20903,1,0,0:0:0:0:
205,150,20978,1,8,0:0:0:0:
203,149,21128,1,0,0:0:0:0:
213,138,21428,1,0,0:0:0:0:
203,141,21578,1,0,0:0:0:0:
203,141,21728,1,8,0:0:0:0:
203,141,21803,1,8,0:0:0:0:
203,141,21878,1,0,0:0:0:0:
203,141,22028,1,0,0:0:0:0:
203,141,22178,1,8,0:0:0:0:
203,141,22328,1,8,0:0:0:0:
203,141,22403,1,8,0:0:0:0:
203,141,22478,1,8,0:0:0:0:
203,141,22628,1,0,0:0:0:0:
203,141,22928,1,8,0:0:0:0:
209,142,23078,1,0,0:0:0:0:
203,141,23228,1,0,0:0:0:0:
220,154,23303,1,0,0:0:0:0:
206,135,23378,1,8,0:0:0:0:
206,135,23528,1,0,0:0:0:0:
214,123,23828,1,0,0:0:0:0:
213,123,23978,1,8,0:0:0:0:
204,150,24128,1,0,0:0:0:0:
204,150,24203,1,8,0:0:0:0:
204,150,24278,1,0,0:0:0:0:
213,141,24428,1,8,0:0:0:0:
213,144,24578,1,8,0:0:0:0:
208,146,24728,1,0,0:0:0:0:
208,146,24803,1,0,0:0:0:0:
208,146,24878,1,0,0:0:0:0:
208,146,25028,1,8,0:0:0:0:
208,146,25328,1,8,0:0:0:0:
213,146,25478,1,0,0:0:0:0:
209,153,25628,1,8,0:0:0:0:
208,146,25703,1,8,0:0:0:0:
208,152,25778,1,0,0:0:0:0:
208,152,25928,1,8,0:0:0:0:
211,149,26228,1,8,0:0:0:0:
230,158,26378,1,0,0:0:0:0:
213,146,26528,1,8,0:0:0:0:
209,153,26603,1,8,0:0:0:0:
208,152,26678,1,0,0:0:0:0:
207,157,26828,1,8,0:0:0:0:
207,157,26978,1,8,0:0:0:0:
214,166,27128,1,0,0:0:0:0:
214,166,27203,1,0,0:0:0:0:
207,157,27278,1,0,0:0:0:0:
214,166,27353,1,0,0:0:0:0:
214,166,27428,1,8,0:0:0:0:
212,162,27653,1,8,0:0:0:0:
212,162,27803,1,8,0:0:0:0:
217,160,27878,1,0,0:0:0:0:
216,149,28028,1,8,0:0:0:0:
216,149,28178,1,8,0:0:0:0:
216,149,28403,1,8,0:0:0:0:
216,149,28628,1,0,0:0:0:0:
216,149,28778,1,0,0:0:0:0:
216,149,28928,1,8,0:0:0:0:
216,149,29003,1,0,0:0:0:0:
216,149,29228,1,0,0:0:0:0:
216,149,29378,1,0,0:0:0:0:
216,149,29528,1,8,0:0:0:0:
212,160,29603,1,0,0:0:0:0:
218,159,29828,1,12,0:0:0:0:
216,149,30128,1,8,0:0:0:0:
216,149,30203,1,8,0:0:0:0:
207,134,30278,1,0,0:0:0:0:
214,143,30428,1,8,0:0:0:0:
214,143,30578,1,8,0:0:0:0:
214,143,30728,1,0,0:0:0:0:
214,143,30803,1,8,0:0:0:0:
213,143,31028,1,0,0:0:0:0:
212,142,31178,1,8,0:0:0:0:
225,135,31328,1,0,0:0:0:0:
225,135,31403,1,8,0:0:0:0:
228,141,31628,1,8,0:0:0:0:
222,130,31778,1,8,0:0:0:0:
195,123,31928,1,0,0:0:0:0:
222,130,32003,1,8,0:0:0:0:
230,115,32078,1,0,0:0:0:0:
218,159,32228,1,0,0:0:0:0:
216,149,32528,1,8,0:0:0:0:
216,149,32603,1,8,0:0:0:0:
207,134,32678,1,0,0:0:0:0:
214,143,32828,1,8,0:0:0:0:
214,143,32978,1,8,0:0:0:0:
214,143,33128,1,0,0:0:0:0:
214,143,33203,1,8,0:0:0:0:
213,143,33428,1,0,0:0:0:0:
212,142,33578,1,8,0:0:0:0:
225,135,33728,1,0,0:0:0:0:
225,135,33803,1,8,0:0:0:0:
228,141,34028,1,8,0:0:0:0:
222,130,34178,1,8,0:0:0:0:
195,123,34328,1,0,0:0:0:0:
235,134,34403,1,0,0:0:0:0:
235,134,34478,1,0,0:0:0:0:
218,159,34628,1,8,0:0:0:0:
216,149,34928,1,8,0:0:0:0:
216,149,35003,1,0,0:0:0:0:
207,134,35078,1,0,0:0:0:0:
214,143,35228,1,8,0:0:0:0:
214,143,35378,1,8,0:0:0:0:
214,143,35528,1,0,0:0:0:0:
214,143,35603,1,8,0:0:0:0:
213,143,35828,1,0,0:0:0:0:
212,142,35978,1,8,0:0:0:0:
225,135,36128,1,0,0:0:0:0:
225,135,36203,1,8,0:0:0:0:
228,141,36428,1,8,0:0:0:0:
222,130,36578,1,8,0:0:0:0:
195,123,36728,1,0,0:0:0:0:
222,130,36803,1,0,0:0:0:0:
230,115,36878,1,0,0:0:0:0:
217,119,36953,1,0,0:0:0:0:
217,119,37028,1,8,0:0:0:0:
221,114,37253,1,0,0:0:0:0:
195,127,37403,1,0,0:0:0:0:
211,129,37628,1,8,0:0:0:0:
211,129,37778,1,8,0:0:0:0:
208,114,38003,1,8,0:0:0:0:
212,129,38228,1,0,0:0:0:0:
212,129,38378,1,0,0:0:0:0:
211,129,38603,1,0,0:0:0:0:
211,129,38828,1,8,0:0:0:0:
212,129,38978,1,0,0:0:0:0:
212,129,39053,1,8,0:0:0:0:
217,132,39203,1,0,0:0:0:0:
217,132,39278,1,8,0:0:0:0:
224,146,39428,1,4,0:0:0:0:
219,157,39653,1,0,0:0:0:0:
213,139,39728,1,8,0:0:0:0:
224,147,39803,1,0,0:0:0:0:
224,147,40028,1,8,0:0:0:0:
224,147,40178,1,8,0:0:0:0:
224,146,40403,1,8,0:0:0:0:
202,144,40553,1,0,0:0:0:0:
224,147,40703,1,8,0:0:0:0:
230,141,40928,1,0,0:0:0:0:
222,130,41078,1,0,0:0:0:0:
222,130,41228,1,8,0:0:0:0:
208,117,41378,1,0,0:0:0:0:
208,117,41453,1,8,0:0:0:0:
222,131,41603,1,8,0:0:0:0:
208,136,41678,1,8,0:0:0:0:
220,119,41828,1,0,0:0:0:0:
232,110,42053,1,0,0:0:0:0:
232,110,42128,1,8,0:0:0:0:
232,110,42203,1,0,0:0:0:0:
232,110,42428,1,8,0:0:0:0:
232,110,42578,1,0,0:0:0:0:
232,110,42803,1,8,0:0:0:0:
232,110,42953,1,8,0:0:0:0:
232,110,43103,1,8,0:0:0:0:
232,110,43328,1,0,0:0:0:0:
226,114,43478,1,0,0:0:0:0:
231,95,43628,1,8,0:0:0:0:
227,99,43778,1,0,0:0:0:0:
227,99,43853,1,8,0:0:0:0:
224,102,44228,1,0,0:0:0:0:
225,101,44378,1,0,0:0:0:0:
225,101,44453,1,0,0:0:0:0:
225,101,44528,1,8,0:0:0:0:
228,110,44678,1,0,0:0:0:0:
227,104,44828,1,8,0:0:0:0:
232,110,44978,1,0,0:0:0:0:
225,110,45203,1,8,0:0:0:0:
222,95,45353,1,0,0:0:0:0:
225,110,45503,1,8,0:0:0:0:
233,106,45728,1,8,0:0:0:0:
233,105,45878,1,0,0:0:0:0:
221,105,46028,1,8,0:0:0:0:
220,87,46178,1,0,0:0:0:0:
220,87,46253,1,0,0:0:0:0:
222,95,46478,1,8,0:0:0:0:
222,95,46628,1,0,0:0:0:0:
222,98,46778,1,8,0:0:0:0:
225,90,46853,1,0,0:0:0:0:
225,90,46928,1,8,0:0:0:0:
228,92,47078,1,0,0:0:0:0:
231,93,47228,1,8,0:0:0:0:
231,93,47378,1,0,0:0:0:0:
222,95,47603,1,8,0:0:0:0:
222,98,47753,1,8,0:0:0:0:
223,97,47903,1,8,0:0:0:0:
231,105,48128,1,8,0:0:0:0:
221,118,48278,1,0,0:0:0:0:
221,118,48428,1,8,0:0:0:0:
221,118,48503,1,8,0:0:0:0:
221,118,48578,1,0,0:0:0:0:
221,118,48653,1,8,0:0:0:0:
225,125,48803,1,0,0:0:0:0:
225,125,48878,1,8,0:0:0:0:
242,178,49028,1,4,0:0:0:0:
248,180,49328,1,8,0:0:0:0:
256,170,49478,1,0,0:0:0:0:
253,169,49628,1,8,0:0:0:0:
252,169,49778,1,0,0:0:0:0:
252,169,49853,1,8,0:0:0:0:
252,168,50003,1,8,0:0:0:0:
252,168,50078,1,0,0:0:0:0:
250,158,50228,1,8,0:0:0:0:
250,158,50378,1,0,0:0:0:0:
250,158,50528,1,8,0:0:0:0:
261,142,50603,1,8,0:0:0:0:
263,149,50678,1,0,0:0:0:0:
256,158,50828,1,8,0:0:0:0:
256,158,50978,1,0,0:0:0:0:
255,157,51128,1,8,0:0:0:0:
255,164,51278,1,8,0:0:0:0:
255,157,51428,1,0,0:0:0:0:
255,157,51503,1,0,0:0:0:0:
255,157,51578,1,0,0:0:0:0:
255,157,51653,1,0,0:0:0:0:
255,152,51728,1,8,0:0:0:0:
255,152,52028,1,8,0:0:0:0:
259,167,52103,1,0,0:0:0:0:
259,167,52178,1,0,0:0:0:0:
259,166,52253,1,0,0:0:0:0:
255,157,52328,1,8,0:0:0:0:
259,165,52478,1,8,0:0:0:0:
256,184,52628,1,0,0:0:0:0:
256,184,52778,1,8,0:0:0:0:
247,175,52853,1,0,0:0:0:0:
255,191,52928,1,0,0:0:0:0:
256,184,53078,1,0,0:0:0:0:
256,184,53228,1,8,0:0:0:0:
256,184,53378,1,0,0:0:0:0:
256,184,53453,1,8,0:0:0:0:
256,184,53528,1,0,0:0:0:0:
242,195,53678,1,8,0:0:0:0:
234,164,53828,1,0,0:0:0:0:
244,178,53978,1,0,0:0:0:0:
257,208,54128,1,8,0:0:0:0:
247,190,54278,1,0,0:0:0:0:
247,190,54428,1,8,0:0:0:0:
247,190,54578,1,0,0:0:0:0:
247,190,54653,1,0,0:0:0:0:
247,190,54728,1,8,0:0:0:0:
242,193,55028,1,0,0:0:0:0:
234,180,55178,1,0,0:0:0:0:
238,181,55403,1,0,0:0:0:0:
248,176,55628,1,8,0:0:0:0:
248,176,55778,1,0,0:0:0:0:
248,176,55853,1,8,0:0:0:0:
248,176,55928,1,0,0:0:0:0:
243,183,56078,1,0,0:0:0:0:
242,193,56228,1,8,0:0:0:0:
242,187,56378,1,0,0:0:0:0:
243,196,56528,1,8,0:0:0:0:
242,187,56678,1,0,0:0:0:0:
242,187,56828,1,8,0:0:0:0:
240,179,56978,1,8,0:0:0:0:
239,174,57128,1,8,0:0:0:0:
242,193,57428,1,0,0:0:0:0:
231,177,57653,1,0,0:0:0:0:
226,188,57728,1,8,0:0:0:0:
240,169,57878,1,0,0:0:0:0:
261,184,58028,1,8,0:0:0:0:
232,175,58103,1,8,0:0:0:0:
232,175,58178,1,8,0:0:0:0:
232,175,58328,1,0,0:0:0:0:
242,193,58478,1,8,0:0:0:0:
248,166,58628,1,4,0:0:0:0:
242,183,58853,1,0,0:0:0:0:
232,163,59078,1,12,0:0:0:0:
232,163,59303,1,12,0:0:0:0:
232,163,59528,1,12,0:0:0:0:
250,164,59828,1,0,0:0:0:0:
249,163,60053,1,0,0:0:0:0:
251,164,60278,1,0,0:0:0:0:
249,163,60428,1,8,0:0:0:0:
248,166,60578,1,0,0:0:0:0:
248,166,60653,1,8,0:0:0:0:
250,164,60728,1,0,0:0:0:0:
250,164,60878,1,8,0:0:0:0:
234,164,61028,1,0,0:0:0:0:
234,183,61178,1,0,0:0:0:0:
222,187,61328,1,8,0:0:0:0:
247,190,61478,1,0,0:0:0:0:
247,190,61628,1,8,0:0:0:0:
248,183,61778,1,8,0:0:0:0:
234,188,61853,1,0,0:0:0:0:
247,190,61928,1,8,0:0:0:0:
242,193,62228,1,0,0:0:0:0:
233,171,62453,1,0,0:0:0:0:
240,176,62678,1,0,0:0:0:0:
248,176,62828,1,8,0:0:0:0:
248,176,62978,1,0,0:0:0:0:
248,176,63053,1,8,0:0:0:0:
248,176,63128,1,0,0:0:0:0:
242,194,63278,1,8,0:0:0:0:
234,164,63428,1,0,0:0:0:0:
233,182,63578,1,8,0:0:0:0:
237,182,63728,1,8,0:0:0:0:
247,190,63878,1,0,0:0:0:0:
247,190,64028,1,8,0:0:0:0:
247,190,64178,1,0,0:0:0:0:
247,190,64253,1,0,0:0:0:0:
247,190,64328,1,8,0:0:0:0:
242,193,64628,1,0,0:0:0:0:
253,174,64853,1,0,0:0:0:0:
248,176,65078,1,0,0:0:0:0:
248,176,65228,1,8,0:0:0:0:
248,176,65378,1,0,0:0:0:0:
248,176,65453,1,8,0:0:0:0:
248,176,65528,1,0,0:0:0:0:
240,146,65678,1,0,0:0:0:0:
240,146,65828,1,8,0:0:0:0:
242,187,65978,1,0,0:0:0:0:
245,185,66128,1,8,0:0:0:0:
242,187,66278,1,0,0:0:0:0:
242,187,66428,1,8,0:0:0:0:
271,190,66578,1,8,0:0:0:0:
239,174,66728,1,8,0:0:0:0:
242,193,67028,1,0,0:0:0:0:
238,157,67253,1,0,0:0:0:0:
242,187,67328,1,8,0:0:0:0:
240,169,67478,1,0,0:0:0:0:
261,184,67628,1,8,0:0:0:0:
232,175,67703,1,8,0:0:0:0:
232,175,67778,1,0,0:0:0:0:
232,175,67853,1,8,0:0:0:0:
232,175,67928,1,0,0:0:0:0:
238,157,68078,1,8,0:0:0:0:
238,157,68228,1,4,0:0:0:0:
218,173,68528,1,8,0:0:0:0:
222,153,68678,1,0,0:0:0:0:
219,160,68828,1,8,0:0:0:0:
219,160,69128,1,8,0:0:0:0:
218,143,69278,1,8,0:0:0:0:
218,143,69428,1,0,0:0:0:0:
207,159,69578,1,0,0:0:0:0:
213,144,69728,1,8,0:0:0:0:
213,144,69878,1,0,0:0:0:0:
202,128,70028,1,8,0:0:0:0:
202,128,70178,1,0,0:0:0:0:
202,128,70253,1,8,0:0:0:0:
197,136,70328,1,0,0:0:0:0:
199,136,70478,1,8,0:0:0:0:
196,145,70628,1,0,0:0:0:0:
182,127,70928,1,8,0:0:0:0:
187,118,71078,1,0,0:0:0:0:
187,118,71228,1,8,0:0:0:0:
193,104,71528,1,8,0:0:0:0:
193,104,71678,1,8,0:0:0:0:
200,120,71828,1,0,0:0:0:0:
188,111,71978,1,8,0:0:0:0:
188,111,72128,1,0,0:0:0:0:
188,111,72278,1,0,0:0:0:0:
188,111,72428,1,8,0:0:0:0:
193,104,72578,1,0,0:0:0:0:
193,104,72653,1,8,0:0:0:0:
194,101,72728,1,0,0:0:0:0:
194,101,72878,1,0,0:0:0:0:
238,157,73028,1,8,0:0:0:0:
225,161,73178,1,0,0:0:0:0:
222,153,73328,1,0,0:0:0:0:
227,165,73478,1,0,0:0:0:0:
227,165,73628,1,8,0:0:0:0:
227,165,73778,1,8,0:0:0:0:
227,165,73928,1,0,0:0:0:0:
227,165,74078,1,0,0:0:0:0:
225,174,74228,1,8,0:0:0:0:
225,174,74378,1,0,0:0:0:0:
225,174,74528,1,0,0:0:0:0:
225,174,74678,1,0,0:0:0:0:
202,128,74828,1,8,0:0:0:0:
202,128,74978,1,0,0:0:0:0:
202,128,75053,1,8,0:0:0:0:
197,136,75128,1,0,0:0:0:0:
199,136,75278,1,0,0:0:0:0:
196,145,75428,1,8,0:0:0:0:
196,145,75578,1,0,0:0:0:0:
182,127,75728,1,8,0:0:0:0:
187,118,75878,1,0,0:0:0:0:
187,118,76028,1,8,0:0:0:0:
187,118,76178,1,8,0:0:0:0:
231,125,76328,1,8,0:0:0:0:
200,120,76628,1,0,0:0:0:0:
188,111,76778,1,0,0:0:0:0:
188,111,76928,1,8,0:0:0:0:
188,111,77078,1,0,0:0:0:0:
188,111,77228,1,8,0:0:0:0:
224,105,77303,1,8,0:0:0:0:
193,104,77378,1,0,0:0:0:0:
193,104,77453,1,8,0:0:0:0:
194,101,77528,1,0,0:0:0:0:
238,157,77678,1,8,0:0:0:0:
238,157,77828,1,4,0:0:0:0:
221,165,77978,1,0,0:0:0:0:
218,173,78053,1,0,0:0:0:0:
218,173,78128,1,8,0:0:0:0:
222,153,78278,1,0,0:0:0:0:
219,160,78428,1,8,0:0:0:0:
219,160,78578,1,8,0:0:0:0:
219,160,78653,1,0,0:0:0:0:
219,160,78728,1,8,0:0:0:0:
218,143,79028,1,0,0:0:0:0:
207,159,79178,1,0,0:0:0:0:
213,144,79328,1,8,0:0:0:0:
213,144,79478,1,0,0:0:0:0:
202,128,79628,1,8,0:0:0:0:
206,135,79703,1,0,0:0:0:0:
202,128,79778,1,0,0:0:0:0:
202,128,79853,1,8,0:0:0:0:
197,136,79928,1,0,0:0:0:0:
199,136,80078,1,8,0:0:0:0:
196,145,80228,1,0,0:0:0:0:
196,145,80378,1,0,0:0:0:0:
182,127,80453,1,0,0:0:0:0:
182,127,80528,1,8,0:0:0:0:
187,118,80678,1,0,0:0:0:0:
187,118,80828,1,8,0:0:0:0:
187,118,80978,1,8,0:0:0:0:
197,114,81053,1,0,0:0:0:0:
193,104,81128,1,8,0:0:0:0:
200,120,81428,1,0,0:0:0:0:
191,106,81578,1,0,0:0:0:0:
188,111,81728,1,8,0:0:0:0:
188,111,81878,1,0,0:0:0:0:
188,111,82028,1,8,0:0:0:0:
210,145,82178,1,0,0:0:0:0:
210,145,82253,1,8,0:0:0:0:
194,101,82328,1,0,0:0:0:0:
194,101,82478,1,0,0:0:0:0:
238,157,82628,1,0,0:0:0:0:
192,108,82703,1,0,0:0:0:0:
218,173,82778,1,0,0:0:0:0:
218,173,82928,1,8,0:0:0:0:
222,153,83078,1,0,0:0:0:0:
219,160,83228,1,8,0:0:0:0:
219,160,83303,1,8,0:0:0:0:
219,160,83378,1,0,0:0:0:0:
219,160,83453,1,0,0:0:0:0:
219,160,83528,1,8,0:0:0:0:
217,124,83678,1,0,0:0:0:0:
218,143,83828,1,8,0:0:0:0:
207,159,83978,1,0,0:0:0:0:
213,144,84128,1,8,0:0:0:0:
213,144,84203,1,8,0:0:0:0:
213,144,84278,1,0,0:0:0:0:
202,128,84428,1,8,0:0:0:0:
202,128,84578,1,0,0:0:0:0:
202,128,84653,1,8,0:0:0:0:
197,136,84728,1,0,0:0:0:0:
198,159,84803,1,0,0:0:0:0:
226,131,84878,1,8,0:0:0:0:
196,145,85028,1,8,0:0:0:0:
196,145,85178,1,0,0:0:0:0:
182,127,85328,1,8,0:0:0:0:
187,118,85478,1,0,0:0:0:0:
187,118,85628,1,8,0:0:0:0:
231,125,85703,1,0,0:0:0:0:
187,118,85778,1,8,0:0:0:0:
231,125,85853,1,0,0:0:0:0:
231,125,85928,1,8,0:0:0:0:
211,148,86078,1,8,0:0:0:0:
218,96,86228,1,0,0:0:0:0:
188,111,86378,1,0,0:0:0:0:
188,111,86528,1,8,0:0:0:0:
188,111,86678,1,0,0:0:0:0:
188,111,86828,1,8,0:0:0:0:
224,105,86903,1,8,0:0:0:0:
193,104,86978,1,0,0:0:0:0:
193,104,87053,1,8,0:0:0:0:
194,101,87128,1,0,0:0:0:0:
197,101,87428,1,4,0:0:0:0:
197,101,87653,1,8,0:0:0:0:
197,101,87803,1,0,0:0:0:0:
197,101,87878,1,8,0:0:0:0:
201,91,88028,1,8,0:0:0:0:
204,93,88178,1,0,0:0:0:0:
217,132,88328,1,8,0:0:0:0:
204,93,88403,1,8,0:0:0:0:
206,89,88628,1,0,0:0:0:0:
206,89,88778,1,8,0:0:0:0:
206,89,88853,1,0,0:0:0:0:
194,84,89003,1,8,0:0:0:0:
206,89,89078,1,0,0:0:0:0:
194,86,89228,1,8,0:0:0:0:
194,86,89378,1,0,0:0:0:0:
194,86,89528,1,0,0:0:0:0:
194,86,89603,1,8,0:0:0:0:
194,86,89753,1,8,0:0:0:0:
194,86,89828,1,0,0:0:0:0:
194,86,90053,1,0,0:0:0:0:
204,82,90203,1,0,0:0:0:0:
204,82,90278,1,8,0:0:0:0:
196,95,90428,1,8,0:0:0:0:
196,95,90578,1,0,0:0:0:0:
196,95,90728,1,8,0:0:0:0:
196,95,90803,1,0,0:0:0:0:
204,82,91028,1,0,0:0:0:0:
201,87,91178,1,8,0:0:0:0:
201,87,91253,1,0,0:0:0:0:
201,87,91403,1,0,0:0:0:0:
201,87,91478,1,0,0:0:0:0:
201,87,91628,1,8,0:0:0:0:
196,95,91778,1,0,0:0:0:0:
212,87,91853,1,8,0:0:0:0:
197,101,92228,1,4,0:0:0:0:
197,101,92453,1,8,0:0:0:0:
197,101,92603,1,0,0:0:0:0:
197,101,92678,1,8,0:0:0:0:
201,91,92828,1,8,0:0:0:0:
204,93,92978,1,0,0:0:0:0:
196,93,93128,1,8,0:0:0:0:
185,98,93203,1,8,0:0:0:0:
206,89,93428,1,0,0:0:0:0:
206,89,93578,1,8,0:0:0:0:
206,89,93653,1,0,0:0:0:0:
194,84,93803,1,8,0:0:0:0:
194,86,93878,1,0,0:0:0:0:
194,86,94028,1,8,0:0:0:0:
194,86,94178,1,8,0:0:0:0:
194,86,94328,1,0,0:0:0:0:
194,86,94403,1,8,0:0:0:0:
194,86,94553,1,8,0:0:0:0:
194,86,94628,1,0,0:0:0:0:
194,86,94853,1,0,0:0:0:0:
204,82,95003,1,0,0:0:0:0:
204,82,95078,1,0,0:0:0:0:
196,95,95228,1,8,0:0:0:0:
196,95,95378,1,0,0:0:0:0:
196,95,95528,1,8,0:0:0:0:
196,95,95603,1,0,0:0:0:0:
204,82,95828,1,0,0:0:0:0:
201,87,95978,1,8,0:0:0:0:
201,87,96053,1,0,0:0:0:0:
201,87,96203,1,0,0:0:0:0:
201,87,96278,1,8,0:0:0:0:
201,87,96428,1,8,0:0:0:0:
212,87,96578,1,0,0:0:0:0:
212,87,96653,1,8,0:0:0:0:
197,101,97028,1,12,0:0:0:0:
192,97,97253,1,8,0:0:0:0:
197,97,97328,1,0,0:0:0:0:
210,119,97403,1,0,0:0:0:0:
197,101,97478,1,8,0:0:0:0:
201,91,97628,1,0,0:0:0:0:
212,87,97703,1,8,0:0:0:0:
204,93,97928,1,0,0:0:0:0:
204,93,98003,1,0,0:0:0:0:
206,89,98153,1,0,0:0:0:0:
206,89,98228,1,8,0:0:0:0:
206,89,98453,1,8,0:0:0:0:
224,100,98528,1,0,0:0:0:0:
194,84,98603,1,0,0:0:0:0:
194,86,98678,1,8,0:0:0:0:
204,93,98828,1,0,0:0:0:0:
204,93,98903,1,8,0:0:0:0:
204,93,98978,1,0,0:0:0:0:
207,112,99128,1,8,0:0:0:0:
192,99,99428,1,12,0:0:0:0:
194,96,99653,1,8,0:0:0:0:
217,96,99728,1,0,0:0:0:0:
204,82,99803,1,0,0:0:0:0:
204,82,99878,1,8,0:0:0:0:
204,82,100028,1,0,0:0:0:0:
189,90,100103,1,8,0:0:0:0:
196,95,100328,1,0,0:0:0:0:
204,93,100403,1,0,0:0:0:0:
205,95,100553,1,0,0:0:0:0:
194,96,100628,1,8,0:0:0:0:
194,95,100853,1,8,0:0:0:0:
206,112,100928,1,0,0:0:0:0:
202,97,101003,1,8,0:0:0:0:
201,87,101078,1,0,0:0:0:0:
201,87,101228,1,8,0:0:0:0:
212,87,101378,1,0,0:0:0:0:
212,87,101453,1,8,0:0:0:0:
197,101,101828,1,12,0:0:0:0:
197,101,102053,1,8,0:0:0:0:
189,92,102128,1,0,0:0:0:0:
197,101,102203,1,0,0:0:0:0:
197,101,102278,1,8,0:0:0:0:
201,91,102428,1,0,0:0:0:0:
212,87,102503,1,8,0:0:0:0:
204,93,102728,1,8,0:0:0:0:
204,93,102803,1,0,0:0:0:0:
206,89,102953,1,0,0:0:0:0:
206,89,103028,1,8,0:0:0:0:
206,89,103253,1,8,0:0:0:0:
206,89,103328,1,0,0:0:0:0:
194,84,103403,1,8,0:0:0:0:
194,86,103478,1,8,0:0:0:0:
197,81,103628,1,0,0:0:0:0:
197,81,103703,1,8,0:0:0:0:
195,100,103778,1,8,0:0:0:0:
194,86,103928,1,8,0:0:0:0:
192,99,104228,1,12,0:0:0:0:
194,96,104453,1,8,0:0:0:0:
192,92,104528,1,0,0:0:0:0:
204,82,104603,1,0,0:0:0:0:
204,82,104678,1,8,0:0:0:0:
189,90,104828,1,8,0:0:0:0:
189,90,104903,1,8,0:0:0:0:
196,95,105128,1,8,0:0:0:0:
196,95,105203,1,0,0:0:0:0:
205,82,105353,1,0,0:0:0:0:
204,82,105428,1,8,0:0:0:0:
192,92,105578,1,8,0:0:0:0:
201,87,105653,1,0,0:0:0:0:
201,87,105803,1,8,0:0:0:0:
201,87,105878,1,0,0:0:0:0:
213,98,106028,1,8,0:0:0:0:
202,82,106178,1,8,0:0:0:0:
205,82,106253,1,8,0:0:0:0:
216,132,106403,1,8,0:0:0:0:
240,153,106553,1,0,0:0:0:0:
214,111,109028,1,0,0:0:0:0:
214,111,109103,1,0,0:0:0:0:
214,111,109178,1,8,0:0:0:0:
214,111,109328,1,8,0:0:0:0:
221,101,109478,1,8,0:0:0:0:
218,87,109678,1,8,0:0:0:0:
218,87,109878,1,8,0:0:0:0:
228,106,110078,1,8,0:0:0:0:
230,92,110153,1,0,0:0:0:0:
230,92,110228,1,8,0:0:0:0:
219,101,110378,1,8,0:0:0:0:
219,101,110528,1,8,0:0:0:0:
216,104,110728,1,8,0:0:0:0:
219,94,110928,1,8,0:0:0:0:
218,94,111128,1,8,0:0:0:0:
211,104,111203,1,8,0:0:0:0:
216,95,111278,1,8,0:0:0:0:
211,105,111428,1,0,0:0:0:0:
217,94,111578,1,0,0:0:0:0:
209,97,111778,1,0,0:0:0:0:
209,97,111978,1,0,0:0:0:0:
201,101,112178,1,8,0:0:0:0:
201,101,112253,1,0,0:0:0:0:
209,98,112328,1,0,0:0:0:0:
209,98,112478,1,0,0:0:0:0:
209,98,112628,1,0,0:0:0:0:
204,93,112828,1,0,0:0:0:0:
204,93,113028,1,0,0:0:0:0:
204,93,113228,1,8,0:0:0:0:
220,99,113828,1,0,0:0:0:0:
214,111,113978,1,8,0:0:0:0:
214,111,114053,1,0,0:0:0:0:
214,111,114128,1,8,0:0:0:0:
221,101,114278,1,8,0:0:0:0:
218,87,114478,1,8,0:0:0:0:
218,87,114678,1,8,0:0:0:0:
228,106,114878,1,8,0:0:0:0:
230,92,115028,1,0,0:0:0:0:
219,101,115103,1,0,0:0:0:0:
219,101,115178,1,8,0:0:0:0:
219,101,115328,1,8,0:0:0:0:
216,104,115528,1,8,0:0:0:0:
219,94,115728,1,8,0:0:0:0:
218,94,115928,1,8,0:0:0:0:
219,101,116078,1,8,0:0:0:0:
215,96,116153,1,0,0:0:0:0:
215,98,116228,1,8,0:0:0:0:
217,94,116378,1,8,0:0:0:0:
209,97,116578,1,8,0:0:0:0:
209,97,116778,1,8,0:0:0:0:
201,101,116978,1,8,0:0:0:0:
209,98,117128,1,0,0:0:0:0:
209,98,117203,1,8,0:0:0:0:
209,98,117278,1,8,0:0:0:0:
209,98,117428,1,8,0:0:0:0:
204,93,117628,1,8,0:0:0:0:
204,93,117828,1,8,0:0:0:0:
204,93,118028,1,0,0:0:0:0:
204,93,118628,1,0,0:0:0:0:
204,93,118778,1,0,0:0:0:0:
212,101,118853,1,0,0:0:0:0:
212,101,118928,1,8,0:0:0:0:
209,97,119078,1,0,0:0:0:0:
230,91,119228,1,8,0:0:0:0:
222,142,119378,1,0,0:0:0:0:
222,142,119453,1,8,0:0:0:0:
232,150,119528,1,0,0:0:0:0:
224,93,119678,1,8,0:0:0:0:
229,138,119828,1,0,0:0:0:0:
229,138,119978,1,8,0:0:0:0:
216,110,120128,1,8,0:0:0:0:
216,110,120328,1,0,0:0:0:0:
222,142,120428,1,8,0:0:0:0:
235,134,120528,1,0,0:0:0:0:
218,115,120628,1,0,0:0:0:0:
225,126,120728,1,8,0:0:0:0:
221,116,121028,1,8,0:0:0:0:
219,103,121178,1,0,0:0:0:0:
216,110,121328,1,8,0:0:0:0:
213,115,121478,1,0,0:0:0:0:
234,120,121553,1,0,0:0:0:0:
218,115,121628,1,8,0:0:0:0:
212,116,121778,1,0,0:0:0:0:
213,125,121928,1,8,0:0:0:0:
204,118,122078,1,8,0:0:0:0:
205,113,122228,1,0,0:0:0:0:
206,112,122428,1,0,0:0:0:0:
209,136,122528,1,8,0:0:0:0:
206,112,122628,1,0,0:0:0:0:
220,110,122828,1,8,0:0:0:0:
219,110,122903,1,0,0:0:0:0:
216,110,123053,1,0,0:0:0:0:
216,110,123128,1,0,0:0:0:0:
222,104,123428,1,0,0:0:0:0:
222,104,123503,1,0,0:0:0:0:
222,104,123578,1,8,0:0:0:0:
225,111,123728,1,8,0:0:0:0:
229,105,123878,1,0,0:0:0:0:
229,105,124028,1,8,0:0:0:0:
234,98,124178,1,8,0:0:0:0:
222,85,124253,1,8,0:0:0:0:
226,98,124328,1,0,0:0:0:0:
218,98,124478,1,8,0:0:0:0:
230,97,124628,1,0,0:0:0:0:
230,97,124778,1,8,0:0:0:0:
230,97,124928,1,0,0:0:0:0:
220,118,125128,1,8,0:0:0:0:
227,98,125228,1,8,0:0:0:0:
235,104,125328,1,0,0:0:0:0:
235,118,125428,1,0,0:0:0:0:
223,118,125528,1,8,0:0:0:0:
233,117,125828,1,0,0:0:0:0:
233,117,125903,1,0,0:0:0:0:
233,117,125978,1,8,0:0:0:0:
233,111,126128,1,0,0:0:0:0:
233,111,126278,1,0,0:0:0:0:
245,114,126428,1,8,0:0:0:0:
238,117,126578,1,0,0:0:0:0:
220,124,126653,1,8,0:0:0:0:
221,124,126728,1,8,0:0:0:0:
222,123,126878,1,8,0:0:0:0:
252,193,127028,1,0,0:0:0:0:
252,193,127228,1,0,0:0:0:0:
253,177,127328,1,8,0:0:0:0:
253,177,127428,1,0,0:0:0:0:
253,177,127628,1,8,0:0:0:0:
247,182,127703,1,0,0:0:0:0:
247,182,127853,1,8,0:0:0:0:
247,182,127928,1,0,0:0:0:0:
214,111,128228,1,0,0:0:0:0:
214,111,128303,1,0,0:0:0:0:
214,111,128378,1,8,0:0:0:0:
214,111,128528,1,8,0:0:0:0:
221,101,128678,1,8,0:0:0:0:
218,87,128878,1,8,0:0:0:0:
218,87,129078,1,8,0:0:0:0:
228,106,129278,1,8,0:0:0:0:
230,92,129353,1,0,0:0:0:0:
230,92,129428,1,8,0:0:0:0:
219,101,129578,1,8,0:0:0:0:
219,101,129728,1,8,0:0:0:0:
216,104,129928,1,8,0:0:0:0:
219,94,130128,1,8,0:0:0:0:
218,94,130328,1,8,0:0:0:0:
211,104,130403,1,8,0:0:0:0:
216,95,130478,1,8,0:0:0:0:
211,105,130628,1,0,0:0:0:0:
217,94,130778,1,0,0:0:0:0:
209,97,130978,1,0,0:0:0:0:
209,97,131178,1,0,0:0:0:0:
201,101,131378,1,8,0:0:0:0:
201,101,131453,1,0,0:0:0:0:
209,98,131528,1,0,0:0:0:0:
209,98,131678,1,0,0:0:0:0:
209,98,131828,1,0,0:0:0:0:
204,93,132028,1,0,0:0:0:0:
204,93,132228,1,0,0:0:0:0:
204,93,132428,1,8,0:0:0:0:
220,99,133028,1,0,0:0:0:0:
214,111,133178,1,8,0:0:0:0:
214,111,133253,1,0,0:0:0:0:
214,111,133328,1,8,0:0:0:0:
221,101,133478,1,8,0:0:0:0:
218,87,133678,1,8,0:0:0:0:
218,87,133878,1,8,0:0:0:0:
228,106,134078,1,8,0:0:0:0:
230,92,134228,1,0,0:0:0:0:
219,101,134303,1,0,0:0:0:0:
219,101,134378,1,8,0:0:0:0:
219,101,134528,1,8,0:0:0:0:
216,104,134728,1,8,0:0:0:0:
219,94,134928,1,8,0:0:0:0:
218,94,135128,1,8,0:0:0:0:
219,101,135278,1,8,0:0:0:0:
215,96,135353,1,0,0:0:0:0:
215,98,135428,1,8,0:0:0:0:
217,94,135578,1,8,0:0:0:0:
209,97,135778,1,8,0:0:0:0:
209,97,135978,1,8,0:0:0:0:
201,101,136178,1,8,0:0:0:0:
209,98,136328,1,0,0:0:0:0:
209,98,136403,1,8,0:0:0:0:
209,98,136478,1,8,0:0:0:0:
209,98,136628,1,8,0:0:0:0:
204,93,136828,1,8,0:0:0:0:
204,93,137028,1,8,0:0:0:0:
204,93,137228,1,0,0:0:0:0:
204,93,137828,1,0,0:0:0:0:
204,93,137978,1,0,0:0:0:0:
212,101,138128,1,8,0:0:0:0:
212,101,138203,1,8,0:0:0:0:
209,97,138278,1,0,0:0:0:0:
230,91,138428,1,8,0:0:0:0:
222,142,138578,1,0,0:0:0:0:
222,142,138653,1,8,0:0:0:0:
232,150,138728,1,0,0:0:0:0:
224,93,138878,1,8,0:0:0:0:
229,138,139028,1,0,0:0:0:0:
229,138,139178,1,8,0:0:0:0:
216,110,139328,1,8,0:0:0:0:
216,110,139528,1,0,0:0:0:0:
222,142,139628,1,8,0:0:0:0:
235,134,139728,1,0,0:0:0:0:
218,115,139828,1,0,0:0:0:0:
225,126,139928,1,8,0:0:0:0:
221,116,140228,1,8,0:0:0:0:
219,103,140378,1,0,0:0:0:0:
216,110,140528,1,8,0:0:0:0:
234,120,140603,1,8,0:0:0:0:
213,115,140678,1,0,0:0:0:0:
218,115,140828,1,8,0:0:0:0:
212,116,140978,1,0,0:0:0:0:
213,125,141128,1,8,0:0:0:0:
204,118,141278,1,8,0:0:0:0:
205,113,141428,1,0,0:0:0:0:
206,112,141628,1,0,0:0:0:0:
209,136,141728,1,8,0:0:0:0:
206,112,141828,1,0,0:0:0:0:
220,110,142028,1,8,0:0:0:0:
219,110,142103,1,0,0:0:0:0:
216,110,142253,1,0,0:0:0:0:
216,110,142328,1,0,0:0:0:0:
222,104,142628,1,0,0:0:0:0:
222,104,142778,1,8,0:0:0:0:
213,137,142853,1,0,0:0:0:0:
225,111,142928,1,8,0:0:0:0:
229,105,143078,1,0,0:0:0:0:
229,105,143228,1,8,0:0:0:0:
234,98,143378,1,8,0:0:0:0:
222,85,143453,1,8,0:0:0:0:
226,98,143528,1,0,0:0:0:0:
218,98,143678,1,8,0:0:0:0:
230,97,143828,1,0,0:0:0:0:
230,97,143978,1,8,0:0:0:0:
230,97,144128,1,0,0:0:0:0:
220,118,144328,1,8,0:0:0:0:
227,98,144428,1,8,0:0:0:0:
235,104,144528,1,0,0:0:0:0:
235,118,144628,1,0,0:0:0:0:
223,118,144728,1,8,0:0:0:0:
233,117,145028,1,0,0:0:0:0:
233,117,145178,1,8,0:0:0:0:
238,132,145253,1,0,0:0:0:0:
233,111,145328,1,8,0:0:0:0:
233,111,145478,1,0,0:0:0:0:
245,114,145628,1,8,0:0:0:0:
238,117,145778,1,0,0:0:0:0:
220,124,145853,1,8,0:0:0:0:
221,124,145928,1,8,0:0:0:0:
222,123,146078,1,8,0:0:0:0:
252,193,146228,1,0,0:0:0:0:
252,193,146428,1,0,0:0:0:0:
253,177,146528,1,8,0:0:0:0:
253,177,146628,1,0,0:0:0:0:
253,177,146828,1,8,0:0:0:0:
247,182,146903,1,0,0:0:0:0:
247,182,147053,1,8,0:0:0:0:
247,182,147128,1,0,0:0:0:0:
247,185,147428,1,4,0:0:0:0:
245,226,147578,1,8,0:0:0:0:
258,187,147728,1,8,0:0:0:0:
258,187,147878,1,8,0:0:0:0:
255,154,148078,1,8,0:0:0:0:
237,132,148278,1,8,0:0:0:0:
247,185,148478,1,8,0:0:0:0:
254,165,148628,1,8,0:0:0:0:
254,165,148778,1,8,0:0:0:0:
254,165,148928,1,8,0:0:0:0:
255,165,149128,1,8,0:0:0:0:
255,165,149328,1,8,0:0:0:0:
255,165,149528,1,8,0:0:0:0:
254,165,149828,1,0,0:0:0:0:
254,165,149978,1,0,0:0:0:0:
255,165,150178,1,0,0:0:0:0:
255,165,150378,1,0,0:0:0:0:
254,165,150578,1,0,0:0:0:0:
254,165,150728,1,0,0:0:0:0:
254,165,150878,1,0,0:0:0:0:
255,165,151028,1,0,0:0:0:0:
252,153,151228,1,0,0:0:0:0:
252,153,151428,1,0,0:0:0:0:
252,153,151628,1,0,0:0:0:0:
252,153,152228,1,8,0:0:0:0:
252,153,152378,1,8,0:0:0:0:
252,153,152528,1,8,0:0:0:0:
249,145,152678,1,8,0:0:0:0:
249,145,152878,1,8,0:0:0:0:
249,145,153078,1,8,0:0:0:0:
241,147,153278,1,8,0:0:0:0:
251,138,153428,1,8,0:0:0:0:
251,138,153578,1,8,0:0:0:0:
251,138,153728,1,8,0:0:0:0:
251,138,153928,1,8,0:0:0:0:
251,138,154128,1,8,0:0:0:0:
251,138,154328,1,8,0:0:0:0:
251,138,154628,1,8,0:0:0:0:
251,138,154778,1,8,0:0:0:0:
251,138,154978,1,8,0:0:0:0:
251,138,155178,1,8,0:0:0:0:
251,138,155378,1,8,0:0:0:0:
251,138,155528,1,8,0:0:0:0:
241,147,155678,1,8,0:0:0:0:
251,138,155828,1,8,0:0:0:0:
241,127,156028,1,8,0:0:0:0:
241,127,156228,1,8,0:0:0:0:
241,127,156428,1,0,0:0:0:0:
247,164,157028,1,8,0:0:0:0:
258,187,157178,1,8,0:0:0:0:
258,187,157328,1,8,0:0:0:0:
258,187,157478,1,8,0:0:0:0:
255,154,157678,1,8,0:0:0:0:
237,132,157878,1,8,0:0:0:0:
239,138,158078,1,8,0:0:0:0:
254,165,158228,1,8,0:0:0:0:
254,165,158378,1,8,0:0:0:0:
254,165,158528,1,8,0:0:0:0:
255,165,158728,1,8,0:0:0:0:
255,165,158928,1,8,0:0:0:0:
255,165,159128,1,8,0:0:0:0:
254,165,159428,1,0,0:0:0:0:
254,165,159578,1,0,0:0:0:0:
255,165,159778,1,0,0:0:0:0:
255,165,159978,1,0,0:0:0:0:
254,165,160178,1,0,0:0:0:0:
254,165,160328,1,0,0:0:0:0:
263,158,160478,1,0,0:0:0:0:
255,165,160628,1,0,0:0:0:0:
252,153,160828,1,0,0:0:0:0:
252,153,161028,1,0,0:0:0:0:
252,153,161228,1,0,0:0:0:0:
252,153,161828,1,8,0:0:0:0:
252,153,161978,1,8,0:0:0:0:
252,153,162128,1,8,0:0:0:0:
249,145,162278,1,8,0:0:0:0:
249,145,162478,1,8,0:0:0:0:
249,145,162678,1,8,0:0:0:0:
263,158,162878,1,8,0:0:0:0:
251,138,163028,1,8,0:0:0:0:
251,138,163178,1,8,0:0:0:0:
251,138,163328,1,8,0:0:0:0:
251,138,163528,1,8,0:0:0:0:
251,138,163728,1,8,0:0:0:0:
251,138,163928,1,8,0:0:0:0:
251,138,164228,1,8,0:0:0:0:
251,138,164378,1,8,0:0:0:0:
251,138,164578,1,8,0:0:0:0:
251,138,164778,1,8,0:0:0:0:
251,138,164978,1,8,0:0:0:0:
251,138,165128,1,8,0:0:0:0:
263,158,165278,1,8,0:0:0:0:
251,138,165428,1,8,0:0:0:0:
241,127,165628,1,8,0:0:0:0:
241,127,165828,1,8,0:0:0:0:
241,127,166028,1,0,0:0:0:0:
250,121,166628,1,12,0:0:0:0:
