osu file format v14

[General]
AudioFilename: audio.mp3
AudioLeadIn: 0
PreviewTime: 49028
Countdown: 0
SampleSet: Normal
StackLeniency: 0.7
Mode: 1
LetterboxInBreaks: 0
WidescreenStoryboard: 1

[Editor]
Bookmarks: 4914,9714,19314,28914,33714,38514,48114,67314,76914,86514,96114,108114,117714,127314,136914,165714
DistanceSpacing: 0.9
BeatDivisor: 4
GridSize: 32
TimelineZoom: 2.3

[Metadata]
Title:METEORITE
TitleUnicode:METEORITE
Artist:Breakchild & II-L
ArtistUnicode:Breakchild & II-L
Creator:WTHBRO
Version:MUZUKASHII
Source:
Tags:electronic instrumental psy footcore breakcore footwork breakchild re:birth rebirth ai futuristic lovestory good luck 胡桃 chan
BeatmapID:3109255
BeatmapSetID:1487513

[Difficulty]
HPDrainRate:5
CircleSize:3
OverallDifficulty:5
ApproachRate:6
SliderMultiplier:1.4
SliderTickRate:1

[Events]
//Background and Video events
0,0,"space-4401094_1920.jpg",0,0
//Break Periods
//Storyboard Layer 0 (Background)
//Storyboard Layer 1 (Fail)
//Storyboard Layer 2 (Pass)
//Storyboard Layer 3 (Foreground)
//Storyboard Layer 4 (Overlay)
//Storyboard Sound Samples

[TimingPoints]
1028,300,4,1,0,50,1,0
1028,-142.857142857143,4,1,0,50,0,0
5828,-142.857142857143,4,1,0,60,0,0
10628,-125,4,1,0,70,0,0
46628,-111.111111111111,4,1,0,70,0,0
48803,-100.361300682457,4,1,0,70,0,0
49028,-100,4,1,0,90,0,1
68228,-100,4,1,0,70,0,0
68378,-111.111111111111,4,1,0,70,0,0
77828,-105.263157894737,4,1,0,90,0,0
87428,-100,4,1,0,90,0,1
106553,-100,4,1,0,60,0,0
106628,-125,4,1,0,60,0,0
109028,-100,4,1,0,90,0,1
118628,-100,4,1,0,90,0,0
128228,-100,4,1,0,90,0,1
137828,-100,4,1,0,90,0,0
147428,-111.111111111111,4,1,0,70,0,0

[HitObjects]
245,165,1028,5,0,0:0:0:0:
236,160,1403,1,0,0:0:0:0:
237,175,1778,1,0,0:0:0:0:
237,175,2003,1,0,0:0:0:0:
234,170,2378,1,0,0:0:0:0:
234,170,2603,1,0,0:0:0:0:
230,185,2978,1,0,0:0:0:0:
218,178,3203,1,0,0:0:0:0:
218,178,3428,1,0,0:0:0:0:
219,189,3803,1,0,0:0:0:0:
219,189,4178,1,0,0:0:0:0:
224,189,4403,1,0,0:0:0:0:
224,189,4778,1,0,0:0:0:0:
220,181,5003,1,0,0:0:0:0:
224,174,5378,1,0,0:0:0:0:
224,189,5603,1,0,0:0:0:0:
220,181,5828,1,0,0:0:0:0:
245,165,6128,1,8,0:0:0:0:
237,175,6578,1,0,0:0:0:0:
237,175,6803,1,0,0:0:0:0:
216,186,7178,1,0,0:0:0:0:
231,198,7328,1,8,0:0:0:0:
229,175,7778,1,0,0:0:0:0:
218,178,8003,1,0,0:0:0:0:
218,178,8228,1,0,0:0:0:0:
231,198,8528,1,8,0:0:0:0:
219,189,8978,1,0,0:0:0:0:
224,189,9203,1,0,0:0:0:0:
224,189,9578,1,0,0:0:0:0:
231,198,9728,1,8,0:0:0:0:
229,192,10028,1,8,0:0:0:0:
207,180,10628,1,0,0:0:0:0:
207,180,10853,1,8,0:0:0:0:
207,180,11003,1,0,0:0:0:0:
207,180,11228,1,8,0:0:0:0:
207,180,11378,1,0,0:0:0:0:
207,180,11828,1,8,0:0:0:0:
207,180,11978,1,0,0:0:0:0:
207,180,12203,1,0,0:0:0:0:
207,180,12428,1,0,0:0:0:0:
208,175,12578,1,8,0:0:0:0:
208,175,13028,1,8,0:0:0:0:
208,175,13253,1,0,0:0:0:0:
208,175,13403,1,0,0:0:0:0:
213,171,13628,1,8,0:0:0:0:
213,171,13778,1,0,0:0:0:0:
215,167,14228,1,8,0:0:0:0:
215,167,14378,1,8,0:0:0:0:
213,171,14603,1,0,0:0:0:0:
208,146,14828,1,8,0:0:0:0:
208,146,15428,1,0,0:0:0:0:
219,160,15653,1,8,0:0:0:0:
219,160,15803,1,0,0:0:0:0:
219,160,16028,1,8,0:0:0:0:
219,160,16178,1,0,0:0:0:0:
219,160,16628,1,8,0:0:0:0:
219,160,16778,1,0,0:0:0:0:
219,160,17003,1,0,0:0:0:0:
219,160,17228,1,0,0:0:0:0:
219,160,17378,1,8,0:0:0:0:
219,160,17828,1,8,0:0:0:0:
227,148,18053,1,0,0:0:0:0:
213,146,18203,1,0,0:0:0:0:
213,146,18428,1,8,0:0:0:0:
213,146,18578,1,0,0:0:0:0:
213,146,19028,1,8,0:0:0:0:
213,146,19178,1,8,0:0:0:0:
213,146,19403,1,0,0:0:0:0:
213,146,19628,1,8,0:0:0:0:
213,146,20228,1,4,0:0:0:0:
211,151,20528,1,8,0:0:0:0:
205,150,20828,1,0,0:0:0:0:
205,150,20978,1,8,0:0:0:0:
203,149,21128,1,0,0:0:0:0:
213,138,21428,1,0,0:0:0:0:
203,141,21728,1,8,0:0:0:0:
203,141,22028,1,0,0:0:0:0:
206,159,22178,1,8,0:0:0:0:
203,141,22328,1,8,0:0:0:0:
203,141,22478,1,8,0:0:0:0:
203,141,22628,1,0,0:0:0:0:
203,141,22928,1,8,0:0:0:0:
203,141,23228,1,0,0:0:0:0:
206,135,23378,1,8,0:0:0:0:
206,135,23528,1,0,0:0:0:0:
214,123,23828,1,0,0:0:0:0:
204,150,24128,1,8,0:0:0:0:
224,157,24428,1,0,0:0:0:0:
186,130,24578,1,8,0:0:0:0:
208,146,24728,1,0,0:0:0:0:
208,146,24803,1,0,0:0:0:0:
208,146,24878,1,0,0:0:0:0:
208,146,25028,1,8,0:0:0:0:
208,146,25328,1,8,0:0:0:0:
209,153,25628,1,8,0:0:0:0:
208,152,25778,1,0,0:0:0:0:
208,152,25928,1,8,0:0:0:0:
211,149,26228,1,8,0:0:0:0:
213,146,26528,1,8,0:0:0:0:
207,157,26828,1,8,0:0:0:0:
214,166,27128,1,0,0:0:0:0:
214,166,27203,1,0,0:0:0:0:
207,157,27278,1,0,0:0:0:0:
214,166,27428,1,8,0:0:0:0:
212,162,27653,1,8,0:0:0:0:
212,162,27803,1,8,0:0:0:0:
216,149,28028,1,8,0:0:0:0:
216,149,28178,1,8,0:0:0:0:
216,149,28628,1,0,0:0:0:0:
216,149,28778,1,0,0:0:0:0:
216,149,29003,1,0,0:0:0:0:
213,154,29228,1,0,0:0:0:0:
213,154,29378,1,0,0:0:0:0:
218,159,29828,1,12,0:0:0:0:
213,162,30128,1,0,0:0:0:0:
214,143,30428,1,8,0:0:0:0:
214,143,30578,1,8,0:0:0:0:
208,160,30728,1,0,0:0:0:0:
213,143,31028,1,0,0:0:0:0:
212,142,31178,1,8,0:0:0:0:
225,135,31328,1,0,0:0:0:0:
221,167,31628,1,0,0:0:0:0:
222,130,31778,1,8,0:0:0:0:
219,163,31928,1,8,0:0:0:0:
218,159,32228,1,0,0:0:0:0:
216,149,32528,1,0,0:0:0:0:
214,143,32828,1,8,0:0:0:0:
214,143,32978,1,8,0:0:0:0:
214,143,33128,1,0,0:0:0:0:
213,143,33428,1,0,0:0:0:0:
212,142,33578,1,8,0:0:0:0:
225,135,33728,1,0,0:0:0:0:
228,141,34028,1,8,0:0:0:0:
192,150,34178,1,0,0:0:0:0:
195,123,34328,1,0,0:0:0:0:
235,134,34403,1,0,0:0:0:0:
235,134,34478,1,0,0:0:0:0:
218,159,34628,1,8,0:0:0:0:
216,149,34928,1,8,0:0:0:0:
218,159,35228,1,0,0:0:0:0:
218,159,35378,1,8,0:0:0:0:
214,143,35528,1,8,0:0:0:0:
213,143,35828,1,0,0:0:0:0:
212,142,35978,1,8,0:0:0:0:
217,118,36128,1,0,0:0:0:0:
228,141,36428,1,8,0:0:0:0:
195,123,36728,1,0,0:0:0:0:
222,130,36803,1,0,0:0:0:0:
230,115,36878,1,0,0:0:0:0:
217,119,37028,1,8,0:0:0:0:
221,114,37253,1,0,0:0:0:0:
195,127,37403,1,0,0:0:0:0:
211,129,37628,1,8,0:0:0:0:
211,129,37778,1,8,0:0:0:0:
196,121,38003,1,0,0:0:0:0:
212,129,38228,1,0,0:0:0:0:
212,129,38378,1,0,0:0:0:0:
211,129,38603,1,0,0:0:0:0:
211,129,38828,1,8,0:0:0:0:
224,146,39428,1,4,0:0:0:0:
208,138,39653,1,0,0:0:0:0:
198,168,39803,1,0,0:0:0:0:
224,147,40028,1,8,0:0:0:0:
224,147,40178,1,8,0:0:0:0:
224,146,40403,1,8,0:0:0:0:
202,144,40553,1,0,0:0:0:0:
207,159,40703,1,8,0:0:0:0:
230,141,40928,1,0,0:0:0:0:
222,130,41078,1,0,0:0:0:0:
222,130,41228,1,8,0:0:0:0:
220,119,41828,1,0,0:0:0:0:
232,110,42053,1,0,0:0:0:0:
232,110,42203,1,0,0:0:0:0:
232,110,42428,1,8,0:0:0:0:
232,110,42578,1,0,0:0:0:0:
232,110,42803,1,0,0:0:0:0:
235,121,42953,1,0,0:0:0:0:
232,110,43103,1,0,0:0:0:0:
232,110,43328,1,8,0:0:0:0:
226,114,43478,1,0,0:0:0:0:
231,95,43628,1,8,0:0:0:0:
224,102,44228,1,0,0:0:0:0:
236,110,44453,1,0,0:0:0:0:
225,101,44603,1,0,0:0:0:0:
227,104,44828,1,8,0:0:0:0:
232,110,44978,1,0,0:0:0:0:
225,110,45203,1,8,0:0:0:0:
222,95,45353,1,0,0:0:0:0:
225,110,45503,1,8,0:0:0:0:
228,110,45728,1,0,0:0:0:0:
233,105,45878,1,0,0:0:0:0:
221,105,46028,1,8,0:0:0:0:
222,95,46628,1,0,0:0:0:0:
222,98,46853,1,0,0:0:0:0:
225,90,47003,1,0,0:0:0:0:
231,93,47228,1,8,0:0:0:0:
231,93,47378,1,0,0:0:0:0:
222,95,47603,1,0,0:0:0:0:
222,98,47753,1,0,0:0:0:0:
223,97,47903,1,0,0:0:0:0:
217,114,48128,1,0,0:0:0:0:
221,118,48278,1,0,0:0:0:0:
221,118,48428,1,8,0:0:0:0:
242,178,49028,1,4,0:0:0:0:
248,180,49328,1,8,0:0:0:0:
256,170,49478,1,0,0:0:0:0:
253,169,49628,1,8,0:0:0:0:
252,169,49853,1,8,0:0:0:0:
252,168,50078,1,8,0:0:0:0:
250,158,50228,1,0,0:0:0:0:
244,173,50378,1,0,0:0:0:0:
253,169,50528,1,8,0:0:0:0:
256,158,50828,1,8,0:0:0:0:
256,158,50978,1,0,0:0:0:0:
255,157,51128,1,8,0:0:0:0:
255,157,51428,1,0,0:0:0:0:
255,157,51503,1,0,0:0:0:0:
255,157,51578,1,0,0:0:0:0:
255,152,51728,1,0,0:0:0:0:
255,152,52028,1,8,0:0:0:0:
259,167,52103,1,8,0:0:0:0:
259,167,52178,1,8,0:0:0:0:
255,157,52328,1,0,0:0:0:0:
256,184,52628,1,0,0:0:0:0:
251,179,52778,1,8,0:0:0:0:
255,191,52928,1,0,0:0:0:0:
256,184,53078,1,0,0:0:0:0:
254,174,53228,1,8,0:0:0:0:
261,200,53378,1,0,0:0:0:0:
261,200,53528,1,8,0:0:0:0:
234,164,53828,1,0,0:0:0:0:
244,178,53978,1,0,0:0:0:0:
251,182,54128,1,8,0:0:0:0:
247,190,54278,1,0,0:0:0:0:
247,190,54428,1,8,0:0:0:0:
247,190,54728,1,8,0:0:0:0:
256,185,54878,1,8,0:0:0:0:
242,193,55028,1,0,0:0:0:0:
252,201,55328,1,0,0:0:0:0:
248,176,55628,1,8,0:0:0:0:
242,193,56228,1,8,0:0:0:0:
243,196,56528,1,8,0:0:0:0:
242,187,56828,1,8,0:0:0:0:
240,179,56978,1,8,0:0:0:0:
239,174,57128,1,8,0:0:0:0:
242,193,57428,1,0,0:0:0:0:
226,188,57728,1,8,0:0:0:0:
240,169,57878,1,0,0:0:0:0:
261,184,58028,1,8,0:0:0:0:
232,175,58103,1,8,0:0:0:0:
232,175,58178,1,8,0:0:0:0:
232,175,58328,1,0,0:0:0:0:
248,166,58628,1,4,0:0:0:0:
250,164,59828,1,0,0:0:0:0:
249,163,60128,1,0,0:0:0:0:
249,163,60428,1,8,0:0:0:0:
240,163,60653,1,0,0:0:0:0:
240,163,60878,1,0,0:0:0:0:
234,164,61028,1,8,0:0:0:0:
245,171,61328,1,0,0:0:0:0:
247,190,61478,1,0,0:0:0:0:
247,190,61628,1,8,0:0:0:0:
192,168,61928,1,8,0:0:0:0:
242,189,62078,1,8,0:0:0:0:
242,193,62228,1,0,0:0:0:0:
233,171,62528,1,0,0:0:0:0:
248,176,62828,1,8,0:0:0:0:
234,164,63428,1,0,0:0:0:0:
233,189,63578,1,8,0:0:0:0:
236,187,63728,1,8,0:0:0:0:
247,190,63878,1,0,0:0:0:0:
247,190,64028,1,8,0:0:0:0:
217,154,64328,1,8,0:0:0:0:
241,177,64478,1,8,0:0:0:0:
242,193,64628,1,0,0:0:0:0:
253,174,64928,1,0,0:0:0:0:
248,176,65228,1,8,0:0:0:0:
248,176,65453,1,0,0:0:0:0:
240,146,65678,1,0,0:0:0:0:
240,146,65828,1,8,0:0:0:0:
245,185,66128,1,8,0:0:0:0:
242,187,66428,1,8,0:0:0:0:
271,190,66578,1,8,0:0:0:0:
239,174,66728,1,8,0:0:0:0:
242,193,67028,1,0,0:0:0:0:
238,157,67328,1,8,0:0:0:0:
240,169,67478,1,0,0:0:0:0:
261,184,67628,1,8,0:0:0:0:
238,157,68228,1,4,0:0:0:0:
218,173,68528,1,0,0:0:0:0:
219,160,68828,1,8,0:0:0:0:
218,143,69428,1,0,0:0:0:0:
213,144,69728,1,0,0:0:0:0:
202,128,70028,1,8,0:0:0:0:
202,128,70253,1,0,0:0:0:0:
199,136,70478,1,0,0:0:0:0:
196,145,70628,1,0,0:0:0:0:
182,127,70928,1,0,0:0:0:0:
187,118,71228,1,8,0:0:0:0:
200,120,71828,1,0,0:0:0:0:
188,111,72128,1,0,0:0:0:0:
188,111,72428,1,8,0:0:0:0:
208,140,72653,1,0,0:0:0:0:
208,140,72878,1,0,0:0:0:0:
238,157,73028,1,8,0:0:0:0:
222,153,73328,1,0,0:0:0:0:
227,165,73628,1,8,0:0:0:0:
227,165,73778,1,8,0:0:0:0:
227,165,73928,1,0,0:0:0:0:
225,174,74228,1,8,0:0:0:0:
225,174,74378,1,0,0:0:0:0:
225,174,74528,1,0,0:0:0:0:
202,128,74828,1,8,0:0:0:0:
202,128,75053,1,0,0:0:0:0:
199,136,75278,1,0,0:0:0:0:
196,145,75428,1,8,0:0:0:0:
182,127,75728,1,8,0:0:0:0:
187,118,76028,1,8,0:0:0:0:
187,118,76178,1,8,0:0:0:0:
231,125,76328,1,8,0:0:0:0:
200,120,76628,1,0,0:0:0:0:
188,111,76778,1,0,0:0:0:0:
188,111,76928,1,8,0:0:0:0:
188,111,77228,1,8,0:0:0:0:
238,157,77828,1,4,0:0:0:0:
218,173,78128,1,8,0:0:0:0:
222,153,78278,1,0,0:0:0:0:
219,160,78428,1,8,0:0:0:0:
219,160,78728,1,8,0:0:0:0:
218,143,79028,1,0,0:0:0:0:
207,159,79178,1,0,0:0:0:0:
213,144,79328,1,8,0:0:0:0:
213,144,79478,1,0,0:0:0:0:
202,128,79628,1,8,0:0:0:0:
197,136,79853,1,0,0:0:0:0:
199,136,80078,1,0,0:0:0:0:
196,145,80228,1,8,0:0:0:0:
182,127,80528,1,0,0:0:0:0:
187,118,80678,1,0,0:0:0:0:
187,118,80828,1,8,0:0:0:0:
197,114,81128,1,0,0:0:0:0:
200,120,81428,1,8,0:0:0:0:
191,106,81578,1,0,0:0:0:0:
188,111,81728,1,0,0:0:0:0:
188,111,82028,1,8,0:0:0:0:
212,152,82253,1,0,0:0:0:0:
212,152,82478,1,0,0:0:0:0:
238,157,82628,1,8,0:0:0:0:
175,138,82703,1,8,0:0:0:0:
175,138,82778,1,8,0:0:0:0:
218,173,82928,1,0,0:0:0:0:
219,160,83228,1,8,0:0:0:0:
219,160,83528,1,8,0:0:0:0:
175,138,83678,1,8,0:0:0:0:
222,164,83828,1,0,0:0:0:0:
222,163,83903,1,0,0:0:0:0:
207,159,83978,1,0,0:0:0:0:
213,144,84128,1,0,0:0:0:0:
202,128,84428,1,8,0:0:0:0:
222,163,84653,1,0,0:0:0:0:
226,131,84878,1,0,0:0:0:0:
196,145,85028,1,8,0:0:0:0:
182,127,85328,1,8,0:0:0:0:
187,118,85478,1,0,0:0:0:0:
187,118,85628,1,8,0:0:0:0:
231,125,85703,1,8,0:0:0:0:
187,118,85778,1,8,0:0:0:0:
231,125,85928,1,8,0:0:0:0:
218,96,86228,1,0,0:0:0:0:
197,101,87428,1,4,0:0:0:0:
197,101,87653,1,8,0:0:0:0:
212,97,87803,1,0,0:0:0:0:
219,108,87878,1,0,0:0:0:0:
201,91,88028,1,8,0:0:0:0:
204,93,88178,1,0,0:0:0:0:
206,89,88628,1,0,0:0:0:0:
206,89,88778,1,0,0:0:0:0:
244,145,88853,1,0,0:0:0:0:
231,111,89003,1,0,0:0:0:0:
224,138,89078,1,0,0:0:0:0:
194,86,89228,1,8,0:0:0:0:
194,86,89378,1,0,0:0:0:0:
194,86,89828,1,4,0:0:0:0:
194,86,90053,1,0,0:0:0:0:
224,138,90203,1,0,0:0:0:0:
204,82,90278,1,0,0:0:0:0:
196,95,90428,1,8,0:0:0:0:
196,95,90578,1,0,0:0:0:0:
204,82,91028,1,8,0:0:0:0:
201,87,91178,1,0,0:0:0:0:
224,138,91253,1,0,0:0:0:0:
224,138,91403,1,8,0:0:0:0:
224,138,91478,1,8,0:0:0:0:
201,87,91628,1,8,0:0:0:0:
197,101,92228,1,4,0:0:0:0:
197,101,92453,1,8,0:0:0:0:
224,132,92603,1,0,0:0:0:0:
219,108,92678,1,0,0:0:0:0:
201,91,92828,1,8,0:0:0:0:
204,93,92978,1,0,0:0:0:0:
206,89,93428,1,0,0:0:0:0:
206,89,93578,1,0,0:0:0:0:
224,132,93653,1,0,0:0:0:0:
219,103,93803,1,0,0:0:0:0:
224,132,93878,1,0,0:0:0:0:
194,86,94028,1,8,0:0:0:0:
194,86,94178,1,8,0:0:0:0:
194,86,94628,1,4,0:0:0:0:
194,86,94853,1,0,0:0:0:0:
224,132,95003,1,0,0:0:0:0:
224,132,95078,1,0,0:0:0:0:
196,95,95228,1,8,0:0:0:0:
196,95,95378,1,0,0:0:0:0:
204,82,95828,1,8,0:0:0:0:
201,87,95978,1,0,0:0:0:0:
224,132,96053,1,0,0:0:0:0:
213,100,96203,1,8,0:0:0:0:
216,108,96278,1,8,0:0:0:0:
201,87,96428,1,8,0:0:0:0:
197,101,97028,1,12,0:0:0:0:
192,97,97253,1,8,0:0:0:0:
197,101,97478,1,8,0:0:0:0:
212,87,97703,1,8,0:0:0:0:
204,93,97928,1,0,0:0:0:0:
201,112,98078,1,0,0:0:0:0:
206,89,98228,1,8,0:0:0:0:
206,89,98453,1,8,0:0:0:0:
194,86,98678,1,8,0:0:0:0:
204,93,98903,1,8,0:0:0:0:
192,99,99428,1,12,0:0:0:0:
194,96,99653,1,8,0:0:0:0:
204,82,99878,1,8,0:0:0:0:
197,103,100103,1,8,0:0:0:0:
231,146,100328,1,0,0:0:0:0:
202,73,100628,1,0,0:0:0:0:
222,111,100778,1,8,0:0:0:0:
217,137,100928,1,0,0:0:0:0:
201,102,101003,1,0,0:0:0:0:
197,103,101078,1,0,0:0:0:0:
201,87,101228,1,8,0:0:0:0:
197,101,101828,1,12,0:0:0:0:
192,97,102053,1,8,0:0:0:0:
197,101,102278,1,8,0:0:0:0:
212,87,102503,1,8,0:0:0:0:
204,93,102728,1,0,0:0:0:0:
201,112,102878,1,0,0:0:0:0:
206,89,103028,1,8,0:0:0:0:
206,89,103253,1,8,0:0:0:0:
194,86,103478,1,8,0:0:0:0:
204,93,103703,1,8,0:0:0:0:
197,101,104228,1,12,0:0:0:0:
192,97,104453,1,8,0:0:0:0:
197,101,104678,1,8,0:0:0:0:
212,87,104903,1,8,0:0:0:0:
204,93,105128,1,0,0:0:0:0:
201,112,105278,1,0,0:0:0:0:
206,89,105428,1,8,0:0:0:0:
209,130,105578,1,8,0:0:0:0:
216,125,105803,1,8,0:0:0:0:
185,133,106028,1,8,0:0:0:0:
204,93,106178,1,8,0:0:0:0:
211,117,106403,1,8,0:0:0:0:
216,125,106553,1,0,0:0:0:0:
214,111,109028,1,0,0:0:0:0:
214,111,109178,1,8,0:0:0:0:
214,111,109328,1,8,0:0:0:0:
221,101,109478,1,8,0:0:0:0:
218,87,109678,1,8,0:0:0:0:
218,87,109878,1,8,0:0:0:0:
228,106,110078,1,8,0:0:0:0:
230,92,110228,1,8,0:0:0:0:
219,101,110378,1,8,0:0:0:0:
219,101,110528,1,8,0:0:0:0:
216,104,110728,1,8,0:0:0:0:
219,94,110928,1,8,0:0:0:0:
219,108,111128,1,8,0:0:0:0:
233,110,111278,1,8,0:0:0:0:
211,105,111428,1,0,0:0:0:0:
217,94,111578,1,0,0:0:0:0:
209,97,111778,1,0,0:0:0:0:
209,97,111978,1,0,0:0:0:0:
201,101,112178,1,0,0:0:0:0:
209,98,112328,1,0,0:0:0:0:
209,98,112478,1,0,0:0:0:0:
209,98,112628,1,0,0:0:0:0:
204,93,112828,1,0,0:0:0:0:
204,93,113028,1,0,0:0:0:0:
204,93,113228,1,8,0:0:0:0:
220,99,113828,1,0,0:0:0:0:
214,111,113978,1,8,0:0:0:0:
214,111,114128,1,8,0:0:0:0:
221,101,114278,1,8,0:0:0:0:
218,87,114478,1,8,0:0:0:0:
218,87,114678,1,8,0:0:0:0:
228,106,114878,1,8,0:0:0:0:
230,92,115028,1,0,0:0:0:0:
219,101,115178,1,8,0:0:0:0:
219,101,115328,1,8,0:0:0:0:
216,104,115528,1,8,0:0:0:0:
219,94,115728,1,8,0:0:0:0:
218,94,115928,1,8,0:0:0:0:
215,96,116078,1,0,0:0:0:0:
215,98,116228,1,8,0:0:0:0:
217,94,116378,1,8,0:0:0:0:
209,97,116578,1,8,0:0:0:0:
209,97,116778,1,8,0:0:0:0:
201,101,116978,1,8,0:0:0:0:
209,98,117128,1,0,0:0:0:0:
209,98,117278,1,8,0:0:0:0:
209,98,117428,1,8,0:0:0:0:
204,93,117628,1,8,0:0:0:0:
204,93,117828,1,8,0:0:0:0:
204,93,118028,1,0,0:0:0:0:
204,93,118628,1,0,0:0:0:0:
204,93,118778,1,0,0:0:0:0:
212,101,118928,1,8,0:0:0:0:
209,97,119078,1,0,0:0:0:0:
230,91,119228,1,8,0:0:0:0:
222,142,119453,1,0,0:0:0:0:
232,150,119528,1,0,0:0:0:0:
224,93,119678,1,8,0:0:0:0:
229,138,119828,1,0,0:0:0:0:
229,138,119978,1,8,0:0:0:0:
216,110,120128,1,8,0:0:0:0:
222,142,120428,1,8,0:0:0:0:
235,134,120528,1,0,0:0:0:0:
218,115,120628,1,0,0:0:0:0:
225,126,120728,1,8,0:0:0:0:
221,116,121028,1,0,0:0:0:0:
219,103,121178,1,8,0:0:0:0:
216,110,121328,1,0,0:0:0:0:
219,110,121478,1,0,0:0:0:0:
218,115,121628,1,8,0:0:0:0:
213,125,121928,1,8,0:0:0:0:
204,118,122078,1,8,0:0:0:0:
205,113,122228,1,0,0:0:0:0:
206,112,122428,1,0,0:0:0:0:
206,112,122628,1,0,0:0:0:0:
220,110,122828,1,8,0:0:0:0:
222,104,123428,1,0,0:0:0:0:
222,104,123578,1,8,0:0:0:0:
225,111,123728,1,8,0:0:0:0:
229,105,123878,1,0,0:0:0:0:
229,105,124028,1,8,0:0:0:0:
232,135,124328,1,8,0:0:0:0:
226,98,124478,1,8,0:0:0:0:
230,97,124628,1,0,0:0:0:0:
230,97,124778,1,8,0:0:0:0:
230,97,124928,1,0,0:0:0:0:
227,98,125228,1,8,0:0:0:0:
235,104,125328,1,0,0:0:0:0:
235,118,125428,1,0,0:0:0:0:
223,118,125528,1,8,0:0:0:0:
233,117,125828,1,0,0:0:0:0:
233,117,125978,1,8,0:0:0:0:
233,111,126128,1,8,0:0:0:0:
233,111,126278,1,0,0:0:0:0:
245,114,126428,1,8,0:0:0:0:
221,124,126728,1,8,0:0:0:0:
222,123,126878,1,8,0:0:0:0:
252,193,127028,1,0,0:0:0:0:
252,193,127228,1,0,0:0:0:0:
253,177,127328,1,8,0:0:0:0:
253,177,127428,1,0,0:0:0:0:
253,177,127628,1,8,0:0:0:0:
214,111,128228,1,0,0:0:0:0:
214,111,128378,1,8,0:0:0:0:
214,111,128528,1,8,0:0:0:0:
221,101,128678,1,8,0:0:0:0:
218,87,128878,1,8,0:0:0:0:
218,87,129078,1,8,0:0:0:0:
228,106,129278,1,8,0:0:0:0:
230,92,129428,1,8,0:0:0:0:
219,101,129578,1,8,0:0:0:0:
219,101,129728,1,8,0:0:0:0:
216,104,129928,1,8,0:0:0:0:
219,94,130128,1,8,0:0:0:0:
218,94,130328,1,8,0:0:0:0:
216,95,130478,1,8,0:0:0:0:
211,105,130628,1,0,0:0:0:0:
217,94,130778,1,0,0:0:0:0:
209,97,130978,1,0,0:0:0:0:
209,97,131178,1,0,0:0:0:0:
201,101,131378,1,0,0:0:0:0:
209,98,131528,1,0,0:0:0:0:
209,98,131678,1,0,0:0:0:0:
209,98,131828,1,0,0:0:0:0:
204,93,132028,1,0,0:0:0:0:
204,93,132228,1,0,0:0:0:0:
204,93,132428,1,8,0:0:0:0:
220,99,133028,1,0,0:0:0:0:
214,111,133178,1,8,0:0:0:0:
214,111,133328,1,8,0:0:0:0:
221,101,133478,1,8,0:0:0:0:
218,87,133678,1,8,0:0:0:0:
218,87,133878,1,8,0:0:0:0:
228,106,134078,1,8,0:0:0:0:
230,92,134228,1,0,0:0:0:0:
219,101,134378,1,8,0:0:0:0:
219,101,134528,1,8,0:0:0:0:
216,104,134728,1,8,0:0:0:0:
219,94,134928,1,8,0:0:0:0:
218,94,135128,1,8,0:0:0:0:
219,101,135278,1,0,0:0:0:0:
215,98,135428,1,8,0:0:0:0:
217,94,135578,1,8,0:0:0:0:
209,97,135778,1,8,0:0:0:0:
209,97,135978,1,8,0:0:0:0:
201,101,136178,1,8,0:0:0:0:
209,98,136328,1,0,0:0:0:0:
209,98,136478,1,8,0:0:0:0:
209,98,136628,1,8,0:0:0:0:
204,93,136828,1,8,0:0:0:0:
204,93,137028,1,8,0:0:0:0:
204,93,137228,1,0,0:0:0:0:
204,93,137828,1,0,0:0:0:0:
204,93,137978,1,0,0:0:0:0:
212,101,138128,1,8,0:0:0:0:
209,97,138278,1,0,0:0:0:0:
230,91,138428,1,8,0:0:0:0:
222,142,138653,1,0,0:0:0:0:
232,150,138728,1,0,0:0:0:0:
224,93,138878,1,8,0:0:0:0:
229,138,139028,1,0,0:0:0:0:
229,138,139178,1,8,0:0:0:0:
216,110,139328,1,8,0:0:0:0:
222,142,139628,1,8,0:0:0:0:
235,134,139728,1,0,0:0:0:0:
218,115,139828,1,0,0:0:0:0:
225,126,139928,1,8,0:0:0:0:
221,116,140228,1,0,0:0:0:0:
219,103,140378,1,8,0:0:0:0:
216,110,140528,1,0,0:0:0:0:
219,110,140678,1,0,0:0:0:0:
218,115,140828,1,8,0:0:0:0:
213,125,141128,1,8,0:0:0:0:
204,118,141278,1,8,0:0:0:0:
205,113,141428,1,0,0:0:0:0:
206,112,141628,1,0,0:0:0:0:
206,112,141828,1,0,0:0:0:0:
220,110,142028,1,8,0:0:0:0:
222,104,142628,1,0,0:0:0:0:
222,104,142778,1,8,0:0:0:0:
225,111,142928,1,8,0:0:0:0:
229,105,143078,1,0,0:0:0:0:
229,105,143228,1,8,0:0:0:0:
232,135,143528,1,8,0:0:0:0:
226,98,143678,1,8,0:0:0:0:
230,97,143828,1,0,0:0:0:0:
230,97,143978,1,8,0:0:0:0:
230,97,144128,1,0,0:0:0:0:
227,98,144428,1,8,0:0:0:0:
235,104,144528,1,0,0:0:0:0:
235,118,144628,1,0,0:0:0:0:
223,118,144728,1,8,0:0:0:0:
233,117,145028,1,0,0:0:0:0:
233,117,145178,1,8,0:0:0:0:
233,111,145328,1,8,0:0:0:0:
233,111,145478,1,0,0:0:0:0:
245,114,145628,1,8,0:0:0:0:
221,124,145928,1,8,0:0:0:0:
222,123,146078,1,8,0:0:0:0:
252,193,146228,1,0,0:0:0:0:
252,193,146428,1,0,0:0:0:0:
253,177,146528,1,8,0:0:0:0:
253,177,146628,1,0,0:0:0:0:
253,177,146828,1,8,0:0:0:0:
239,173,146903,1,8,0:0:0:0:
244,173,147053,1,0,0:0:0:0:
239,173,147128,1,0,0:0:0:0:
247,185,147428,1,4,0:0:0:0:
258,182,147578,1,8,0:0:0:0:
258,182,147728,1,8,0:0:0:0:
255,154,148078,1,8,0:0:0:0:
237,132,148278,1,8,0:0:0:0:
246,164,148478,1,8,0:0:0:0:
254,165,148628,1,8,0:0:0:0:
254,165,148928,1,8,0:0:0:0:
255,165,149128,1,8,0:0:0:0:
255,165,149328,1,8,0:0:0:0:
255,165,149528,1,8,0:0:0:0:
249,153,149828,1,0,0:0:0:0:
255,165,150178,1,0,0:0:0:0:
255,165,150378,1,0,0:0:0:0:
253,147,150578,1,0,0:0:0:0:
254,165,150728,1,0,0:0:0:0:
255,165,151028,1,0,0:0:0:0:
252,153,151228,1,0,0:0:0:0:
252,153,151428,1,0,0:0:0:0:
252,153,151628,1,0,0:0:0:0:
252,153,152228,1,8,0:0:0:0:
252,153,152378,1,8,0:0:0:0:
252,153,152528,1,8,0:0:0:0:
249,145,152878,1,8,0:0:0:0:
249,145,153078,1,8,0:0:0:0:
249,145,153278,1,8,0:0:0:0:
251,138,153428,1,8,0:0:0:0:
251,138,153728,1,8,0:0:0:0:
251,138,153928,1,8,0:0:0:0:
251,138,154128,1,8,0:0:0:0:
251,138,154328,1,8,0:0:0:0:
251,138,154628,1,8,0:0:0:0:
251,138,154778,1,8,0:0:0:0:
251,138,154978,1,8,0:0:0:0:
251,138,155178,1,8,0:0:0:0:
251,138,155378,1,8,0:0:0:0:
251,138,155528,1,8,0:0:0:0:
251,138,155828,1,8,0:0:0:0:
241,127,156028,1,8,0:0:0:0:
241,127,156228,1,8,0:0:0:0:
241,127,156428,1,0,0:0:0:0:
247,185,157028,1,8,0:0:0:0:
247,185,157178,1,8,0:0:0:0:
247,185,157328,1,8,0:0:0:0:
255,154,157678,1,8,0:0:0:0:
237,132,157878,1,8,0:0:0:0:
258,187,158078,1,8,0:0:0:0:
254,165,158228,1,8,0:0:0:0:
254,165,158528,1,8,0:0:0:0:
255,165,158728,1,8,0:0:0:0:
255,165,158928,1,8,0:0:0:0:
255,165,159128,1,8,0:0:0:0:
249,153,159428,1,0,0:0:0:0:
255,165,159778,1,0,0:0:0:0:
255,165,159978,1,0,0:0:0:0:
253,147,160178,1,0,0:0:0:0:
254,165,160328,1,0,0:0:0:0:
255,165,160628,1,0,0:0:0:0:
252,153,160828,1,0,0:0:0:0:
252,153,161028,1,0,0:0:0:0:
252,153,161228,1,0,0:0:0:0:
252,153,161828,1,8,0:0:0:0:
252,153,161978,1,8,0:0:0:0:
252,153,162128,1,8,0:0:0:0:
249,145,162478,1,8,0:0:0:0:
249,145,162678,1,8,0:0:0:0:
249,145,162878,1,8,0:0:0:0:
251,138,163028,1,8,0:0:0:0:
251,138,163328,1,8,0:0:0:0:
251,138,163528,1,8,0:0:0:0:
251,138,163728,1,8,0:0:0:0:
251,138,163928,1,8,0:0:0:0:
251,138,164228,1,8,0:0:0:0:
251,138,164378,1,8,0:0:0:0:
251,138,164578,1,8,0:0:0:0:
251,138,164778,1,8,0:0:0:0:
251,138,164978,1,8,0:0:0:0:
251,138,165128,1,8,0:0:0:0:
251,138,165428,1,8,0:0:0:0:
241,127,165628,1,8,0:0:0:0:
241,127,165828,1,8,0:0:0:0:
241,127,166028,1,0,0:0:0:0:
231,132,166628,1,12,0:0:0:0:
