osu file format v14

[General]
AudioFilename: audio.mp3
AudioLeadIn: 0
PreviewTime: 49028
Countdown: 0
SampleSet: Normal
StackLeniency: 0.7
Mode: 1
LetterboxInBreaks: 0
WidescreenStoryboard: 0

[Editor]
Bookmarks: 4914,9714,19314,28914,33714,38514,48114,67314,76914,86514,96114,108114,117714,127314,136914,165714
DistanceSpacing: 0.9
BeatDivisor: 4
GridSize: 32
TimelineZoom: 3.599999

[Metadata]
Title:METEORITE
TitleUnicode:METEORITE
Artist:Breakchild & II-L
ArtistUnicode:Breakchild & II-L
Creator:WTHBRO
Version:INNER ONI
Source:
Tags:electronic instrumental psy footcore breakcore footwork breakchild re:birth rebirth ai futuristic lovestory good luck 胡桃 chan
BeatmapID:3049699
BeatmapSetID:1487513

[Difficulty]
HPDrainRate:6
CircleSize:3
OverallDifficulty:7
ApproachRate:6
SliderMultiplier:1.4
SliderTickRate:1

[Events]
//Background and Video events
0,0,"space-4401094_1920.jpg",0,0
//Break Periods
//Storyboard Layer 0 (Background)
//Storyboard Layer 1 (Fail)
//Storyboard Layer 2 (Pass)
//Storyboard Layer 3 (Foreground)
//Storyboard Layer 4 (Overlay)
//Storyboard Sound Samples

[TimingPoints]
1028,300,4,1,0,50,1,0
1028,-125,4,1,0,50,0,0
5826,-125,4,1,0,60,0,0
9951,-123.456790123457,4,1,0,50,0,0
10026,-121.951219512195,4,1,0,50,0,0
10101,-120.481927710843,4,1,0,50,0,0
10176,-119.047619047619,4,1,0,50,0,0
10251,-117.647058823529,4,1,0,50,0,0
10326,-116.279069767442,4,1,0,50,0,0
10401,-114.942528735632,4,1,0,50,0,0
10476,-113.636363636364,4,1,0,50,0,0
10551,-112.359550561798,4,1,0,50,0,0
10626,-111.111111111111,4,1,0,70,0,0
19626,-111.111111111111,4,1,0,70,0,0
19776,-108.138269917447,4,1,0,70,0,0
19851,-106.710716850583,4,1,0,70,0,0
20001,-103.965666378335,4,1,0,70,0,0
20151,-101.35840534848,4,1,0,70,0,0
20226,-90.9090909090909,4,1,0,70,0,0
20526,-100,4,1,0,70,0,0
29826,-90.9090909090909,4,1,0,70,0,0
29976,-100,4,1,0,70,0,0
39426,-90.9090909090909,4,1,0,70,0,0
39651,-100,4,1,0,70,0,0
46626,-100,4,1,0,70,0,0
46776,-99.3395904030009,4,1,0,70,0,0
46851,-99.0126458951337,4,1,0,70,0,0
46926,-98.6878463943409,4,1,0,70,0,0
47001,-98.3651708603018,4,1,0,70,0,0
47076,-98.0445023996392,4,1,0,70,0,0
47226,-97.4095868567193,4,1,0,70,0,0
47376,-96.7828415635849,4,1,0,70,0,0
47451,-96.472483635855,4,1,0,70,0,0
47601,-95.8577011597823,4,1,0,70,0,0
47751,-95.2507046170874,4,1,0,70,0,0
47826,-94.9499898403511,4,1,0,70,0,0
47901,-94.6512574419551,4,1,0,70,0,0
47976,-94.0593966277825,4,1,0,70,0,0
48126,-93.7662332791365,4,1,0,70,0,0
48276,-93.1853549896098,4,1,0,70,0,0
48426,-92.6116294275305,4,1,0,70,0,0
48501,-92.3274077603033,4,1,0,70,0,0
48576,-92.0448405645294,4,1,0,70,0,0
48651,-91.7640818865961,4,1,0,70,0,0
48801,-91.2076716596787,4,1,0,70,0,0
48876,-90.9319892372898,4,1,0,70,0,0
49028,-83.3333333333333,4,1,0,90,0,1
49176,-90.9090909090909,4,1,0,90,0,1
54876,-86.2068965517241,4,1,0,90,0,1
54926,-87.719298245614,4,1,0,90,0,1
54976,-89.2857142857143,4,1,0,90,0,1
55026,-90.9090909090909,4,1,0,90,0,1
56076,-86.2068965517241,4,1,0,90,0,1
56126,-87.719298245614,4,1,0,90,0,1
56176,-89.2857142857143,4,1,0,90,0,1
56226,-90.9090909090909,4,1,0,90,0,1
57276,-86.2068965517241,4,1,0,90,0,1
57326,-87.719298245614,4,1,0,90,0,1
57376,-89.2857142857143,4,1,0,90,0,1
57426,-90.9090909090909,4,1,0,90,0,1
59076,-83.3333333333333,4,1,0,90,0,1
59826,-90.9090909090909,4,1,0,90,0,1
62076,-86.2068965517241,4,1,0,90,0,1
62126,-87.719298245614,4,1,0,90,0,1
62176,-89.2857142857143,4,1,0,90,0,1
62226,-90.9090909090909,4,1,0,90,0,1
63276,-86.2068965517241,4,1,0,90,0,1
63326,-87.719298245614,4,1,0,90,0,1
63376,-89.2857142857143,4,1,0,90,0,1
63426,-90.9090909090909,4,1,0,90,0,1
64476,-86.2068965517241,4,1,0,90,0,1
64526,-87.719298245614,4,1,0,90,0,1
64576,-89.2857142857143,4,1,0,90,0,1
64626,-90.9090909090909,4,1,0,90,0,1
66876,-86.2068965517241,4,1,0,90,0,1
66926,-87.719298245614,4,1,0,90,0,1
66976,-89.2857142857143,4,1,0,90,0,1
67026,-90.9090909090909,4,1,0,90,0,1
68228,-83.3333333333333,4,1,0,70,0,0
68376,-100,4,1,0,70,0,0
77826,-83.3333333333333,4,1,0,90,0,0
77976,-95.2380952380952,4,1,0,90,0,0
82626,-95.2380952380952,4,1,0,90,0,0
82701,-94.9559404436341,4,1,0,90,0,0
82776,-94.6755421831612,4,1,0,90,0,0
82851,-94.3967059325498,4,1,0,90,0,0
82926,-94.1195958881031,4,1,0,90,0,0
83001,-93.844019977515,4,1,0,90,0,0
83076,-93.5700530916481,4,1,0,90,0,0
83151,-93.2977682240863,4,1,0,90,0,0
83226,-93.0269768930292,4,1,0,90,0,0
83301,-92.7578389649709,4,1,0,90,0,0
83376,-92.4901682951102,4,1,0,90,0,0
83451,-92.2241230638698,4,1,0,90,0,0
83526,-91.9595194195515,4,1,0,90,0,0
83601,-91.6964297995058,4,1,0,90,0,0
83676,-91.4349248496353,4,1,0,90,0,0
83751,-91.1748240781769,4,1,0,90,0,0
83826,-90.9162815604507,4,1,0,90,0,0
83901,-90.6591189928135,4,1,0,90,0,0
83976,-90.4034071236077,4,1,0,90,0,0
84051,-90.1492149806359,4,1,0,90,0,0
84126,-89.8963674675834,4,1,0,90,0,0
84201,-89.6450147062647,4,1,0,90,0,0
84276,-89.3949836898852,4,1,0,90,0,0
84351,-89.1464229997771,4,1,0,90,0,0
84426,-88.8991616809054,4,1,0,90,0,0
84501,-88.6532682027323,4,1,0,90,0,0
84576,-88.4088094074046,4,1,0,90,0,0
84651,-88.1656173488775,4,1,0,90,0,0
84726,-87.9238368555622,4,1,0,90,0,0
84801,-87.6833019427112,4,1,0,90,0,0
84876,-87.4440795111526,4,1,0,90,0,0
84951,-87.2062348969702,4,1,0,90,0,0
85026,-86.9696049927511,4,1,0,90,0,0
85101,-86.7343310094315,4,1,0,90,0,0
85176,-86.5002517157325,4,1,0,90,0,0
85251,-86.267506912184,4,1,0,90,0,0
85326,-86.035937210973,4,1,0,90,0,0
85401,-85.8056073964434,4,1,0,90,0,0
85476,-85.5765807706,4,1,0,90,0,0
85551,-85.3487006513813,4,1,0,90,0,0
85626,-85.1221034012239,4,1,0,90,0,0
85701,-84.8966341031477,4,1,0,90,0,0
85776,-84.6723560845132,4,1,0,90,0,0
85851,-84.4493312457459,4,1,0,90,0,0
85926,-84.2274072614132,4,1,0,90,0,0
86001,-84.0067171771055,4,1,0,90,0,0
86076,-83.7871103585167,4,1,0,90,0,0
86151,-83.5687185572696,4,1,0,90,0,0
86226,-83.3513928017737,4,1,0,90,0,0
86376,-85.3535086266791,4,1,0,90,0,0
86526,-87.4741404572273,4,1,0,90,0,0
86676,-89.7027519907283,4,1,0,90,0,0
86826,-92.0478906765612,4,1,0,90,0,0
86901,-93.2671385362096,4,1,0,90,0,0
86976,-94.5190304615931,4,1,0,90,0,0
87051,-95.804987032795,4,1,0,90,0,0
87126,-97.1264178028839,4,1,0,90,0,0
87276,-99.8818397835361,4,1,0,90,0,0
87428,-80,4,1,0,90,0,1
87651,-86.9565217391304,4,1,0,90,0,1
89826,-80,4,1,0,90,0,1
90051,-86.9565217391304,4,1,0,90,0,1
92226,-80,4,1,0,90,0,1
92451,-86.9565217391304,4,1,0,90,0,1
94626,-80,4,1,0,90,0,1
94851,-86.9565217391304,4,1,0,90,0,1
97026,-80,4,1,0,90,0,1
97251,-86.9565217391304,4,1,0,90,0,1
99426,-80,4,1,0,90,0,1
99651,-86.9565217391304,4,1,0,90,0,1
101826,-80,4,1,0,90,0,1
102051,-86.9565217391304,4,1,0,90,0,1
104226,-80,4,1,0,90,0,1
104376,-86.9565217391304,4,1,0,90,0,1
104451,-86.8171613219128,4,1,0,90,0,1
104601,-86.5397762773704,4,1,0,90,0,1
104676,-86.4016727363842,4,1,0,90,0,1
104751,-86.2640836899634,4,1,0,90,0,1
104826,-86.1269321500641,4,1,0,90,0,1
104901,-85.9902160332198,4,1,0,90,0,1
104976,-85.8539332691718,4,1,0,90,0,1
105126,-85.5825863399922,4,1,0,90,0,1
105201,-85.4475915741839,4,1,0,90,0,1
105351,-85.1788756388416,4,1,0,90,0,1
105426,-85.0451504703847,4,1,0,90,0,1
105501,-84.9118445230162,4,1,0,90,0,1
105576,-84.7789558284684,4,1,0,90,0,1
105651,-84.6464107805669,4,1,0,90,0,1
105726,-84.5143509593647,4,1,0,90,0,1
105801,-84.3827025585679,4,1,0,90,0,1
105876,-84.2514636585524,4,1,0,90,0,1
106026,-83.9902067418939,4,1,0,90,0,1
106176,-83.7304949811941,4,1,0,90,0,1
106251,-83.6012754210578,4,1,0,90,0,1
106401,-83.3440291504076,4,1,0,90,0,1
106553,-111.111111111111,4,1,0,60,0,0
107976,-100,4,1,0,60,0,0
108276,-111.111111111111,4,1,0,60,0,0
108426,-100,4,1,0,60,0,0
109028,-90.9090909090909,4,1,0,90,0,1
113826,-86.9565217391304,4,1,0,90,0,1
118628,-90.9090909090909,4,1,0,90,0,0
128228,-90.9090909090909,4,1,0,90,0,1
133026,-86.9565217391304,4,1,0,90,0,1
137828,-90.9090909090909,4,1,0,90,0,0
147426,-100,4,1,0,70,0,0
147576,-100.1564443661,4,1,0,70,0,0
147726,-100.313378995983,4,1,0,70,0,0
147876,-100.470806197843,4,1,0,70,0,0
148076,-100.681513162598,4,1,0,70,0,0
148276,-100.893003978211,4,1,0,70,0,0
148476,-101.105487399223,4,1,0,70,0,0
148626,-101.265412595797,4,1,0,70,0,0
148776,-101.425844522294,4,1,0,70,0,0
148926,-101.58678559093,4,1,0,70,0,0
149126,-101.802204424935,4,1,0,70,0,0
149326,-102.018434731156,4,1,0,70,0,0
149526,-102.235690070461,4,1,0,70,0,0
149676,-102.39921357404,4,1,0,70,0,0
149826,-102.563261019397,4,1,0,70,0,0
149976,-102.727834928697,4,1,0,70,0,0
150176,-102.948125469057,4,1,0,70,0,0
150376,-103.169256386951,4,1,0,70,0,0
150576,-103.391446218871,4,1,0,70,0,0
150726,-103.558690852454,4,1,0,70,0,0
150876,-103.726477428081,4,1,0,70,0,0
151026,-103.894808584205,4,1,0,70,0,0
151226,-104.120029570088,4,1,0,70,0,0
151426,-104.34633801744,4,1,0,70,0,0
151626,-104.573632386036,4,1,0,70,0,0
151851,-104.830483866064,4,1,0,70,0,0
152076,-105.088600198828,4,1,0,70,0,0
152226,-105.261385071409,4,1,0,70,0,0
152376,-105.434739059564,4,1,0,70,0,0
152526,-105.608664979744,4,1,0,70,0,0
152676,-105.783165667016,4,1,0,70,0,0
152851,-105.9874426078,4,1,0,70,0,0
153076,-106.251294937657,4,1,0,70,0,0
153276,-106.486973448538,4,1,0,70,0,0
153426,-106.664391159655,4,1,0,70,0,0
153576,-106.84240104791,4,1,0,70,0,0
153726,-107.021006083074,4,1,0,70,0,0
153926,-107.260000386136,4,1,0,70,0,0
154126,-107.500180062802,4,1,0,70,0,0
154326,-107.741437787939,4,1,0,70,0,0
154476,-107.923063806274,4,1,0,70,0,0
154626,-108.105303213754,4,1,0,70,0,0
154776,-108.288159122953,4,1,0,70,0,0
154976,-108.532852894571,4,1,0,70,0,0
155176,-108.778773345284,4,1,0,70,0,0
155376,-109.025810770442,4,1,0,70,0,0
155526,-109.211796621424,4,1,0,70,0,0
155676,-109.398418098874,4,1,0,70,0,0
155826,-109.585678466853,4,1,0,70,0,0
156026,-109.836278043948,4,1,0,70,0,0
156226,-110.088147579767,4,1,0,70,0,0
156426,-110.341053161216,4,1,0,70,0,0
156651,-110.627056280409,4,1,0,70,0,0
156876,-110.914545888121,4,1,0,70,0,0
157026,-111.107037186414,4,1,0,70,0,0
157176,-111.300197780451,4,1,0,70,0,0
157326,-111.494031167041,4,1,0,70,0,0
157476,-111.688540867396,4,1,0,70,0,0
157676,-111.948987085565,4,1,0,70,0,0
157876,-112.210650810554,4,1,0,70,0,0
158076,-112.473414096743,4,1,0,70,0,0
158226,-112.6713590532,4,1,0,70,0,0
158376,-112.870001975225,4,1,0,70,0,0
158526,-113.069346560939,4,1,0,70,0,0
158726,-113.336280076615,4,1,0,70,0,0
158926,-113.604476925227,4,1,0,70,0,0
159126,-113.873816424021,4,1,0,70,0,0
159276,-114.076725724188,4,1,0,70,0,0
159426,-114.280359434587,4,1,0,70,0,0
159576,-114.4847214415,4,1,0,70,0,0
159776,-114.758387690556,4,1,0,70,0,0
159976,-115.033365427642,4,1,0,70,0,0
160176,-115.309531139915,4,1,0,70,0,0
160326,-115.51759390714,4,1,0,70,0,0
160476,-115.726408882233,4,1,0,70,0,0
160626,-115.93598015176,4,1,0,70,0,0
160826,-116.216637108902,4,1,0,70,0,0
161026,-116.498656188001,4,1,0,70,0,0
161226,-116.781910949122,4,1,0,70,0,0
161451,-117.102326354815,4,1,0,70,0,0
161676,-117.424504850219,4,1,0,70,0,0
161826,-117.640277207549,4,1,0,70,0,0
161976,-117.85684400586,4,1,0,70,0,0
162126,-118.074209640759,4,1,0,70,0,0
162276,-118.292378540343,4,1,0,70,0,0
162451,-118.54788326827,4,1,0,70,0,0
162676,-118.878076267419,4,1,0,70,0,0
162876,-119.173176501433,4,1,0,70,0,0
163026,-119.395429304175,4,1,0,70,0,0
163176,-119.61851263949,4,1,0,70,0,0
163326,-119.842431171496,4,1,0,70,0,0
163526,-120.142344649941,4,1,0,70,0,0
163726,-120.443617933573,4,1,0,70,0,0
163926,-120.746551780348,4,1,0,70,0,0
164076,-120.974717493791,4,1,0,70,0,0
164226,-121.203747135046,4,1,0,70,0,0
164376,-121.433645620192,4,1,0,70,0,0
164576,-121.741586438961,4,1,0,70,0,0
164776,-122.050944064052,4,1,0,70,0,0
164976,-122.362027636688,4,1,0,70,0,0
165126,-122.596345402944,4,1,0,70,0,0
165276,-122.831562306924,4,1,0,70,0,0
165426,-123.067683533913,4,1,0,70,0,0
165626,-123.383978343644,4,1,0,70,0,0
165826,-123.701750132361,4,1,0,70,0,0
166026,-124.021316783929,4,1,0,70,0,0
166251,-124.382750600147,4,1,0,70,0,0
166476,-124.746297218033,4,1,0,70,0,0
166626,-124.989844575128,4,1,0,70,0,0

[HitObjects]
245,165,1028,5,0,0:0:0:0:
236,160,1253,1,0,0:0:0:0:
236,160,1403,1,0,0:0:0:0:
237,175,1628,1,0,0:0:0:0:
237,175,1778,1,0,0:0:0:0:
237,175,2003,1,0,0:0:0:0:
234,170,2228,1,0,0:0:0:0:
234,170,2378,1,0,0:0:0:0:
234,170,2603,1,0,0:0:0:0:
231,174,2828,1,0,0:0:0:0:
229,175,2978,1,0,0:0:0:0:
218,178,3203,1,0,0:0:0:0:
218,178,3428,1,0,0:0:0:0:
219,189,3653,1,0,0:0:0:0:
219,189,3803,1,0,0:0:0:0:
219,189,4028,1,0,0:0:0:0:
219,189,4178,1,0,0:0:0:0:
224,189,4403,1,0,0:0:0:0:
224,189,4628,1,0,0:0:0:0:
224,189,4778,1,0,0:0:0:0:
220,181,5003,1,0,0:0:0:0:
220,181,5228,1,0,0:0:0:0:
220,181,5378,1,0,0:0:0:0:
220,181,5603,1,0,0:0:0:0:
245,165,5828,1,0,0:0:0:0:
245,165,6053,1,0,0:0:0:0:
245,165,6128,1,8,0:0:0:0:
236,160,6203,1,0,0:0:0:0:
237,175,6428,1,0,0:0:0:0:
237,175,6578,1,0,0:0:0:0:
237,175,6803,1,0,0:0:0:0:
234,170,7028,1,0,0:0:0:0:
234,170,7178,1,0,0:0:0:0:
231,198,7328,1,8,0:0:0:0:
234,170,7403,1,0,0:0:0:0:
231,174,7628,1,0,0:0:0:0:
229,175,7778,1,0,0:0:0:0:
218,178,8003,1,0,0:0:0:0:
218,178,8228,1,0,0:0:0:0:
219,189,8453,1,0,0:0:0:0:
231,198,8528,1,8,0:0:0:0:
219,189,8603,1,0,0:0:0:0:
219,189,8828,1,0,0:0:0:0:
219,189,8978,1,0,0:0:0:0:
224,189,9203,1,0,0:0:0:0:
224,189,9428,1,0,0:0:0:0:
224,189,9578,1,0,0:0:0:0:
231,198,9728,1,8,0:0:0:0:
220,181,9803,1,0,0:0:0:0:
219,182,10028,1,8,0:0:0:0:
219,182,10178,1,8,0:0:0:0:
207,180,10403,1,8,0:0:0:0:
207,180,10553,1,8,0:0:0:0:
207,180,10628,1,0,0:0:0:0:
207,180,10853,1,0,0:0:0:0:
207,180,10928,1,8,0:0:0:0:
207,180,11003,1,0,0:0:0:0:
207,180,11228,1,8,0:0:0:0:
207,180,11378,1,0,0:0:0:0:
202,172,11528,1,0,0:0:0:0:
203,175,11603,1,8,0:0:0:0:
207,180,11828,1,8,0:0:0:0:
207,180,11978,1,0,0:0:0:0:
207,180,12128,1,8,0:0:0:0:
207,180,12203,1,0,0:0:0:0:
207,180,12428,1,8,0:0:0:0:
208,175,12578,1,8,0:0:0:0:
208,175,12728,1,0,0:0:0:0:
208,175,12803,1,8,0:0:0:0:
208,175,13028,1,8,0:0:0:0:
208,175,13253,1,0,0:0:0:0:
208,175,13328,1,8,0:0:0:0:
208,175,13403,1,0,0:0:0:0:
213,171,13628,1,8,0:0:0:0:
213,171,13778,1,0,0:0:0:0:
213,171,13928,1,0,0:0:0:0:
213,171,14003,1,8,0:0:0:0:
215,167,14153,1,8,0:0:0:0:
215,167,14228,1,8,0:0:0:0:
215,167,14378,1,8,0:0:0:0:
213,171,14528,1,8,0:0:0:0:
213,171,14603,1,0,0:0:0:0:
208,146,14828,1,8,0:0:0:0:
208,146,14978,1,8,0:0:0:0:
208,146,15053,1,8,0:0:0:0:
208,146,15203,1,8,0:0:0:0:
208,146,15353,1,8,0:0:0:0:
208,146,15428,1,0,0:0:0:0:
219,160,15653,1,0,0:0:0:0:
219,160,15728,1,8,0:0:0:0:
219,160,15803,1,0,0:0:0:0:
219,160,16028,1,8,0:0:0:0:
219,160,16178,1,0,0:0:0:0:
223,141,16328,1,0,0:0:0:0:
223,141,16403,1,8,0:0:0:0:
219,160,16628,1,8,0:0:0:0:
219,160,16778,1,0,0:0:0:0:
219,160,16928,1,8,0:0:0:0:
219,160,17003,1,0,0:0:0:0:
219,160,17228,1,8,0:0:0:0:
219,160,17378,1,8,0:0:0:0:
219,160,17528,1,0,0:0:0:0:
219,160,17603,1,8,0:0:0:0:
219,160,17828,1,8,0:0:0:0:
213,146,18053,1,0,0:0:0:0:
213,146,18128,1,8,0:0:0:0:
213,146,18203,1,0,0:0:0:0:
213,146,18428,1,8,0:0:0:0:
213,146,18578,1,0,0:0:0:0:
213,146,18728,1,0,0:0:0:0:
213,146,18803,1,0,0:0:0:0:
213,146,18953,1,8,0:0:0:0:
213,146,19028,1,0,0:0:0:0:
213,146,19178,1,8,0:0:0:0:
213,146,19328,1,8,0:0:0:0:
213,146,19403,1,0,0:0:0:0:
213,146,19628,1,8,0:0:0:0:
213,146,19778,1,8,0:0:0:0:
213,146,19853,1,0,0:0:0:0:
213,146,20003,1,8,0:0:0:0:
213,146,20153,1,8,0:0:0:0:
213,146,20228,5,4,0:0:0:0:
211,151,20528,1,8,0:0:0:0:
207,151,20678,1,0,0:0:0:0:
205,150,20828,1,0,0:0:0:0:
205,150,20903,1,0,0:0:0:0:
205,150,20978,1,8,0:0:0:0:
203,149,21128,1,8,0:0:0:0:
196,140,21278,1,0,0:0:0:0:
213,138,21428,1,0,0:0:0:0:
203,141,21578,1,0,0:0:0:0:
203,141,21653,1,0,0:0:0:0:
203,141,21728,1,8,0:0:0:0:
203,141,21803,1,8,0:0:0:0:
203,141,21878,1,0,0:0:0:0:
203,141,22028,1,0,0:0:0:0:
203,141,22178,1,8,0:0:0:0:
203,141,22328,1,8,0:0:0:0:
203,141,22403,1,8,0:0:0:0:
203,141,22478,1,0,0:0:0:0:
203,141,22628,1,0,0:0:0:0:
203,141,22778,1,0,0:0:0:0:
203,141,22853,1,0,0:0:0:0:
203,141,22928,1,8,0:0:0:0:
209,142,23078,1,0,0:0:0:0:
203,141,23228,1,0,0:0:0:0:
206,135,23378,1,8,0:0:0:0:
206,135,23528,1,8,0:0:0:0:
213,128,23603,1,8,0:0:0:0:
206,135,23678,1,0,0:0:0:0:
214,123,23828,1,0,0:0:0:0:
213,123,23978,1,0,0:0:0:0:
204,150,24128,1,8,0:0:0:0:
204,150,24203,1,8,0:0:0:0:
204,150,24278,1,0,0:0:0:0:
204,150,24353,1,0,0:0:0:0:
213,141,24428,1,0,0:0:0:0:
213,144,24578,1,8,0:0:0:0:
208,146,24728,1,0,0:0:0:0:
208,146,24803,1,0,0:0:0:0:
208,146,24878,1,0,0:0:0:0:
208,146,25028,1,8,0:0:0:0:
208,146,25178,1,0,0:0:0:0:
208,146,25253,1,0,0:0:0:0:
208,146,25328,1,8,0:0:0:0:
213,146,25478,1,0,0:0:0:0:
209,153,25628,1,8,0:0:0:0:
208,152,25703,1,8,0:0:0:0:
208,152,25778,1,0,0:0:0:0:
208,152,25853,1,0,0:0:0:0:
208,152,25928,1,8,0:0:0:0:
211,149,26003,1,0,0:0:0:0:
211,149,26078,1,0,0:0:0:0:
211,149,26228,1,8,0:0:0:0:
213,146,26378,1,0,0:0:0:0:
213,146,26528,1,8,0:0:0:0:
209,153,26603,1,8,0:0:0:0:
208,152,26678,1,0,0:0:0:0:
207,157,26828,1,8,0:0:0:0:
207,157,26978,1,8,0:0:0:0:
214,166,27128,1,0,0:0:0:0:
214,166,27203,1,0,0:0:0:0:
207,157,27278,1,0,0:0:0:0:
214,166,27353,1,0,0:0:0:0:
214,166,27428,1,8,0:0:0:0:
225,167,27578,1,0,0:0:0:0:
212,162,27653,1,8,0:0:0:0:
212,162,27728,1,8,0:0:0:0:
212,162,27803,1,8,0:0:0:0:
217,160,27878,1,0,0:0:0:0:
216,149,28028,1,8,0:0:0:0:
216,149,28178,1,8,0:0:0:0:
216,149,28328,1,0,0:0:0:0:
216,149,28403,1,8,0:0:0:0:
216,149,28628,1,0,0:0:0:0:
216,149,28778,1,0,0:0:0:0:
216,149,28928,1,8,0:0:0:0:
216,149,29003,1,0,0:0:0:0:
216,149,29153,1,0,0:0:0:0:
216,149,29228,1,0,0:0:0:0:
216,149,29378,1,0,0:0:0:0:
216,149,29528,1,8,0:0:0:0:
212,160,29603,1,0,0:0:0:0:
218,159,29828,5,12,0:0:0:0:
216,149,29978,1,0,0:0:0:0:
216,149,30053,1,0,0:0:0:0:
216,149,30128,1,8,0:0:0:0:
216,149,30203,1,8,0:0:0:0:
207,134,30278,1,0,0:0:0:0:
214,143,30428,1,8,0:0:0:0:
214,143,30578,1,8,0:0:0:0:
214,143,30728,1,0,0:0:0:0:
214,143,30803,1,8,0:0:0:0:
213,143,30878,1,0,0:0:0:0:
213,143,31028,1,0,0:0:0:0:
212,142,31178,1,8,0:0:0:0:
225,135,31328,1,0,0:0:0:0:
225,135,31403,1,8,0:0:0:0:
195,123,31478,1,0,0:0:0:0:
228,141,31628,1,8,0:0:0:0:
222,130,31778,1,8,0:0:0:0:
225,134,31853,1,8,0:0:0:0:
195,123,31928,1,0,0:0:0:0:
222,130,32003,1,8,0:0:0:0:
230,115,32078,1,0,0:0:0:0:
218,159,32228,1,8,0:0:0:0:
216,149,32378,1,0,0:0:0:0:
216,149,32453,1,8,0:0:0:0:
216,149,32528,1,8,0:0:0:0:
216,149,32603,1,8,0:0:0:0:
207,134,32678,1,0,0:0:0:0:
214,143,32828,1,8,0:0:0:0:
214,143,32978,1,8,0:0:0:0:
214,143,33128,1,0,0:0:0:0:
214,143,33203,1,8,0:0:0:0:
213,143,33278,1,0,0:0:0:0:
213,143,33428,1,0,0:0:0:0:
212,142,33578,1,8,0:0:0:0:
198,116,33653,1,0,0:0:0:0:
225,135,33728,1,0,0:0:0:0:
225,135,33803,1,8,0:0:0:0:
195,123,33878,1,0,0:0:0:0:
228,141,34028,1,8,0:0:0:0:
222,130,34178,1,8,0:0:0:0:
195,123,34328,1,0,0:0:0:0:
222,130,34403,1,0,0:0:0:0:
230,115,34478,1,0,0:0:0:0:
218,159,34628,1,8,0:0:0:0:
216,149,34778,1,0,0:0:0:0:
216,149,34853,1,0,0:0:0:0:
216,149,34928,1,8,0:0:0:0:
216,149,35003,1,0,0:0:0:0:
207,134,35078,1,0,0:0:0:0:
214,143,35228,1,8,0:0:0:0:
214,143,35378,1,8,0:0:0:0:
214,143,35528,1,8,0:0:0:0:
214,143,35603,1,8,0:0:0:0:
213,143,35678,1,0,0:0:0:0:
213,143,35828,1,0,0:0:0:0:
212,142,35978,1,8,0:0:0:0:
225,135,36128,1,0,0:0:0:0:
225,135,36203,1,8,0:0:0:0:
195,123,36278,1,0,0:0:0:0:
228,141,36428,1,8,0:0:0:0:
222,130,36578,1,8,0:0:0:0:
217,119,36653,1,8,0:0:0:0:
195,123,36728,1,0,0:0:0:0:
222,130,36803,1,8,0:0:0:0:
230,115,36878,1,8,0:0:0:0:
217,119,36953,1,8,0:0:0:0:
217,119,37028,1,0,0:0:0:0:
221,114,37253,1,0,0:0:0:0:
221,114,37328,1,8,0:0:0:0:
221,114,37403,1,0,0:0:0:0:
195,127,37478,1,0,0:0:0:0:
211,129,37628,1,8,0:0:0:0:
211,129,37778,1,8,0:0:0:0:
208,114,38003,1,8,0:0:0:0:
208,114,38078,1,0,0:0:0:0:
212,129,38228,1,0,0:0:0:0:
212,129,38378,1,0,0:0:0:0:
212,129,38453,1,0,0:0:0:0:
212,129,38528,1,8,0:0:0:0:
211,129,38603,1,0,0:0:0:0:
211,129,38753,1,0,0:0:0:0:
211,129,38828,1,8,0:0:0:0:
212,129,38903,1,8,0:0:0:0:
212,129,38978,1,0,0:0:0:0:
212,129,39053,1,8,0:0:0:0:
217,132,39203,1,0,0:0:0:0:
217,132,39278,1,8,0:0:0:0:
224,146,39428,5,4,0:0:0:0:
224,147,39653,1,0,0:0:0:0:
224,147,39728,1,8,0:0:0:0:
224,147,39803,1,0,0:0:0:0:
224,147,39878,1,0,0:0:0:0:
224,147,40028,1,8,0:0:0:0:
224,147,40178,1,8,0:0:0:0:
224,147,40253,1,0,0:0:0:0:
224,146,40403,1,8,0:0:0:0:
209,133,40478,1,0,0:0:0:0:
224,147,40553,1,8,0:0:0:0:
224,147,40628,1,0,0:0:0:0:
224,147,40703,1,8,0:0:0:0:
230,141,40778,1,0,0:0:0:0:
230,141,40928,1,8,0:0:0:0:
222,130,41078,1,0,0:0:0:0:
222,130,41228,1,8,0:0:0:0:
218,115,41303,1,0,0:0:0:0:
218,115,41378,1,0,0:0:0:0:
214,108,41453,1,8,0:0:0:0:
216,109,41603,1,8,0:0:0:0:
220,119,41678,1,8,0:0:0:0:
220,119,41828,1,0,0:0:0:0:
232,110,42053,1,0,0:0:0:0:
232,110,42128,1,8,0:0:0:0:
232,110,42203,1,0,0:0:0:0:
232,110,42278,1,0,0:0:0:0:
232,110,42428,1,8,0:0:0:0:
232,110,42578,1,0,0:0:0:0:
232,110,42653,1,0,0:0:0:0:
232,110,42803,1,8,0:0:0:0:
222,110,42878,1,0,0:0:0:0:
232,110,42953,1,8,0:0:0:0:
232,110,43028,1,0,0:0:0:0:
232,110,43103,1,8,0:0:0:0:
232,110,43178,1,0,0:0:0:0:
232,110,43328,1,8,0:0:0:0:
226,114,43478,1,0,0:0:0:0:
231,95,43628,1,8,0:0:0:0:
231,95,43703,1,0,0:0:0:0:
227,99,43778,1,0,0:0:0:0:
227,99,43853,1,8,0:0:0:0:
227,106,44003,1,0,0:0:0:0:
233,116,44078,1,8,0:0:0:0:
224,102,44153,1,8,0:0:0:0:
224,102,44228,1,0,0:0:0:0:
225,101,44378,1,0,0:0:0:0:
225,101,44453,1,0,0:0:0:0:
225,101,44528,1,8,0:0:0:0:
225,101,44603,1,8,0:0:0:0:
228,110,44678,1,0,0:0:0:0:
227,104,44828,1,8,0:0:0:0:
227,105,44978,1,8,0:0:0:0:
229,109,45053,1,0,0:0:0:0:
225,110,45203,1,8,0:0:0:0:
232,113,45278,1,0,0:0:0:0:
222,95,45353,1,8,0:0:0:0:
222,95,45428,1,0,0:0:0:0:
225,110,45503,1,8,0:0:0:0:
222,95,45578,1,0,0:0:0:0:
233,106,45728,1,8,0:0:0:0:
233,105,45878,1,0,0:0:0:0:
221,105,46028,1,8,0:0:0:0:
212,114,46103,1,0,0:0:0:0:
220,87,46178,1,8,0:0:0:0:
220,87,46253,1,8,0:0:0:0:
222,95,46403,1,8,0:0:0:0:
221,93,46478,1,0,0:0:0:0:
222,95,46628,1,0,0:0:0:0:
222,98,46778,1,8,0:0:0:0:
225,90,46853,1,0,0:0:0:0:
225,90,46928,1,8,0:0:0:0:
228,92,47003,1,0,0:0:0:0:
228,92,47078,1,0,0:0:0:0:
231,93,47228,1,8,0:0:0:0:
231,93,47378,1,8,0:0:0:0:
231,93,47453,1,0,0:0:0:0:
222,95,47603,1,8,0:0:0:0:
232,113,47678,1,0,0:0:0:0:
222,98,47753,1,8,0:0:0:0:
223,97,47828,1,0,0:0:0:0:
223,97,47903,1,8,0:0:0:0:
233,106,47978,1,0,0:0:0:0:
231,105,48128,1,8,0:0:0:0:
221,118,48278,1,0,0:0:0:0:
221,118,48428,1,8,0:0:0:0:
221,118,48503,1,8,0:0:0:0:
221,118,48578,1,0,0:0:0:0:
221,118,48653,1,8,0:0:0:0:
225,125,48803,1,0,0:0:0:0:
225,125,48878,1,8,0:0:0:0:
242,178,49028,5,4,0:0:0:0:
248,180,49178,1,0,0:0:0:0:
248,180,49253,1,0,0:0:0:0:
248,180,49328,1,8,0:0:0:0:
256,170,49478,1,0,0:0:0:0:
253,169,49628,1,8,0:0:0:0:
252,169,49778,1,0,0:0:0:0:
252,169,49853,1,8,0:0:0:0:
252,168,50003,1,8,0:0:0:0:
252,168,50078,1,0,0:0:0:0:
250,158,50228,1,8,0:0:0:0:
250,158,50378,1,0,0:0:0:0:
249,152,50453,1,0,0:0:0:0:
250,158,50528,1,8,0:0:0:0:
261,142,50603,1,8,0:0:0:0:
263,149,50678,1,0,0:0:0:0:
251,149,50828,1,8,0:0:0:0:
256,158,50978,1,8,0:0:0:0:
256,158,51053,1,0,0:0:0:0:
255,157,51128,1,8,0:0:0:0:
250,158,51203,1,8,0:0:0:0:
255,157,51278,1,0,0:0:0:0:
255,157,51428,1,0,0:0:0:0:
255,157,51503,1,0,0:0:0:0:
255,157,51578,1,0,0:0:0:0:
255,157,51653,1,0,0:0:0:0:
255,152,51728,1,8,0:0:0:0:
255,152,51878,1,0,0:0:0:0:
255,152,52028,1,8,0:0:0:0:
259,167,52103,1,0,0:0:0:0:
259,167,52178,1,0,0:0:0:0:
259,166,52253,1,0,0:0:0:0:
255,157,52328,1,8,0:0:0:0:
255,157,52478,1,8,0:0:0:0:
256,184,52628,1,0,0:0:0:0:
256,184,52703,1,0,0:0:0:0:
256,184,52778,1,8,0:0:0:0:
256,184,52853,1,8,0:0:0:0:
256,184,52928,1,0,0:0:0:0:
256,184,53003,1,0,0:0:0:0:
256,184,53078,1,8,0:0:0:0:
256,184,53153,1,0,0:0:0:0:
256,184,53228,1,8,0:0:0:0:
256,184,53303,1,8,0:0:0:0:
256,184,53378,1,0,0:0:0:0:
256,184,53453,1,8,0:0:0:0:
256,184,53528,1,0,0:0:0:0:
256,184,53603,1,0,0:0:0:0:
256,184,53678,1,8,0:0:0:0:
256,178,53753,1,8,0:0:0:0:
234,164,53828,1,0,0:0:0:0:
244,178,53978,1,0,0:0:0:0:
244,178,54053,1,8,0:0:0:0:
244,178,54128,1,0,0:0:0:0:
247,190,54278,1,0,0:0:0:0:
247,190,54428,1,8,0:0:0:0:
247,190,54578,1,0,0:0:0:0:
247,190,54653,1,0,0:0:0:0:
247,190,54728,1,8,0:0:0:0:
252,196,54803,1,0,0:0:0:0:
242,194,54878,1,8,0:0:0:0:
242,194,54928,1,8,0:0:0:0:
242,193,54978,1,8,0:0:0:0:
242,193,55028,1,0,0:0:0:0:
251,160,55178,1,8,0:0:0:0:
230,156,55253,1,0,0:0:0:0:
234,180,55328,1,8,0:0:0:0:
234,180,55403,1,0,0:0:0:0:
245,180,55478,1,0,0:0:0:0:
248,176,55628,1,8,0:0:0:0:
248,176,55778,1,0,0:0:0:0:
248,176,55853,1,8,0:0:0:0:
248,176,55928,1,0,0:0:0:0:
242,194,56078,1,8,0:0:0:0:
242,194,56128,1,8,0:0:0:0:
242,193,56178,1,8,0:0:0:0:
240,192,56228,1,0,0:0:0:0:
242,187,56378,1,8,0:0:0:0:
242,187,56453,1,0,0:0:0:0:
242,187,56528,1,8,0:0:0:0:
242,187,56678,1,0,0:0:0:0:
242,187,56828,1,8,0:0:0:0:
240,179,56978,1,0,0:0:0:0:
239,174,57053,1,0,0:0:0:0:
239,174,57128,1,8,0:0:0:0:
242,194,57278,1,8,0:0:0:0:
242,194,57328,1,8,0:0:0:0:
242,193,57378,1,8,0:0:0:0:
242,193,57428,1,0,0:0:0:0:
238,157,57578,1,8,0:0:0:0:
238,157,57653,1,0,0:0:0:0:
238,157,57728,1,8,0:0:0:0:
240,169,57878,1,0,0:0:0:0:
261,184,58028,1,8,0:0:0:0:
232,175,58103,1,0,0:0:0:0:
232,175,58178,1,0,0:0:0:0:
232,175,58253,1,8,0:0:0:0:
232,175,58328,1,0,0:0:0:0:
238,157,58478,1,8,0:0:0:0:
248,166,58628,1,4,0:0:0:0:
241,169,58778,1,0,0:0:0:0:
240,169,58853,1,0,0:0:0:0:
239,168,58928,1,8,0:0:0:0:
232,163,59078,1,12,0:0:0:0:
232,163,59303,1,12,0:0:0:0:
232,163,59528,1,12,0:0:0:0:
248,166,59678,1,12,0:0:0:0:
250,164,59828,1,0,0:0:0:0:
250,164,59978,1,8,0:0:0:0:
249,163,60053,1,0,0:0:0:0:
251,164,60128,1,8,0:0:0:0:
251,164,60278,1,0,0:0:0:0:
249,163,60428,1,8,0:0:0:0:
246,166,60503,1,0,0:0:0:0:
248,166,60578,1,0,0:0:0:0:
248,166,60653,1,8,0:0:0:0:
250,164,60728,1,0,0:0:0:0:
250,164,60878,1,8,0:0:0:0:
234,164,61028,1,0,0:0:0:0:
244,178,61178,1,0,0:0:0:0:
244,178,61253,1,0,0:0:0:0:
244,178,61328,1,8,0:0:0:0:
247,190,61478,1,0,0:0:0:0:
247,190,61628,1,8,0:0:0:0:
247,190,61778,1,0,0:0:0:0:
247,190,61853,1,0,0:0:0:0:
247,190,61928,1,8,0:0:0:0:
234,195,62003,1,0,0:0:0:0:
242,194,62078,1,8,0:0:0:0:
242,194,62128,1,8,0:0:0:0:
242,193,62178,1,8,0:0:0:0:
242,193,62228,1,0,0:0:0:0:
251,160,62378,1,8,0:0:0:0:
233,171,62453,1,0,0:0:0:0:
234,180,62528,1,8,0:0:0:0:
240,176,62678,1,0,0:0:0:0:
248,176,62828,1,8,0:0:0:0:
231,156,62903,1,0,0:0:0:0:
248,176,62978,1,0,0:0:0:0:
248,176,63053,1,8,0:0:0:0:
248,176,63128,1,0,0:0:0:0:
242,194,63278,1,8,0:0:0:0:
242,194,63328,1,8,0:0:0:0:
242,193,63378,1,8,0:0:0:0:
234,164,63428,1,0,0:0:0:0:
244,178,63578,1,8,0:0:0:0:
244,178,63653,1,0,0:0:0:0:
244,178,63728,1,8,0:0:0:0:
247,190,63878,1,0,0:0:0:0:
247,190,64028,1,8,0:0:0:0:
247,190,64178,1,0,0:0:0:0:
247,190,64253,1,0,0:0:0:0:
247,190,64328,1,8,0:0:0:0:
243,186,64403,1,0,0:0:0:0:
242,194,64478,1,8,0:0:0:0:
242,194,64528,1,8,0:0:0:0:
242,193,64578,1,8,0:0:0:0:
242,193,64628,1,0,0:0:0:0:
251,160,64778,1,8,0:0:0:0:
253,174,64853,1,0,0:0:0:0:
234,180,64928,1,8,0:0:0:0:
248,176,65003,1,8,0:0:0:0:
248,176,65078,1,0,0:0:0:0:
248,176,65228,1,8,0:0:0:0:
248,176,65378,1,0,0:0:0:0:
248,176,65453,1,8,0:0:0:0:
248,176,65528,1,0,0:0:0:0:
240,146,65678,1,0,0:0:0:0:
240,146,65753,1,0,0:0:0:0:
240,146,65828,1,8,0:0:0:0:
242,187,65978,1,8,0:0:0:0:
242,187,66053,1,0,0:0:0:0:
242,187,66128,1,8,0:0:0:0:
242,187,66278,1,0,0:0:0:0:
242,187,66428,1,8,0:0:0:0:
271,190,66578,1,0,0:0:0:0:
240,167,66653,1,0,0:0:0:0:
239,174,66728,1,8,0:0:0:0:
242,194,66878,1,8,0:0:0:0:
242,194,66928,1,8,0:0:0:0:
242,193,66978,1,8,0:0:0:0:
242,193,67028,1,0,0:0:0:0:
238,157,67178,1,0,0:0:0:0:
238,157,67253,1,0,0:0:0:0:
238,157,67328,1,8,0:0:0:0:
240,169,67478,1,0,0:0:0:0:
261,184,67628,1,8,0:0:0:0:
232,175,67703,1,8,0:0:0:0:
232,175,67778,1,0,0:0:0:0:
232,175,67853,1,8,0:0:0:0:
232,175,67928,1,0,0:0:0:0:
238,157,68078,1,8,0:0:0:0:
238,157,68228,5,4,0:0:0:0:
218,173,68378,1,0,0:0:0:0:
218,173,68453,1,0,0:0:0:0:
218,173,68528,1,8,0:0:0:0:
222,153,68678,1,0,0:0:0:0:
219,160,68828,1,8,0:0:0:0:
219,160,68903,1,8,0:0:0:0:
219,160,68978,1,0,0:0:0:0:
219,160,69053,1,0,0:0:0:0:
219,160,69128,1,8,0:0:0:0:
218,143,69278,1,8,0:0:0:0:
218,143,69428,1,0,0:0:0:0:
207,159,69578,1,0,0:0:0:0:
213,144,69728,1,8,0:0:0:0:
213,144,69803,1,8,0:0:0:0:
213,144,69878,1,0,0:0:0:0:
202,128,70028,1,8,0:0:0:0:
202,128,70103,1,0,0:0:0:0:
202,128,70178,1,0,0:0:0:0:
202,128,70253,1,8,0:0:0:0:
197,136,70328,1,0,0:0:0:0:
199,136,70478,1,8,0:0:0:0:
196,145,70628,1,0,0:0:0:0:
196,145,70778,1,0,0:0:0:0:
182,127,70853,1,0,0:0:0:0:
182,127,70928,1,8,0:0:0:0:
187,118,71078,1,0,0:0:0:0:
187,118,71228,1,8,0:0:0:0:
187,118,71303,1,0,0:0:0:0:
187,118,71378,1,0,0:0:0:0:
187,118,71453,1,0,0:0:0:0:
193,104,71528,1,8,0:0:0:0:
193,104,71678,1,8,0:0:0:0:
200,120,71828,1,0,0:0:0:0:
188,111,71978,1,0,0:0:0:0:
188,111,72128,1,8,0:0:0:0:
194,131,72203,1,0,0:0:0:0:
188,111,72278,1,0,0:0:0:0:
188,111,72428,1,8,0:0:0:0:
193,104,72578,1,0,0:0:0:0:
193,104,72653,1,8,0:0:0:0:
194,101,72728,1,0,0:0:0:0:
198,133,72803,1,0,0:0:0:0:
194,101,72878,1,8,0:0:0:0:
238,157,73028,1,0,0:0:0:0:
218,173,73178,1,0,0:0:0:0:
218,173,73253,1,0,0:0:0:0:
218,173,73328,1,8,0:0:0:0:
222,153,73478,1,0,0:0:0:0:
219,160,73628,1,8,0:0:0:0:
219,160,73703,1,8,0:0:0:0:
219,160,73778,1,0,0:0:0:0:
219,160,73853,1,0,0:0:0:0:
219,160,73928,1,8,0:0:0:0:
218,143,74078,1,8,0:0:0:0:
218,143,74228,1,0,0:0:0:0:
207,159,74378,1,0,0:0:0:0:
213,144,74528,1,8,0:0:0:0:
213,144,74603,1,8,0:0:0:0:
213,144,74678,1,0,0:0:0:0:
202,128,74828,1,8,0:0:0:0:
202,128,74903,1,0,0:0:0:0:
202,128,74978,1,0,0:0:0:0:
202,128,75053,1,8,0:0:0:0:
197,136,75128,1,0,0:0:0:0:
199,136,75278,1,0,0:0:0:0:
196,145,75428,1,8,0:0:0:0:
231,125,75503,1,0,0:0:0:0:
196,145,75578,1,0,0:0:0:0:
182,127,75728,1,8,0:0:0:0:
182,127,75803,1,0,0:0:0:0:
187,118,75878,1,0,0:0:0:0:
187,118,76028,1,8,0:0:0:0:
231,125,76103,1,0,0:0:0:0:
187,118,76178,1,8,0:0:0:0:
231,125,76253,1,0,0:0:0:0:
231,125,76328,1,8,0:0:0:0:
193,104,76478,1,0,0:0:0:0:
200,120,76628,1,8,0:0:0:0:
188,111,76778,1,0,0:0:0:0:
182,89,76853,1,0,0:0:0:0:
188,111,76928,1,8,0:0:0:0:
188,111,77078,1,0,0:0:0:0:
188,111,77228,1,8,0:0:0:0:
224,105,77303,1,8,0:0:0:0:
193,104,77378,1,0,0:0:0:0:
193,104,77453,1,8,0:0:0:0:
194,101,77528,1,0,0:0:0:0:
235,172,77603,1,0,0:0:0:0:
194,101,77678,1,8,0:0:0:0:
238,157,77828,5,4,0:0:0:0:
218,173,77978,1,0,0:0:0:0:
218,173,78053,1,0,0:0:0:0:
218,173,78128,1,8,0:0:0:0:
222,153,78278,1,0,0:0:0:0:
219,160,78428,1,8,0:0:0:0:
219,160,78503,1,8,0:0:0:0:
219,160,78578,1,0,0:0:0:0:
219,160,78653,1,0,0:0:0:0:
219,160,78728,1,8,0:0:0:0:
218,143,78878,1,8,0:0:0:0:
218,143,79028,1,0,0:0:0:0:
210,131,79103,1,0,0:0:0:0:
207,159,79178,1,0,0:0:0:0:
206,120,79253,1,0,0:0:0:0:
213,144,79328,1,8,0:0:0:0:
213,144,79478,1,0,0:0:0:0:
202,128,79628,1,8,0:0:0:0:
202,128,79703,1,0,0:0:0:0:
202,128,79778,1,0,0:0:0:0:
202,128,79853,1,8,0:0:0:0:
197,136,79928,1,0,0:0:0:0:
220,138,80003,1,0,0:0:0:0:
199,136,80078,1,8,0:0:0:0:
196,145,80228,1,0,0:0:0:0:
196,145,80378,1,0,0:0:0:0:
182,127,80453,1,0,0:0:0:0:
182,127,80528,1,8,0:0:0:0:
187,118,80678,1,0,0:0:0:0:
187,118,80828,1,8,0:0:0:0:
187,118,80903,1,0,0:0:0:0:
187,118,80978,1,0,0:0:0:0:
187,118,81053,1,0,0:0:0:0:
193,104,81128,1,8,0:0:0:0:
193,104,81278,1,8,0:0:0:0:
200,120,81428,1,0,0:0:0:0:
190,105,81503,1,8,0:0:0:0:
191,106,81578,1,0,0:0:0:0:
188,111,81728,1,8,0:0:0:0:
188,111,81878,1,0,0:0:0:0:
213,97,81953,1,0,0:0:0:0:
188,111,82028,1,8,0:0:0:0:
193,104,82178,1,0,0:0:0:0:
193,104,82253,1,8,0:0:0:0:
194,101,82328,1,0,0:0:0:0:
235,129,82403,1,0,0:0:0:0:
194,101,82478,1,8,0:0:0:0:
238,157,82628,1,0,0:0:0:0:
192,108,82703,1,0,0:0:0:0:
218,173,82778,1,8,0:0:0:0:
218,173,82853,1,0,0:0:0:0:
218,173,82928,1,8,0:0:0:0:
198,151,83003,1,8,0:0:0:0:
222,153,83078,1,0,0:0:0:0:
198,151,83153,1,0,0:0:0:0:
219,160,83228,1,8,0:0:0:0:
219,160,83303,1,8,0:0:0:0:
219,160,83378,1,0,0:0:0:0:
219,160,83453,1,0,0:0:0:0:
219,160,83528,1,8,0:0:0:0:
219,145,83603,1,0,0:0:0:0:
217,124,83678,1,0,0:0:0:0:
211,119,83753,1,0,0:0:0:0:
218,143,83828,1,8,0:0:0:0:
198,140,83903,1,8,0:0:0:0:
207,159,83978,1,0,0:0:0:0:
226,131,84053,1,0,0:0:0:0:
213,144,84128,1,8,0:0:0:0:
213,144,84203,1,0,0:0:0:0:
213,144,84278,1,0,0:0:0:0:
203,128,84353,1,0,0:0:0:0:
202,128,84428,1,8,0:0:0:0:
202,128,84503,1,0,0:0:0:0:
202,128,84578,1,0,0:0:0:0:
202,128,84653,1,8,0:0:0:0:
197,136,84728,1,0,0:0:0:0:
226,131,84803,1,0,0:0:0:0:
226,131,84878,1,8,0:0:0:0:
208,152,84953,1,0,0:0:0:0:
196,145,85028,1,8,0:0:0:0:
231,125,85103,1,8,0:0:0:0:
196,145,85178,1,0,0:0:0:0:
228,131,85253,1,0,0:0:0:0:
182,127,85328,1,8,0:0:0:0:
182,127,85403,1,8,0:0:0:0:
187,118,85478,1,0,0:0:0:0:
226,131,85553,1,0,0:0:0:0:
187,118,85628,1,8,0:0:0:0:
231,125,85703,1,0,0:0:0:0:
187,118,85778,1,8,0:0:0:0:
231,125,85853,1,0,0:0:0:0:
231,125,85928,1,8,0:0:0:0:
214,93,86003,1,8,0:0:0:0:
218,96,86078,1,8,0:0:0:0:
218,96,86153,1,8,0:0:0:0:
218,96,86228,1,0,0:0:0:0:
188,111,86378,1,0,0:0:0:0:
188,111,86528,1,8,0:0:0:0:
188,111,86678,1,0,0:0:0:0:
188,111,86828,1,8,0:0:0:0:
224,105,86903,1,8,0:0:0:0:
193,104,86978,1,0,0:0:0:0:
193,104,87053,1,8,0:0:0:0:
194,101,87128,1,0,0:0:0:0:
194,101,87278,1,8,0:0:0:0:
197,101,87428,5,4,0:0:0:0:
197,101,87653,1,8,0:0:0:0:
197,101,87803,1,0,0:0:0:0:
197,101,87878,1,8,0:0:0:0:
201,91,88028,1,8,0:0:0:0:
204,93,88178,1,0,0:0:0:0:
204,93,88328,1,8,0:0:0:0:
204,93,88403,1,0,0:0:0:0:
206,89,88553,1,8,0:0:0:0:
206,89,88628,1,0,0:0:0:0:
206,89,88778,1,0,0:0:0:0:
206,89,88853,1,8,0:0:0:0:
206,89,88928,1,8,0:0:0:0:
194,84,89003,1,0,0:0:0:0:
199,79,89078,1,8,0:0:0:0:
194,86,89228,1,8,0:0:0:0:
194,86,89378,1,0,0:0:0:0:
194,86,89528,1,0,0:0:0:0:
194,86,89603,1,8,0:0:0:0:
194,86,89753,1,8,0:0:0:0:
194,86,89828,1,4,0:0:0:0:
194,86,90053,1,0,0:0:0:0:
204,82,90203,1,0,0:0:0:0:
204,82,90278,1,8,0:0:0:0:
204,82,90353,1,0,0:0:0:0:
196,95,90428,1,8,0:0:0:0:
196,95,90578,1,0,0:0:0:0:
196,95,90728,1,8,0:0:0:0:
196,95,90803,1,0,0:0:0:0:
205,82,90953,1,0,0:0:0:0:
204,82,91028,1,0,0:0:0:0:
201,87,91178,1,0,0:0:0:0:
201,87,91253,1,8,0:0:0:0:
201,87,91403,1,0,0:0:0:0:
201,87,91478,1,8,0:0:0:0:
201,87,91553,1,0,0:0:0:0:
201,87,91628,1,8,0:0:0:0:
212,87,91778,1,0,0:0:0:0:
212,87,91853,1,8,0:0:0:0:
212,87,92003,1,8,0:0:0:0:
212,87,92078,1,8,0:0:0:0:
197,101,92228,1,4,0:0:0:0:
197,101,92453,1,8,0:0:0:0:
197,101,92603,1,0,0:0:0:0:
197,101,92678,1,8,0:0:0:0:
201,91,92828,1,8,0:0:0:0:
204,93,92978,1,0,0:0:0:0:
204,93,93128,1,8,0:0:0:0:
204,93,93203,1,0,0:0:0:0:
206,89,93353,1,8,0:0:0:0:
206,89,93428,1,0,0:0:0:0:
206,89,93578,1,0,0:0:0:0:
206,89,93653,1,8,0:0:0:0:
206,89,93728,1,0,0:0:0:0:
194,84,93803,1,0,0:0:0:0:
194,86,93878,1,8,0:0:0:0:
194,86,94028,1,8,0:0:0:0:
194,86,94178,1,8,0:0:0:0:
194,86,94328,1,0,0:0:0:0:
194,86,94403,1,8,0:0:0:0:
194,86,94553,1,8,0:0:0:0:
194,86,94628,1,4,0:0:0:0:
194,86,94853,1,0,0:0:0:0:
204,82,95003,1,0,0:0:0:0:
204,82,95078,1,0,0:0:0:0:
204,82,95153,1,0,0:0:0:0:
196,95,95228,1,8,0:0:0:0:
196,95,95378,1,0,0:0:0:0:
196,95,95528,1,8,0:0:0:0:
196,95,95603,1,0,0:0:0:0:
205,82,95753,1,0,0:0:0:0:
204,82,95828,1,0,0:0:0:0:
201,87,95978,1,0,0:0:0:0:
201,87,96053,1,8,0:0:0:0:
201,87,96203,1,0,0:0:0:0:
201,87,96278,1,8,0:0:0:0:
201,87,96353,1,0,0:0:0:0:
201,87,96428,1,8,0:0:0:0:
212,87,96578,1,0,0:0:0:0:
212,87,96653,1,8,0:0:0:0:
212,87,96803,1,8,0:0:0:0:
212,87,96878,1,8,0:0:0:0:
197,101,97028,1,12,0:0:0:0:
197,101,97253,1,8,0:0:0:0:
197,101,97403,1,0,0:0:0:0:
197,101,97478,1,8,0:0:0:0:
201,91,97628,1,0,0:0:0:0:
212,87,97703,1,8,0:0:0:0:
204,93,97778,1,0,0:0:0:0:
204,93,97928,1,8,0:0:0:0:
204,93,98003,1,0,0:0:0:0:
206,89,98153,1,0,0:0:0:0:
206,89,98228,1,8,0:0:0:0:
206,89,98378,1,0,0:0:0:0:
206,89,98453,1,8,0:0:0:0:
206,89,98528,1,0,0:0:0:0:
194,84,98603,1,0,0:0:0:0:
194,86,98678,1,8,0:0:0:0:
197,81,98828,1,0,0:0:0:0:
197,81,98903,1,8,0:0:0:0:
195,100,98978,1,0,0:0:0:0:
194,86,99128,1,0,0:0:0:0:
194,86,99203,1,8,0:0:0:0:
192,99,99353,1,0,0:0:0:0:
192,99,99428,1,12,0:0:0:0:
194,96,99653,1,8,0:0:0:0:
204,82,99803,1,0,0:0:0:0:
204,82,99878,1,8,0:0:0:0:
204,82,100028,1,8,0:0:0:0:
189,90,100103,1,8,0:0:0:0:
199,69,100178,1,0,0:0:0:0:
196,95,100328,1,8,0:0:0:0:
196,95,100403,1,0,0:0:0:0:
205,82,100553,1,0,0:0:0:0:
204,82,100628,1,0,0:0:0:0:
202,73,100703,1,8,0:0:0:0:
201,87,100778,1,0,0:0:0:0:
192,61,100928,1,8,0:0:0:0:
201,87,101003,1,0,0:0:0:0:
201,87,101078,1,0,0:0:0:0:
201,87,101153,1,8,0:0:0:0:
201,87,101228,1,0,0:0:0:0:
212,87,101378,1,0,0:0:0:0:
212,87,101453,1,8,0:0:0:0:
212,87,101603,1,8,0:0:0:0:
212,87,101678,1,8,0:0:0:0:
197,101,101828,1,12,0:0:0:0:
197,101,102053,1,8,0:0:0:0:
197,101,102203,1,0,0:0:0:0:
197,101,102278,1,8,0:0:0:0:
201,91,102428,1,0,0:0:0:0:
212,87,102503,1,8,0:0:0:0:
204,93,102578,1,8,0:0:0:0:
204,93,102728,1,8,0:0:0:0:
204,93,102803,1,0,0:0:0:0:
206,89,102953,1,0,0:0:0:0:
206,89,103028,1,8,0:0:0:0:
206,89,103178,1,0,0:0:0:0:
206,89,103253,1,8,0:0:0:0:
206,89,103328,1,8,0:0:0:0:
194,84,103403,1,0,0:0:0:0:
194,86,103478,1,8,0:0:0:0:
197,81,103628,1,0,0:0:0:0:
197,81,103703,1,8,0:0:0:0:
195,100,103778,1,8,0:0:0:0:
194,86,103928,1,8,0:0:0:0:
194,86,104003,1,0,0:0:0:0:
192,99,104153,1,0,0:0:0:0:
192,99,104228,1,12,0:0:0:0:
200,97,104378,1,0,0:0:0:0:
194,96,104453,1,8,0:0:0:0:
204,82,104603,1,0,0:0:0:0:
204,82,104678,1,8,0:0:0:0:
189,90,104828,1,8,0:0:0:0:
189,90,104903,1,8,0:0:0:0:
199,69,104978,1,0,0:0:0:0:
196,95,105128,1,8,0:0:0:0:
196,95,105203,1,0,0:0:0:0:
205,82,105353,1,0,0:0:0:0:
204,82,105428,1,8,0:0:0:0:
201,87,105578,1,0,0:0:0:0:
201,87,105653,1,8,0:0:0:0:
192,61,105728,1,8,0:0:0:0:
201,87,105803,1,0,0:0:0:0:
201,87,105878,1,8,0:0:0:0:
213,98,106028,1,8,0:0:0:0:
202,82,106178,1,8,0:0:0:0:
205,82,106253,1,0,0:0:0:0:
216,132,106403,1,8,0:0:0:0:
217,150,106553,5,0,0:0:0:0:
196,136,106778,1,0,0:0:0:0:
212,147,106928,1,0,0:0:0:0:
201,143,107303,1,0,0:0:0:0:
214,138,107528,1,0,0:0:0:0:
214,138,107753,1,0,0:0:0:0:
214,138,107978,1,8,0:0:0:0:
214,138,108278,1,0,0:0:0:0:
224,118,108428,1,8,0:0:0:0:
224,118,108653,1,8,0:0:0:0:
224,118,108803,1,8,0:0:0:0:
224,118,108878,1,8,0:0:0:0:
214,111,109028,5,0,0:0:0:0:
214,111,109103,1,0,0:0:0:0:
214,111,109178,1,8,0:0:0:0:
214,111,109253,1,0,0:0:0:0:
214,111,109328,1,8,0:0:0:0:
215,94,109403,1,0,0:0:0:0:
221,101,109478,1,8,0:0:0:0:
210,112,109578,1,0,0:0:0:0:
218,87,109678,1,8,0:0:0:0:
218,87,109778,1,0,0:0:0:0:
218,87,109878,1,8,0:0:0:0:
228,106,109978,1,0,0:0:0:0:
228,106,110078,1,8,0:0:0:0:
230,92,110153,1,0,0:0:0:0:
230,92,110228,1,8,0:0:0:0:
219,101,110303,1,0,0:0:0:0:
219,101,110378,1,8,0:0:0:0:
221,101,110453,1,0,0:0:0:0:
219,101,110528,1,8,0:0:0:0:
202,101,110628,1,0,0:0:0:0:
216,104,110728,1,8,0:0:0:0:
218,94,110828,1,0,0:0:0:0:
219,94,110928,1,8,0:0:0:0:
218,94,111028,1,0,0:0:0:0:
218,94,111128,1,8,0:0:0:0:
218,94,111203,1,8,0:0:0:0:
216,95,111278,1,0,0:0:0:0:
215,96,111353,1,0,0:0:0:0:
215,98,111428,1,8,0:0:0:0:
219,101,111503,1,0,0:0:0:0:
217,94,111578,1,0,0:0:0:0:
201,100,111678,1,0,0:0:0:0:
209,97,111778,1,8,0:0:0:0:
209,97,111878,1,0,0:0:0:0:
209,97,111978,1,8,0:0:0:0:
209,97,112078,1,0,0:0:0:0:
201,101,112178,1,8,0:0:0:0:
201,101,112253,1,0,0:0:0:0:
209,98,112328,1,8,0:0:0:0:
209,98,112403,1,0,0:0:0:0:
209,98,112478,1,8,0:0:0:0:
209,98,112553,1,0,0:0:0:0:
209,98,112628,1,0,0:0:0:0:
206,79,112728,1,0,0:0:0:0:
204,93,112828,1,8,0:0:0:0:
204,93,112928,1,0,0:0:0:0:
204,93,113028,1,8,0:0:0:0:
204,93,113128,1,0,0:0:0:0:
204,93,113228,1,8,0:0:0:0:
205,88,113303,1,0,0:0:0:0:
197,94,113378,1,0,0:0:0:0:
197,94,113453,1,8,0:0:0:0:
204,88,113528,1,0,0:0:0:0:
221,82,113603,1,0,0:0:0:0:
203,88,113678,1,8,0:0:0:0:
220,99,113828,1,0,0:0:0:0:
214,111,113903,1,0,0:0:0:0:
214,111,113978,1,8,0:0:0:0:
214,111,114053,1,0,0:0:0:0:
214,111,114128,1,8,0:0:0:0:
215,94,114203,1,0,0:0:0:0:
221,101,114278,1,8,0:0:0:0:
210,112,114378,1,0,0:0:0:0:
218,87,114478,1,8,0:0:0:0:
218,87,114578,1,0,0:0:0:0:
218,87,114678,1,8,0:0:0:0:
228,106,114778,1,0,0:0:0:0:
228,106,114878,1,8,0:0:0:0:
230,92,114953,1,0,0:0:0:0:
230,92,115028,1,8,0:0:0:0:
219,101,115103,1,8,0:0:0:0:
219,101,115178,1,8,0:0:0:0:
221,101,115253,1,0,0:0:0:0:
219,101,115328,1,8,0:0:0:0:
202,101,115428,1,0,0:0:0:0:
216,104,115528,1,8,0:0:0:0:
218,94,115628,1,0,0:0:0:0:
219,94,115728,1,8,0:0:0:0:
218,94,115828,1,0,0:0:0:0:
218,94,115928,1,8,0:0:0:0:
218,94,116003,1,8,0:0:0:0:
216,95,116078,1,0,0:0:0:0:
215,96,116153,1,0,0:0:0:0:
215,98,116228,1,8,0:0:0:0:
219,101,116303,1,0,0:0:0:0:
217,94,116378,1,8,0:0:0:0:
201,100,116478,1,0,0:0:0:0:
209,97,116578,1,8,0:0:0:0:
209,97,116678,1,0,0:0:0:0:
209,97,116778,1,8,0:0:0:0:
209,97,116878,1,0,0:0:0:0:
201,101,116978,1,8,0:0:0:0:
201,101,117053,1,8,0:0:0:0:
209,98,117128,1,8,0:0:0:0:
209,98,117203,1,0,0:0:0:0:
209,98,117278,1,8,0:0:0:0:
209,98,117353,1,0,0:0:0:0:
209,98,117428,1,8,0:0:0:0:
206,79,117528,1,0,0:0:0:0:
204,93,117628,1,8,0:0:0:0:
204,93,117728,1,0,0:0:0:0:
204,93,117828,1,8,0:0:0:0:
204,93,117928,1,0,0:0:0:0:
204,93,118028,1,8,0:0:0:0:
205,88,118103,1,0,0:0:0:0:
197,94,118178,1,0,0:0:0:0:
197,94,118253,1,8,0:0:0:0:
204,88,118328,1,0,0:0:0:0:
203,88,118403,1,0,0:0:0:0:
203,88,118478,1,8,0:0:0:0:
204,93,118628,5,0,0:0:0:0:
204,93,118778,1,0,0:0:0:0:
212,101,118853,1,0,0:0:0:0:
212,101,118928,1,8,0:0:0:0:
212,101,119003,1,8,0:0:0:0:
209,97,119078,1,0,0:0:0:0:
230,91,119228,1,8,0:0:0:0:
212,127,119378,1,0,0:0:0:0:
208,90,119478,1,8,0:0:0:0:
208,90,119528,1,0,0:0:0:0:
224,93,119678,1,8,0:0:0:0:
229,138,119828,1,0,0:0:0:0:
229,138,119903,1,0,0:0:0:0:
229,138,119978,1,8,0:0:0:0:
216,110,120128,1,8,0:0:0:0:
216,110,120228,1,0,0:0:0:0:
216,110,120328,1,8,0:0:0:0:
222,114,120428,1,8,0:0:0:0:
218,115,120528,1,0,0:0:0:0:
218,115,120628,1,0,0:0:0:0:
225,126,120728,1,8,0:0:0:0:
236,92,120878,1,8,0:0:0:0:
221,116,121028,1,0,0:0:0:0:
219,103,121178,1,8,0:0:0:0:
216,110,121278,1,0,0:0:0:0:
219,103,121378,1,8,0:0:0:0:
219,103,121478,1,8,0:0:0:0:
218,115,121578,1,0,0:0:0:0:
218,115,121628,1,8,0:0:0:0:
212,116,121778,1,8,0:0:0:0:
197,125,121853,1,0,0:0:0:0:
213,125,121928,1,0,0:0:0:0:
203,108,122003,1,0,0:0:0:0:
204,118,122078,1,8,0:0:0:0:
205,113,122228,1,0,0:0:0:0:
206,112,122328,1,8,0:0:0:0:
206,112,122428,1,0,0:0:0:0:
206,112,122528,1,8,0:0:0:0:
206,112,122628,1,0,0:0:0:0:
206,112,122728,1,0,0:0:0:0:
220,110,122828,1,8,0:0:0:0:
219,110,122903,1,0,0:0:0:0:
216,110,122978,1,0,0:0:0:0:
216,110,123053,1,8,0:0:0:0:
216,110,123128,1,0,0:0:0:0:
212,105,123278,1,0,0:0:0:0:
222,104,123428,1,0,0:0:0:0:
222,104,123503,1,0,0:0:0:0:
222,104,123578,1,8,0:0:0:0:
225,111,123728,1,8,0:0:0:0:
229,105,123878,1,0,0:0:0:0:
229,105,123953,1,0,0:0:0:0:
229,105,124028,1,8,0:0:0:0:
234,98,124178,1,0,0:0:0:0:
222,85,124278,1,8,0:0:0:0:
226,98,124328,1,0,0:0:0:0:
218,98,124478,1,8,0:0:0:0:
224,91,124553,1,8,0:0:0:0:
230,97,124628,1,0,0:0:0:0:
230,97,124778,1,8,0:0:0:0:
230,97,124928,1,0,0:0:0:0:
219,109,125028,1,8,0:0:0:0:
220,118,125128,1,0,0:0:0:0:
227,98,125228,1,8,0:0:0:0:
235,104,125328,1,0,0:0:0:0:
235,118,125428,1,0,0:0:0:0:
223,118,125528,1,8,0:0:0:0:
232,122,125678,1,8,0:0:0:0:
233,117,125828,1,0,0:0:0:0:
233,117,125903,1,0,0:0:0:0:
233,117,125978,1,8,0:0:0:0:
233,111,126128,1,0,0:0:0:0:
233,111,126278,1,8,0:0:0:0:
243,115,126378,1,0,0:0:0:0:
245,114,126428,1,8,0:0:0:0:
238,117,126578,1,0,0:0:0:0:
220,124,126653,1,8,0:0:0:0:
221,124,126728,1,8,0:0:0:0:
222,123,126803,1,0,0:0:0:0:
222,123,126878,1,8,0:0:0:0:
252,193,127028,1,0,0:0:0:0:
252,193,127128,1,8,0:0:0:0:
252,193,127228,1,0,0:0:0:0:
253,177,127328,1,0,0:0:0:0:
253,177,127428,1,8,0:0:0:0:
253,177,127528,1,0,0:0:0:0:
253,177,127628,1,8,0:0:0:0:
249,182,127703,1,0,0:0:0:0:
247,182,127778,1,0,0:0:0:0:
247,182,127853,1,8,0:0:0:0:
247,182,127928,1,0,0:0:0:0:
270,153,128078,1,8,0:0:0:0:
214,111,128228,5,0,0:0:0:0:
214,111,128303,1,0,0:0:0:0:
214,111,128378,1,8,0:0:0:0:
214,111,128453,1,0,0:0:0:0:
214,111,128528,1,8,0:0:0:0:
215,94,128603,1,0,0:0:0:0:
221,101,128678,1,8,0:0:0:0:
210,112,128778,1,0,0:0:0:0:
218,87,128878,1,8,0:0:0:0:
218,87,128978,1,0,0:0:0:0:
218,87,129078,1,8,0:0:0:0:
228,106,129178,1,0,0:0:0:0:
228,106,129278,1,8,0:0:0:0:
230,92,129353,1,0,0:0:0:0:
230,92,129428,1,8,0:0:0:0:
219,101,129503,1,0,0:0:0:0:
219,101,129578,1,8,0:0:0:0:
221,101,129653,1,0,0:0:0:0:
219,101,129728,1,8,0:0:0:0:
202,101,129828,1,0,0:0:0:0:
216,104,129928,1,8,0:0:0:0:
218,94,130028,1,0,0:0:0:0:
219,94,130128,1,8,0:0:0:0:
218,94,130228,1,0,0:0:0:0:
218,94,130328,1,8,0:0:0:0:
218,94,130403,1,8,0:0:0:0:
216,95,130478,1,0,0:0:0:0:
215,96,130553,1,0,0:0:0:0:
215,98,130628,1,8,0:0:0:0:
219,101,130703,1,0,0:0:0:0:
217,94,130778,1,0,0:0:0:0:
201,100,130878,1,0,0:0:0:0:
209,97,130978,1,8,0:0:0:0:
209,97,131078,1,0,0:0:0:0:
209,97,131178,1,8,0:0:0:0:
209,97,131278,1,0,0:0:0:0:
201,101,131378,1,8,0:0:0:0:
201,101,131453,1,0,0:0:0:0:
209,98,131528,1,8,0:0:0:0:
209,98,131603,1,0,0:0:0:0:
209,98,131678,1,8,0:0:0:0:
209,98,131753,1,0,0:0:0:0:
209,98,131828,1,0,0:0:0:0:
206,79,131928,1,0,0:0:0:0:
204,93,132028,1,8,0:0:0:0:
204,93,132128,1,0,0:0:0:0:
204,93,132228,1,8,0:0:0:0:
204,93,132328,1,0,0:0:0:0:
204,93,132428,1,8,0:0:0:0:
205,88,132503,1,0,0:0:0:0:
197,94,132578,1,0,0:0:0:0:
197,94,132653,1,8,0:0:0:0:
204,88,132728,1,0,0:0:0:0:
221,82,132803,1,0,0:0:0:0:
203,88,132878,1,8,0:0:0:0:
218,98,133028,1,0,0:0:0:0:
214,111,133103,1,0,0:0:0:0:
214,111,133178,1,8,0:0:0:0:
214,111,133253,1,0,0:0:0:0:
214,111,133328,1,8,0:0:0:0:
215,94,133403,1,0,0:0:0:0:
221,101,133478,1,8,0:0:0:0:
210,112,133578,1,0,0:0:0:0:
218,87,133678,1,8,0:0:0:0:
218,87,133778,1,0,0:0:0:0:
218,87,133878,1,8,0:0:0:0:
228,106,133978,1,0,0:0:0:0:
228,106,134078,1,8,0:0:0:0:
230,92,134153,1,0,0:0:0:0:
230,92,134228,1,8,0:0:0:0:
219,101,134303,1,8,0:0:0:0:
219,101,134378,1,0,0:0:0:0:
221,101,134453,1,0,0:0:0:0:
219,101,134528,1,8,0:0:0:0:
202,101,134628,1,0,0:0:0:0:
216,104,134728,1,8,0:0:0:0:
218,94,134828,1,0,0:0:0:0:
219,94,134928,1,8,0:0:0:0:
218,94,135028,1,0,0:0:0:0:
218,94,135128,1,8,0:0:0:0:
218,94,135203,1,8,0:0:0:0:
216,95,135278,1,0,0:0:0:0:
215,96,135353,1,0,0:0:0:0:
215,98,135428,1,8,0:0:0:0:
219,101,135503,1,0,0:0:0:0:
217,94,135578,1,8,0:0:0:0:
201,100,135678,1,0,0:0:0:0:
209,97,135778,1,8,0:0:0:0:
209,97,135878,1,0,0:0:0:0:
209,97,135978,1,8,0:0:0:0:
209,97,136078,1,0,0:0:0:0:
201,101,136178,1,8,0:0:0:0:
201,101,136253,1,0,0:0:0:0:
209,98,136328,1,8,0:0:0:0:
209,98,136403,1,8,0:0:0:0:
209,98,136478,1,8,0:0:0:0:
209,98,136553,1,0,0:0:0:0:
209,98,136628,1,8,0:0:0:0:
206,79,136728,1,0,0:0:0:0:
204,93,136828,1,8,0:0:0:0:
204,93,136928,1,0,0:0:0:0:
204,93,137028,1,8,0:0:0:0:
204,93,137128,1,0,0:0:0:0:
204,93,137228,1,8,0:0:0:0:
205,88,137303,1,0,0:0:0:0:
197,94,137378,1,0,0:0:0:0:
197,94,137453,1,8,0:0:0:0:
204,88,137528,1,0,0:0:0:0:
203,88,137603,1,0,0:0:0:0:
203,88,137678,1,8,0:0:0:0:
204,93,137828,5,0,0:0:0:0:
204,93,137978,1,0,0:0:0:0:
212,101,138053,1,0,0:0:0:0:
212,101,138128,1,8,0:0:0:0:
212,101,138203,1,0,0:0:0:0:
209,97,138278,1,0,0:0:0:0:
230,91,138428,1,8,0:0:0:0:
198,106,138578,1,0,0:0:0:0:
208,90,138678,1,8,0:0:0:0:
208,90,138728,1,0,0:0:0:0:
224,93,138878,1,8,0:0:0:0:
229,138,139028,1,0,0:0:0:0:
229,138,139103,1,0,0:0:0:0:
229,138,139178,1,8,0:0:0:0:
216,110,139328,1,8,0:0:0:0:
216,110,139428,1,0,0:0:0:0:
216,110,139528,1,8,0:0:0:0:
222,114,139628,1,8,0:0:0:0:
218,115,139728,1,0,0:0:0:0:
218,115,139828,1,0,0:0:0:0:
225,126,139928,1,8,0:0:0:0:
236,92,140078,1,8,0:0:0:0:
221,116,140228,1,0,0:0:0:0:
219,103,140378,1,8,0:0:0:0:
219,103,140478,1,0,0:0:0:0:
219,103,140578,1,8,0:0:0:0:
223,106,140678,1,8,0:0:0:0:
209,104,140778,1,0,0:0:0:0:
218,115,140828,1,8,0:0:0:0:
212,116,140978,1,8,0:0:0:0:
197,125,141053,1,0,0:0:0:0:
213,125,141128,1,0,0:0:0:0:
203,108,141203,1,0,0:0:0:0:
204,118,141278,1,8,0:0:0:0:
205,113,141428,1,0,0:0:0:0:
206,112,141528,1,8,0:0:0:0:
206,112,141628,1,0,0:0:0:0:
206,112,141728,1,8,0:0:0:0:
206,112,141828,1,0,0:0:0:0:
206,112,141928,1,0,0:0:0:0:
220,110,142028,1,8,0:0:0:0:
219,110,142103,1,0,0:0:0:0:
216,110,142178,1,0,0:0:0:0:
216,110,142253,1,8,0:0:0:0:
216,110,142328,1,0,0:0:0:0:
212,105,142478,1,0,0:0:0:0:
222,104,142628,1,0,0:0:0:0:
222,104,142703,1,0,0:0:0:0:
222,104,142778,1,8,0:0:0:0:
225,111,142928,1,8,0:0:0:0:
229,105,143078,1,8,0:0:0:0:
229,105,143153,1,0,0:0:0:0:
229,105,143228,1,8,0:0:0:0:
234,98,143378,1,0,0:0:0:0:
222,85,143478,1,8,0:0:0:0:
226,98,143528,1,0,0:0:0:0:
218,98,143678,1,8,0:0:0:0:
230,97,143828,1,0,0:0:0:0:
229,136,143903,1,0,0:0:0:0:
230,97,143978,1,8,0:0:0:0:
230,97,144128,1,0,0:0:0:0:
224,104,144228,1,8,0:0:0:0:
220,118,144328,1,0,0:0:0:0:
227,98,144428,1,8,0:0:0:0:
235,104,144528,1,0,0:0:0:0:
235,118,144628,1,0,0:0:0:0:
223,118,144728,1,8,0:0:0:0:
232,122,144878,1,8,0:0:0:0:
233,117,145028,1,0,0:0:0:0:
233,117,145103,1,0,0:0:0:0:
233,117,145178,1,8,0:0:0:0:
233,111,145328,1,0,0:0:0:0:
233,111,145478,1,8,0:0:0:0:
243,115,145578,1,0,0:0:0:0:
245,114,145628,1,8,0:0:0:0:
238,117,145778,1,0,0:0:0:0:
220,124,145853,1,8,0:0:0:0:
221,124,145928,1,8,0:0:0:0:
222,123,146003,1,0,0:0:0:0:
222,123,146078,1,8,0:0:0:0:
252,193,146228,1,0,0:0:0:0:
252,193,146328,1,8,0:0:0:0:
252,193,146428,1,0,0:0:0:0:
253,177,146528,1,0,0:0:0:0:
253,177,146628,1,8,0:0:0:0:
253,177,146728,1,0,0:0:0:0:
253,177,146828,1,8,0:0:0:0:
249,182,146903,1,0,0:0:0:0:
247,182,146978,1,0,0:0:0:0:
247,182,147053,1,8,0:0:0:0:
247,182,147128,1,0,0:0:0:0:
270,153,147278,1,8,0:0:0:0:
247,164,147428,5,4,0:0:0:0:
258,187,147578,1,8,0:0:0:0:
258,187,147728,1,8,0:0:0:0:
258,187,147878,1,8,0:0:0:0:
255,154,148078,1,8,0:0:0:0:
237,132,148278,1,8,0:0:0:0:
255,165,148478,1,8,0:0:0:0:
254,165,148628,1,8,0:0:0:0:
254,165,148778,1,8,0:0:0:0:
254,165,148928,1,8,0:0:0:0:
255,165,149128,1,8,0:0:0:0:
255,165,149328,1,8,0:0:0:0:
255,165,149528,1,8,0:0:0:0:
254,165,149678,1,8,0:0:0:0:
254,165,149828,1,0,0:0:0:0:
254,165,149978,1,0,0:0:0:0:
255,165,150178,1,0,0:0:0:0:
255,165,150378,1,0,0:0:0:0:
254,165,150578,1,0,0:0:0:0:
254,165,150728,1,0,0:0:0:0:
254,165,150878,1,0,0:0:0:0:
255,165,151028,1,0,0:0:0:0:
252,153,151228,1,0,0:0:0:0:
252,153,151428,1,0,0:0:0:0:
252,153,151628,1,0,0:0:0:0:
252,153,151853,1,0,0:0:0:0:
252,153,152078,1,0,0:0:0:0:
252,153,152228,1,8,0:0:0:0:
252,153,152378,1,8,0:0:0:0:
252,153,152528,1,8,0:0:0:0:
249,145,152678,1,8,0:0:0:0:
249,145,152878,1,8,0:0:0:0:
249,145,153078,1,8,0:0:0:0:
249,145,153278,1,8,0:0:0:0:
251,138,153428,1,8,0:0:0:0:
251,138,153578,1,8,0:0:0:0:
251,138,153728,1,8,0:0:0:0:
251,138,153928,1,8,0:0:0:0:
251,138,154128,1,8,0:0:0:0:
251,138,154328,1,8,0:0:0:0:
251,138,154478,1,8,0:0:0:0:
251,138,154628,1,8,0:0:0:0:
251,138,154778,1,8,0:0:0:0:
251,138,154978,1,8,0:0:0:0:
251,138,155178,1,8,0:0:0:0:
251,138,155378,1,8,0:0:0:0:
251,138,155528,1,8,0:0:0:0:
251,138,155678,1,8,0:0:0:0:
251,138,155828,1,8,0:0:0:0:
241,127,156028,1,8,0:0:0:0:
241,127,156228,1,8,0:0:0:0:
241,127,156428,1,0,0:0:0:0:
241,127,156653,1,0,0:0:0:0:
241,127,156878,1,0,0:0:0:0:
247,164,157028,1,8,0:0:0:0:
258,187,157178,1,8,0:0:0:0:
258,187,157328,1,8,0:0:0:0:
258,187,157478,1,8,0:0:0:0:
255,154,157678,1,8,0:0:0:0:
237,132,157878,1,8,0:0:0:0:
255,165,158078,1,8,0:0:0:0:
254,165,158228,1,8,0:0:0:0:
254,165,158378,1,8,0:0:0:0:
254,165,158528,1,8,0:0:0:0:
255,165,158728,1,8,0:0:0:0:
255,165,158928,1,8,0:0:0:0:
255,165,159128,1,8,0:0:0:0:
254,165,159278,1,8,0:0:0:0:
254,165,159428,1,0,0:0:0:0:
254,165,159578,1,0,0:0:0:0:
255,165,159778,1,0,0:0:0:0:
255,165,159978,1,0,0:0:0:0:
254,165,160178,1,0,0:0:0:0:
254,165,160328,1,0,0:0:0:0:
254,165,160478,1,0,0:0:0:0:
255,165,160628,1,0,0:0:0:0:
252,153,160828,1,0,0:0:0:0:
252,153,161028,1,0,0:0:0:0:
252,153,161228,1,0,0:0:0:0:
252,153,161453,1,0,0:0:0:0:
252,153,161678,1,0,0:0:0:0:
252,153,161828,1,8,0:0:0:0:
252,153,161978,1,8,0:0:0:0:
252,153,162128,1,8,0:0:0:0:
249,145,162278,1,8,0:0:0:0:
249,145,162478,1,8,0:0:0:0:
249,145,162678,1,8,0:0:0:0:
249,145,162878,1,8,0:0:0:0:
251,138,163028,1,8,0:0:0:0:
251,138,163178,1,8,0:0:0:0:
251,138,163328,1,8,0:0:0:0:
251,138,163528,1,8,0:0:0:0:
251,138,163728,1,8,0:0:0:0:
251,138,163928,1,8,0:0:0:0:
251,138,164078,1,8,0:0:0:0:
251,138,164228,1,8,0:0:0:0:
251,138,164378,1,8,0:0:0:0:
251,138,164578,1,8,0:0:0:0:
251,138,164778,1,8,0:0:0:0:
251,138,164978,1,8,0:0:0:0:
251,138,165128,1,8,0:0:0:0:
251,138,165278,1,8,0:0:0:0:
251,138,165428,1,8,0:0:0:0:
241,127,165628,1,8,0:0:0:0:
241,127,165828,1,8,0:0:0:0:
241,127,166028,1,0,0:0:0:0:
241,127,166253,1,0,0:0:0:0:
241,127,166478,1,0,0:0:0:0:
250,121,166628,1,12,0:0:0:0:
