osu file format v14

[General]
AudioFilename: audio.mp3
AudioLeadIn: 0
PreviewTime: 49028
Countdown: 0
SampleSet: Normal
StackLeniency: 0.7
Mode: 1
LetterboxInBreaks: 0
WidescreenStoryboard: 1

[Editor]
Bookmarks: 4914,9714,19314,28914,33714,38514,48114,67314,76914,86514,96114,108114,117714,127314,136914,165714
DistanceSpacing: 0.9
BeatDivisor: 4
GridSize: 32
TimelineZoom: 2.2

[Metadata]
Title:METEORITE
TitleUnicode:METEORITE
Artist:Breakchild & II-L
ArtistUnicode:Breakchild & II-L
Creator:WTHBRO
Version:FUTSUU
Source:
Tags:electronic instrumental psy footcore breakcore footwork breakchild re:birth rebirth ai futuristic lovestory good luck 胡桃 chan
BeatmapID:3109254
BeatmapSetID:1487513

[Difficulty]
HPDrainRate:6
CircleSize:3
OverallDifficulty:4
ApproachRate:6
SliderMultiplier:1.4
SliderTickRate:1

[Events]
//Background and Video events
0,0,"space-4401094_1920.jpg",0,0
//Break Periods
//Storyboard Layer 0 (Background)
//Storyboard Layer 1 (Fail)
//Storyboard Layer 2 (Pass)
//Storyboard Layer 3 (Foreground)
//Storyboard Layer 4 (Overlay)
//Storyboard Sound Samples

[TimingPoints]
1028,300,4,1,0,50,1,0
1028,-166.666666666667,4,1,0,50,0,0
5828,-166.666666666667,4,1,0,60,0,0
10628,-142.857142857143,4,1,0,70,0,0
46628,-125,4,1,0,70,0,0
48803,-111.557340473003,4,1,0,70,0,0
49028,-111.111111111111,4,1,0,90,0,1
68228,-111.111111111111,4,1,0,70,0,0
68378,-125,4,1,0,70,0,0
77828,-117.647058823529,4,1,0,70,0,0
87428,-111.111111111111,4,1,0,90,0,1
106553,-111.111111111111,4,1,0,60,0,0
106628,-142.857142857143,4,1,0,60,0,0
109028,-111.111111111111,4,1,0,90,0,1
118628,-111.111111111111,4,1,0,90,0,0
128228,-111.111111111111,4,1,0,90,0,1
137828,-111.111111111111,4,1,0,90,0,0
147428,-125,4,1,0,70,0,0

[HitObjects]
245,165,6128,5,8,0:0:0:0:
231,198,7328,1,8,0:0:0:0:
231,198,8528,1,8,0:0:0:0:
231,198,9728,1,8,0:0:0:0:
229,192,10028,1,8,0:0:0:0:
207,180,10628,1,8,0:0:0:0:
207,180,11228,1,8,0:0:0:0:
207,180,11828,1,8,0:0:0:0:
208,175,12428,1,8,0:0:0:0:
208,175,12728,1,0,0:0:0:0:
228,178,13028,1,0,0:0:0:0:
213,171,13628,1,0,0:0:0:0:
227,198,14228,1,0,0:0:0:0:
220,162,14528,1,8,0:0:0:0:
208,146,14828,1,8,0:0:0:0:
207,180,15428,1,8,0:0:0:0:
207,180,16028,1,8,0:0:0:0:
207,180,16628,1,8,0:0:0:0:
208,175,17228,1,8,0:0:0:0:
208,175,17528,1,0,0:0:0:0:
228,178,17828,1,0,0:0:0:0:
213,171,18428,1,0,0:0:0:0:
227,198,19028,1,0,0:0:0:0:
220,162,19328,1,8,0:0:0:0:
208,146,19628,1,8,0:0:0:0:
213,146,20228,1,4,0:0:0:0:
211,151,20528,1,8,0:0:0:0:
205,150,20828,1,0,0:0:0:0:
206,156,20978,1,8,0:0:0:0:
220,180,21128,1,0,0:0:0:0:
213,138,21428,1,0,0:0:0:0:
203,141,21728,1,8,0:0:0:0:
203,141,22028,1,0,0:0:0:0:
203,141,22178,1,8,0:0:0:0:
203,141,22328,1,8,0:0:0:0:
203,141,22628,1,0,0:0:0:0:
203,141,22928,1,8,0:0:0:0:
203,141,23228,1,0,0:0:0:0:
201,161,23378,1,8,0:0:0:0:
226,154,23528,1,0,0:0:0:0:
214,123,23828,1,0,0:0:0:0:
204,150,24128,1,8,0:0:0:0:
224,157,24428,1,0,0:0:0:0:
208,146,25028,1,8,0:0:0:0:
208,146,25328,1,8,0:0:0:0:
209,153,25628,1,8,0:0:0:0:
208,146,25778,1,0,0:0:0:0:
208,146,25928,1,8,0:0:0:0:
211,149,26228,1,8,0:0:0:0:
213,146,26528,1,8,0:0:0:0:
207,157,26828,1,8,0:0:0:0:
214,166,27128,1,0,0:0:0:0:
221,173,27278,1,0,0:0:0:0:
219,189,27428,1,8,0:0:0:0:
222,195,27728,1,8,0:0:0:0:
219,189,28028,1,8,0:0:0:0:
219,189,28328,1,8,0:0:0:0:
216,149,28628,1,0,0:0:0:0:
218,159,29828,1,12,0:0:0:0:
213,162,30128,1,0,0:0:0:0:
214,143,30428,1,8,0:0:0:0:
214,143,30578,1,8,0:0:0:0:
208,160,30728,1,0,0:0:0:0:
213,143,31028,1,0,0:0:0:0:
225,135,31328,1,0,0:0:0:0:
221,167,31628,1,8,0:0:0:0:
218,159,32228,1,0,0:0:0:0:
216,149,32528,1,0,0:0:0:0:
214,143,32828,1,0,0:0:0:0:
214,143,32978,1,8,0:0:0:0:
212,152,33128,1,0,0:0:0:0:
213,143,33428,1,0,0:0:0:0:
225,135,33728,1,0,0:0:0:0:
228,141,34028,1,8,0:0:0:0:
218,159,34628,1,8,0:0:0:0:
216,149,34928,1,8,0:0:0:0:
218,159,35228,1,8,0:0:0:0:
218,159,35378,1,0,0:0:0:0:
214,143,35528,1,8,0:0:0:0:
213,143,35828,1,8,0:0:0:0:
225,135,36128,1,8,0:0:0:0:
228,141,36428,1,8,0:0:0:0:
195,123,36728,1,0,0:0:0:0:
230,115,36878,1,0,0:0:0:0:
217,119,37028,1,8,0:0:0:0:
221,114,37328,1,0,0:0:0:0:
211,129,37628,1,8,0:0:0:0:
212,129,38228,1,0,0:0:0:0:
212,129,38528,1,8,0:0:0:0:
211,129,38828,1,8,0:0:0:0:
224,146,39428,1,4,0:0:0:0:
212,157,39728,1,0,0:0:0:0:
224,147,40028,1,8,0:0:0:0:
202,144,40628,1,0,0:0:0:0:
230,141,40928,1,0,0:0:0:0:
222,130,41078,1,0,0:0:0:0:
222,130,41228,1,8,0:0:0:0:
220,119,41828,1,0,0:0:0:0:
232,110,42128,1,0,0:0:0:0:
232,110,42428,1,8,0:0:0:0:
232,110,43028,1,0,0:0:0:0:
232,110,43328,1,8,0:0:0:0:
226,114,43478,1,0,0:0:0:0:
231,95,43628,1,8,0:0:0:0:
224,102,44228,1,0,0:0:0:0:
236,110,44528,1,0,0:0:0:0:
227,104,44828,1,8,0:0:0:0:
225,110,45428,1,8,0:0:0:0:
228,110,45728,1,0,0:0:0:0:
233,105,45878,1,0,0:0:0:0:
221,105,46028,1,8,0:0:0:0:
222,95,46628,1,0,0:0:0:0:
222,98,46928,1,0,0:0:0:0:
231,93,47228,1,8,0:0:0:0:
228,147,47828,1,0,0:0:0:0:
228,147,48128,1,8,0:0:0:0:
221,118,48278,1,0,0:0:0:0:
241,127,48428,1,8,0:0:0:0:
242,178,49028,1,4,0:0:0:0:
248,180,49328,1,0,0:0:0:0:
253,169,49628,1,8,0:0:0:0:
252,169,49853,1,8,0:0:0:0:
252,168,50078,1,8,0:0:0:0:
250,158,50228,1,0,0:0:0:0:
253,169,50528,1,0,0:0:0:0:
256,158,50828,1,8,0:0:0:0:
255,157,51428,1,0,0:0:0:0:
255,157,51578,1,0,0:0:0:0:
255,152,51728,1,0,0:0:0:0:
255,152,52028,1,8,0:0:0:0:
259,167,52178,1,8,0:0:0:0:
255,157,52328,1,8,0:0:0:0:
256,184,52628,1,0,0:0:0:0:
255,191,52928,1,0,0:0:0:0:
252,180,53228,1,8,0:0:0:0:
234,164,53828,1,0,0:0:0:0:
244,178,54128,1,0,0:0:0:0:
247,190,54428,1,8,0:0:0:0:
229,174,54728,1,8,0:0:0:0:
225,174,54878,1,8,0:0:0:0:
242,193,55028,1,0,0:0:0:0:
238,181,55328,1,0,0:0:0:0:
248,176,55628,1,8,0:0:0:0:
242,193,56228,1,8,0:0:0:0:
243,196,56528,1,8,0:0:0:0:
242,187,56828,1,8,0:0:0:0:
226,202,56978,1,8,0:0:0:0:
239,174,57128,1,8,0:0:0:0:
242,193,57428,1,0,0:0:0:0:
226,188,57728,1,0,0:0:0:0:
261,184,58028,1,8,0:0:0:0:
248,166,58628,1,4,0:0:0:0:
250,164,59828,1,0,0:0:0:0:
249,163,60128,1,0,0:0:0:0:
249,163,60428,1,8,0:0:0:0:
234,164,61028,1,8,0:0:0:0:
234,183,61328,1,0,0:0:0:0:
247,190,61628,1,8,0:0:0:0:
234,164,61928,1,8,0:0:0:0:
234,161,62078,1,8,0:0:0:0:
242,193,62228,1,0,0:0:0:0:
233,171,62528,1,0,0:0:0:0:
248,176,62828,1,8,0:0:0:0:
234,164,63428,1,0,0:0:0:0:
244,178,63728,1,0,0:0:0:0:
247,190,64028,1,8,0:0:0:0:
247,190,64328,1,8,0:0:0:0:
231,171,64478,1,8,0:0:0:0:
242,193,64628,1,0,0:0:0:0:
253,174,64928,1,0,0:0:0:0:
248,176,65228,1,8,0:0:0:0:
240,146,65828,1,8,0:0:0:0:
245,185,66128,1,8,0:0:0:0:
242,187,66428,1,8,0:0:0:0:
271,190,66578,1,8,0:0:0:0:
239,174,66728,1,8,0:0:0:0:
242,193,67028,1,0,0:0:0:0:
238,157,67328,1,0,0:0:0:0:
261,184,67628,1,8,0:0:0:0:
238,157,68228,1,4,0:0:0:0:
219,160,68828,1,8,0:0:0:0:
218,143,69428,1,0,0:0:0:0:
202,128,70028,1,8,0:0:0:0:
202,128,70253,1,0,0:0:0:0:
199,136,70478,1,0,0:0:0:0:
196,145,70628,1,0,0:0:0:0:
187,118,71228,1,8,0:0:0:0:
200,120,71828,1,0,0:0:0:0:
188,111,72428,1,8,0:0:0:0:
193,104,72653,1,0,0:0:0:0:
194,101,72878,1,0,0:0:0:0:
238,157,73028,1,8,0:0:0:0:
227,165,73628,1,8,0:0:0:0:
219,169,73928,1,8,0:0:0:0:
219,169,74228,1,0,0:0:0:0:
202,128,74828,1,8,0:0:0:0:
202,128,75053,1,0,0:0:0:0:
199,136,75278,1,0,0:0:0:0:
196,145,75428,1,8,0:0:0:0:
218,144,75728,1,0,0:0:0:0:
187,118,76028,1,8,0:0:0:0:
182,130,76178,1,8,0:0:0:0:
182,130,76328,1,8,0:0:0:0:
200,120,76628,1,0,0:0:0:0:
188,111,76928,1,0,0:0:0:0:
188,111,77228,1,8,0:0:0:0:
238,157,77828,1,4,0:0:0:0:
219,160,78428,1,8,0:0:0:0:
218,143,79028,1,0,0:0:0:0:
213,144,79328,1,0,0:0:0:0:
202,128,79628,1,8,0:0:0:0:
197,136,79853,1,0,0:0:0:0:
199,136,80078,1,0,0:0:0:0:
196,145,80228,1,0,0:0:0:0:
187,118,80828,1,8,0:0:0:0:
200,120,81428,1,8,0:0:0:0:
188,111,81728,1,0,0:0:0:0:
188,111,82028,1,8,0:0:0:0:
208,135,82253,1,0,0:0:0:0:
194,101,82478,1,0,0:0:0:0:
238,157,82628,1,8,0:0:0:0:
208,118,82928,1,0,0:0:0:0:
219,160,83228,1,8,0:0:0:0:
219,160,83528,1,8,0:0:0:0:
222,164,83828,1,0,0:0:0:0:
213,144,84128,1,0,0:0:0:0:
202,128,84428,1,8,0:0:0:0:
196,145,85028,1,8,0:0:0:0:
182,127,85328,1,8,0:0:0:0:
187,118,85628,1,8,0:0:0:0:
221,150,85778,1,8,0:0:0:0:
231,125,85928,1,8,0:0:0:0:
218,96,86228,1,0,0:0:0:0:
197,101,87428,1,4,0:0:0:0:
197,101,87803,1,0,0:0:0:0:
201,91,88028,1,8,0:0:0:0:
204,93,88178,1,0,0:0:0:0:
206,89,88628,1,0,0:0:0:0:
197,101,89003,1,0,0:0:0:0:
194,86,89228,1,8,0:0:0:0:
194,86,89378,1,8,0:0:0:0:
194,86,89828,1,4,0:0:0:0:
194,86,90203,1,0,0:0:0:0:
204,82,90428,1,8,0:0:0:0:
195,96,90578,1,0,0:0:0:0:
204,82,91028,1,0,0:0:0:0:
201,87,91403,1,0,0:0:0:0:
201,87,91628,1,8,0:0:0:0:
197,101,92228,1,4,0:0:0:0:
197,101,92603,1,0,0:0:0:0:
201,91,92828,1,8,0:0:0:0:
204,93,92978,1,0,0:0:0:0:
206,89,93428,1,8,0:0:0:0:
197,101,93803,1,0,0:0:0:0:
194,86,94028,1,8,0:0:0:0:
194,86,94178,1,8,0:0:0:0:
194,86,94628,1,4,0:0:0:0:
194,86,95003,1,0,0:0:0:0:
204,82,95228,1,8,0:0:0:0:
195,96,95378,1,0,0:0:0:0:
204,82,95828,1,8,0:0:0:0:
201,87,96203,1,0,0:0:0:0:
201,87,96428,1,8,0:0:0:0:
197,101,97028,1,12,0:0:0:0:
192,97,97253,1,8,0:0:0:0:
197,101,97478,1,8,0:0:0:0:
212,87,97703,1,8,0:0:0:0:
206,89,98228,1,8,0:0:0:0:
206,89,98453,1,8,0:0:0:0:
194,86,98678,1,8,0:0:0:0:
204,93,98903,1,8,0:0:0:0:
192,99,99428,1,12,0:0:0:0:
194,96,99653,1,8,0:0:0:0:
204,82,99878,1,8,0:0:0:0:
197,103,100103,1,8,0:0:0:0:
202,73,100628,1,8,0:0:0:0:
222,111,100778,1,8,0:0:0:0:
201,102,100928,1,0,0:0:0:0:
201,87,101228,1,8,0:0:0:0:
197,101,101828,1,12,0:0:0:0:
192,97,102053,1,0,0:0:0:0:
197,101,102278,1,0,0:0:0:0:
212,87,102503,1,8,0:0:0:0:
206,89,103028,1,8,0:0:0:0:
206,89,103253,1,8,0:0:0:0:
194,86,103478,1,0,0:0:0:0:
204,93,103703,1,8,0:0:0:0:
197,101,104228,1,12,0:0:0:0:
192,97,104453,1,0,0:0:0:0:
197,101,104678,1,8,0:0:0:0:
212,87,104903,1,8,0:0:0:0:
206,89,105428,1,8,0:0:0:0:
209,130,105578,1,8,0:0:0:0:
216,125,105803,1,8,0:0:0:0:
185,133,106028,1,8,0:0:0:0:
204,93,106178,1,8,0:0:0:0:
211,117,106403,1,8,0:0:0:0:
181,107,106553,1,0,0:0:0:0:
214,111,109028,1,4,0:0:0:0:
221,101,109478,1,8,0:0:0:0:
218,87,109678,1,8,0:0:0:0:
218,87,109878,1,8,0:0:0:0:
230,92,110228,1,8,0:0:0:0:
219,101,110528,1,8,0:0:0:0:
216,104,110728,1,8,0:0:0:0:
238,96,110928,1,8,0:0:0:0:
193,102,111278,1,0,0:0:0:0:
198,104,111578,1,0,0:0:0:0:
209,97,111778,1,0,0:0:0:0:
209,97,111978,1,0,0:0:0:0:
224,98,112328,1,0,0:0:0:0:
209,98,112628,1,0,0:0:0:0:
216,105,112828,1,0,0:0:0:0:
204,93,113028,1,0,0:0:0:0:
218,118,113228,1,8,0:0:0:0:
220,99,113828,1,12,0:0:0:0:
214,111,114278,1,8,0:0:0:0:
218,87,114478,1,8,0:0:0:0:
218,87,114678,1,8,0:0:0:0:
230,92,115028,1,0,0:0:0:0:
219,101,115328,1,8,0:0:0:0:
216,104,115528,1,8,0:0:0:0:
219,94,115728,1,8,0:0:0:0:
218,94,116078,1,0,0:0:0:0:
211,113,116378,1,8,0:0:0:0:
209,97,116578,1,8,0:0:0:0:
209,97,116778,1,8,0:0:0:0:
234,117,117128,1,0,0:0:0:0:
209,98,117428,1,8,0:0:0:0:
204,93,117628,1,8,0:0:0:0:
204,93,117828,1,8,0:0:0:0:
225,126,118028,1,0,0:0:0:0:
204,93,118628,1,0,0:0:0:0:
212,101,118928,1,0,0:0:0:0:
230,91,119228,1,8,0:0:0:0:
222,142,119528,1,8,0:0:0:0:
195,108,119678,1,8,0:0:0:0:
229,138,119828,1,0,0:0:0:0:
216,110,120128,1,0,0:0:0:0:
222,142,120428,1,8,0:0:0:0:
221,116,121028,1,0,0:0:0:0:
216,110,121328,1,0,0:0:0:0:
218,115,121628,1,8,0:0:0:0:
213,125,121928,1,0,0:0:0:0:
205,113,122228,1,0,0:0:0:0:
206,112,122428,1,0,0:0:0:0:
206,112,122628,1,0,0:0:0:0:
220,110,122828,1,8,0:0:0:0:
222,104,123428,1,0,0:0:0:0:
225,111,123728,1,8,0:0:0:0:
213,116,123878,1,0,0:0:0:0:
229,105,124028,1,8,0:0:0:0:
232,135,124328,1,8,0:0:0:0:
230,97,124628,1,0,0:0:0:0:
229,105,124928,1,0,0:0:0:0:
227,98,125228,1,8,0:0:0:0:
233,117,125828,1,0,0:0:0:0:
233,111,126128,1,8,0:0:0:0:
245,114,126428,1,8,0:0:0:0:
221,124,126728,1,0,0:0:0:0:
212,116,126878,1,0,0:0:0:0:
252,193,127028,1,8,0:0:0:0:
253,177,127328,1,0,0:0:0:0:
253,177,127628,1,8,0:0:0:0:
214,111,128228,1,4,0:0:0:0:
221,101,128678,1,8,0:0:0:0:
218,87,128878,1,8,0:0:0:0:
218,87,129078,1,8,0:0:0:0:
230,92,129428,1,8,0:0:0:0:
219,101,129728,1,8,0:0:0:0:
216,104,129928,1,8,0:0:0:0:
238,96,130128,1,8,0:0:0:0:
193,102,130478,1,0,0:0:0:0:
198,104,130778,1,0,0:0:0:0:
209,97,130978,1,0,0:0:0:0:
209,97,131178,1,0,0:0:0:0:
224,98,131528,1,0,0:0:0:0:
209,98,131828,1,0,0:0:0:0:
216,105,132028,1,0,0:0:0:0:
204,93,132228,1,0,0:0:0:0:
213,114,132428,1,8,0:0:0:0:
220,99,133028,1,12,0:0:0:0:
214,111,133478,1,8,0:0:0:0:
218,87,133678,1,8,0:0:0:0:
218,87,133878,1,8,0:0:0:0:
230,92,134228,1,0,0:0:0:0:
219,101,134528,1,8,0:0:0:0:
216,104,134728,1,8,0:0:0:0:
219,94,134928,1,8,0:0:0:0:
218,94,135278,1,0,0:0:0:0:
211,113,135578,1,8,0:0:0:0:
209,97,135778,1,8,0:0:0:0:
209,97,135978,1,8,0:0:0:0:
234,117,136328,1,0,0:0:0:0:
209,98,136628,1,8,0:0:0:0:
204,93,136828,1,8,0:0:0:0:
204,93,137028,1,8,0:0:0:0:
208,119,137228,1,0,0:0:0:0:
204,93,137828,1,0,0:0:0:0:
212,101,138128,1,0,0:0:0:0:
207,124,138428,1,8,0:0:0:0:
207,124,138578,1,0,0:0:0:0:
222,142,138728,1,8,0:0:0:0:
229,138,139028,1,0,0:0:0:0:
216,110,139328,1,0,0:0:0:0:
222,142,139628,1,8,0:0:0:0:
221,116,140228,1,0,0:0:0:0:
216,110,140528,1,0,0:0:0:0:
218,115,140828,1,8,0:0:0:0:
213,125,141128,1,0,0:0:0:0:
205,113,141428,1,8,0:0:0:0:
206,112,141628,1,0,0:0:0:0:
206,112,141828,1,0,0:0:0:0:
220,110,142028,1,8,0:0:0:0:
222,104,142628,1,0,0:0:0:0:
225,111,142928,1,8,0:0:0:0:
223,118,143078,1,0,0:0:0:0:
229,105,143228,1,8,0:0:0:0:
232,135,143528,1,8,0:0:0:0:
230,97,143828,1,0,0:0:0:0:
229,105,144128,1,0,0:0:0:0:
227,98,144428,1,8,0:0:0:0:
233,117,145028,1,0,0:0:0:0:
233,111,145328,1,8,0:0:0:0:
245,114,145628,1,8,0:0:0:0:
221,124,145928,1,0,0:0:0:0:
215,119,146078,1,0,0:0:0:0:
252,193,146228,1,8,0:0:0:0:
253,177,146528,1,0,0:0:0:0:
253,177,146828,1,8,0:0:0:0:
247,185,147428,1,4,0:0:0:0:
246,178,148028,1,8,0:0:0:0:
239,189,148253,1,8,0:0:0:0:
246,178,148478,1,8,0:0:0:0:
239,189,148628,1,0,0:0:0:0:
246,178,149228,1,8,0:0:0:0:
234,184,149528,1,8,0:0:0:0:
236,185,149678,1,8,0:0:0:0:
239,189,149828,1,0,0:0:0:0:
239,189,150428,1,8,0:0:0:0:
241,191,150578,1,0,0:0:0:0:
239,189,150728,1,0,0:0:0:0:
239,189,151028,1,0,0:0:0:0:
246,178,151628,1,8,0:0:0:0:
238,190,152228,1,0,0:0:0:0:
236,176,152378,1,8,0:0:0:0:
236,176,152528,1,8,0:0:0:0:
246,178,152828,1,8,0:0:0:0:
236,176,153428,1,0,0:0:0:0:
236,176,153578,1,0,0:0:0:0:
236,176,153728,1,8,0:0:0:0:
246,178,154028,1,8,0:0:0:0:
233,187,154628,1,0,0:0:0:0:
233,187,154778,1,0,0:0:0:0:
233,187,155003,1,0,0:0:0:0:
246,178,155228,1,8,0:0:0:0:
233,187,155828,1,0,0:0:0:0:
231,181,156028,1,0,0:0:0:0:
231,181,156228,1,0,0:0:0:0:
246,178,156428,1,8,0:0:0:0:
247,185,157028,1,0,0:0:0:0:
246,178,157628,1,8,0:0:0:0:
239,189,157853,1,8,0:0:0:0:
246,178,158078,1,8,0:0:0:0:
239,189,158228,1,0,0:0:0:0:
246,178,158828,1,8,0:0:0:0:
234,184,159128,1,8,0:0:0:0:
236,185,159278,1,8,0:0:0:0:
239,189,159428,1,0,0:0:0:0:
239,189,160028,1,8,0:0:0:0:
241,191,160178,1,0,0:0:0:0:
239,189,160328,1,0,0:0:0:0:
239,189,160628,1,0,0:0:0:0:
246,178,161228,1,8,0:0:0:0:
238,190,161828,1,0,0:0:0:0:
236,176,161978,1,8,0:0:0:0:
236,176,162128,1,8,0:0:0:0:
246,178,162428,1,8,0:0:0:0:
236,176,163028,1,0,0:0:0:0:
236,176,163178,1,0,0:0:0:0:
236,176,163328,1,8,0:0:0:0:
246,178,163628,1,8,0:0:0:0:
233,187,164228,1,0,0:0:0:0:
233,187,164378,1,0,0:0:0:0:
233,187,164578,1,0,0:0:0:0:
246,178,164828,1,8,0:0:0:0:
233,187,165428,1,0,0:0:0:0:
231,181,165628,1,0,0:0:0:0:
231,181,165828,1,0,0:0:0:0:
246,178,166028,1,8,0:0:0:0:
244,177,166628,1,12,0:0:0:0:
