osu file format v14

[General]
AudioFilename: audio.mp3
AudioLeadIn: 0
PreviewTime: 48250
Countdown: 0
SampleSet: Soft
StackLeniency: 0.7
Mode: 0
LetterboxInBreaks: 0
WidescreenStoryboard: 0

[Editor]
Bookmarks: 16375,64375
DistanceSpacing: 1.2
BeatDivisor: 4
GridSize: 4
TimelineZoom: 1

[Metadata]
Title:Outro (Rollin')
TitleUnicode:Outro (Rollin')
Artist:Brave Girls
ArtistUnicode:브레이브걸스
Creator:Shmiklak
Version:Normal
Source:
Tags:marvollo m_a_r_v_o_l_l_o yamakudzi marianna kpop edm Brave Brothers Chakun 용감한형제 투챔프 차쿤 Kim Minyoung 김민영 Yujeong 남유정 Hong Eunji 홍은지 Lee Yuna 이유나 Lee Hayun 이하윤
BeatmapID:1571476
BeatmapSetID:745396

[Difficulty]
HPDrainRate:3
CircleSize:3
OverallDifficulty:3
ApproachRate:4.5
SliderMultiplier:1.4
SliderTickRate:1

[Events]
//Background and Video events
0,0,"C5rkGmBUoAAHxRQ.png",0,0
//Break Periods
//Storyboard Layer 0 (Background)
//Storyboard Layer 1 (Fail)
//Storyboard Layer 2 (Pass)
//Storyboard Layer 3 (Foreground)
//Storyboard Sound Samples

[TimingPoints]
375,500,4,2,0,70,1,0
47875,-100,4,2,44,90,0,0
48375,-100,4,2,0,70,0,1
64375,-100,4,2,0,70,0,0

[Colours]
Combo1 : 255,53,53
Combo2 : 245,109,177
SliderTrackOverride : 100,100,100

[HitObjects]
125,275,16375,6,0,P|121:206|117:127,1,140,4|8,0:0|0:0,0:0:0:0:
155,60,17125,2,0,P|215:80|305:75,1,140,0|0,0:0|0:0,0:0:0:0:
369,46,17875,2,0,P|411:47|454:57,1,70,8|0,0:0|0:0,0:0:0:0:
498,111,18375,6,0,L|494:267,1,140,2|8,0:0|0:0,0:0:0:0:
435,310,19125,1,0,0:0:0:0:
375,250,19375,2,0,P|376:209|383:174,1,70,2|0,0:0|0:0,0:0:0:0:
321,121,19875,2,0,P|286:126|251:127,1,70,8|0,0:0|0:0,0:0:0:0:
176,88,20375,6,0,P|107:83|29:112,1,140,2|8,0:0|0:0,0:0:0:0:
0,176,21125,2,0,P|8:254|12:324,1,140,0|0,0:0|0:0,0:0:0:0:
83,359,21875,2,0,P|96:318|119:284,1,70,8|0,0:0|0:0,0:0:0:0:
169,235,22375,6,0,P|238:243|314:224,1,140,2|8,0:0|0:0,0:0:0:0:
365,168,23125,1,0,0:0:0:0:
305,108,23375,2,0,P|237:92|168:100,1,140,2|10,0:0|0:0,0:0:0:0:
49,219,24375,6,0,P|118:215|197:211,1,140,2|8,0:0|0:0,0:0:0:0:
236,284,25125,2,0,P|302:304|372:283,1,140,0|0,0:0|0:0,0:0:0:0:
427,225,25875,2,0,P|428:183|438:140,1,70,8|0,0:0|0:0,0:0:0:0:
373,95,26375,6,0,L|233:98,1,140,2|8,0:0|0:0,0:0:0:0:
173,157,27125,1,0,0:0:0:0:
232,216,27375,2,0,P|273:215|308:208,1,70,2|0,0:0|0:0,0:0:0:0:
379,178,27875,2,0,P|414:179|449:184,1,70,8|0,0:0|0:0,0:0:0:0:
468,268,28375,6,0,P|409:295|321:292,1,140,2|8,0:0|0:0,0:0:0:0:
275,236,29125,2,0,P|283:157|287:88,1,140,0|0,0:0|0:0,0:0:0:0:
216,50,29875,2,0,P|175:63|141:86,1,70,8|0,0:0|0:0,0:0:0:0:
92,136,30375,6,0,P|84:205|103:281,1,140,2|8,0:0|0:0,0:0:0:0:
158,332,31125,1,0,0:0:0:0:
240,316,31375,2,0,P|278:320|317:325,2,70,2|2|10,3:0|3:0|3:2,0:0:0:0:
336,176,32375,6,0,P|258:178|183:171,1,140,4|8,0:0|0:0,0:0:0:0:
122,135,33125,1,2,0:0:0:0:
62,194,33375,2,0,P|59:229|66:269,1,70,0|0,3:0|0:0,0:0:0:0:
124,323,33875,2,0,P|159:325|199:319,1,70,8|0,0:0|0:0,0:0:0:0:
253,260,34375,6,0,L|405:278,1,140,2|8,0:0|0:0,0:0:0:0:
451,217,35125,1,2,0:0:0:0:
392,156,35375,2,0,P|388:115|406:40,2,105,2|2|2,0:0|0:0|0:0,0:0:0:0:
451,217,36375,6,0,P|454:286|460:366,1,140,2|8,0:0|0:0,0:0:0:0:
375,356,37125,1,2,0:0:0:0:
315,296,37375,2,0,L|308:204,1,70,2|0,0:0|0:0,0:0:0:0:
225,226,37875,2,0,L|219:295,1,70,8|0,0:0|0:0,0:0:0:0:
160,355,38375,6,0,P|86:338|45:284,1,140,2|8,0:0|0:0,0:0:0:0:
32,208,39125,1,2,0:0:0:0:
76,136,39375,2,0,P|114:142|197:155,2,105,2|2|0,0:0|0:0|0:0,0:0:0:0:
48,56,40375,6,0,P|126:54|201:61,1,140,4|8,0:0|0:0,0:0:0:0:
260,100,41125,1,2,0:0:0:0:
341,78,41375,2,0,P|377:75|416:82,1,70,0|0,3:0|0:0,0:0:0:0:
469,139,41875,2,0,P|467:178|453:207,1,70,8|0,0:0|0:0,0:0:0:0:
384,252,42375,6,0,P|307:242|232:234,1,140,2|8,0:0|0:0,0:0:0:0:
185,294,43125,1,2,0:0:0:0:
132,228,43375,2,0,P|128:187|146:112,2,105,2|2|2,0:0|0:0|0:0,0:0:0:0:
185,294,44375,6,0,P|255:297|326:274,1,140,2|8,0:0|0:0,0:0:0:0:
380,216,45125,1,0,0:0:0:0:
320,156,45375,2,0,P|317:116|313:64,1,70,2|0,0:0|0:0,0:0:0:0:
374,26,45875,2,0,P|408:24|443:31,1,70,8|0,0:0|0:0,0:0:0:0:
492,100,46375,5,0,0:0:0:0:
198,327,47875,1,2,0:0:0:0:
198,327,48375,6,0,P|196:251|194:183,1,140,4|8,0:0|0:0,0:0:0:0:
148,116,49125,1,0,0:0:0:0:
207,56,49375,2,0,P|260:37|365:61,1,140,2|8,0:0|0:0,0:0:0:0:
460,166,50375,6,0,P|456:210|452:264,1,70,2|0,0:0|0:0,0:0:0:0:
394,295,50875,2,0,P|349:291|296:287,1,70,8|0,0:0|0:0,0:0:0:0:
264,349,51375,2,0,P|219:354|120:333,1,140,2|8,0:0|0:0,0:0:0:0:
32,196,52375,6,0,L|39:73,2,105,2|2|2,0:0|0:0|0:0,0:0:0:0:
148,144,53500,2,0,L|155:267,1,105,2|8,0:0|0:0,0:0:0:0:
284,356,54375,6,0,P|344:360|440:336,1,140,2|8,0:0|0:0,0:0:0:0:
466,272,55125,1,2,0:0:0:0:
406,212,55375,2,0,P|411:143|410:59,1,140,2|10,0:0|0:0,0:0:0:0:
248,24,56375,6,0,P|172:23|104:20,1,140,4|8,0:0|0:0,0:0:0:0:
48,80,57125,1,0,0:0:0:0:
107,140,57375,2,0,P|119:209|98:275,1,140,2|8,0:0|0:0,0:0:0:0:
248,356,58375,6,0,P|292:359|346:364,1,70,2|0,0:0|0:0,0:0:0:0:
377,301,58875,2,0,P|380:257|385:203,1,70,8|0,0:0|0:0,0:0:0:0:
322,171,59375,2,0,P|277:176|178:155,1,140,2|8,0:0|0:0,0:0:0:0:
65,39,60375,6,0,P|122:38|188:46,2,105,2|2|2,0:0|0:0|0:0,0:0:0:0:
0,140,61500,2,0,P|-7:197|7:263,1,105,2|8,0:0|0:0,0:0:0:0:
119,362,62375,6,0,P|162:348|261:351,1,140,2|8,0:0|0:0,0:0:0:0:
337,369,63125,1,2,0:0:0:0:
396,309,63375,2,0,P|401:240|400:156,1,140,2|4,0:0|3:0,0:0:0:0:
312,28,64375,5,4,0:0:0:0:
