osu file format v14

[General]
AudioFilename: audio.mp3
AudioLeadIn: 0
PreviewTime: 48375
Countdown: 0
SampleSet: Soft
StackLeniency: 0.7
Mode: 0
LetterboxInBreaks: 0
WidescreenStoryboard: 0

[Editor]
DistanceSpacing: 0.8
BeatDivisor: 4
GridSize: 4
TimelineZoom: 1

[Metadata]
Title:Outro (Rollin')
TitleUnicode:Outro (Rollin')
Artist:Brave Girls
ArtistUnicode:브레이브걸스
Creator:Ora
Version:Rollin'
Source:
Tags:kpop k-pop edm Brave Brothers Chakun 용감한형제 투챔프 차쿤 Kim Minyoung 김민영 Yujeong 남유정 Hong Eunji 홍은지 Lee Yuna 이유나 Lee Hayun 이하윤
BeatmapID:1359393
BeatmapSetID:641018

[Difficulty]
HPDrainRate:5
CircleSize:4
OverallDifficulty:6
ApproachRate:7.5
SliderMultiplier:1.7
SliderTickRate:1

[Events]
//Background and Video events
0,0,"C5rkGmBUoAAHxRQ.png",0,0
//Break Periods
//Storyboard Layer 0 (Background)
//Storyboard Layer 1 (Fail)
//Storyboard Layer 2 (Pass)
//Storyboard Layer 3 (Foreground)
//Storyboard Sound Samples

[TimingPoints]
375,500,4,2,2,40,1,0
375,-125,4,2,2,40,0,0
1625,-125,4,2,2,5,0,0
1875,-125,4,2,2,40,0,0
3625,-125,4,2,2,5,0,0
3875,-125,4,2,2,40,0,0
5625,-125,4,2,2,5,0,0
5875,-125,4,2,2,40,0,0
7625,-125,4,2,2,5,0,0
7875,-125,4,2,2,40,0,0
9625,-125,4,2,2,5,0,0
9875,-125,4,2,2,40,0,0
11625,-125,4,2,2,5,0,0
11875,-125,4,2,2,40,0,0
13625,-125,4,2,2,5,0,0
13875,-125,4,2,2,40,0,0
14875,-125,4,2,1,35,0,0
15375,-125,4,2,1,30,0,0
15875,-125,4,2,1,25,0,0
16375,-100,4,2,1,55,0,0
16875,-90.9090909090909,4,2,1,55,0,0
17125,-100,4,2,1,55,0,0
18875,-90.9090909090909,4,2,1,55,0,0
19125,-100,4,2,1,55,0,0
20875,-90.9090909090909,4,2,1,55,0,0
21125,-100,4,2,1,55,0,0
24875,-90.9090909090909,4,2,1,55,0,0
25125,-100,4,2,1,55,0,0
26875,-90.9090909090909,4,2,1,55,0,0
27125,-100,4,2,1,55,0,0
28875,-90.9090909090909,4,2,1,55,0,0
29125,-100,4,2,1,55,0,0
32375,-90.9090909090909,4,2,1,60,0,0
48375,-86.9565217391304,4,2,1,65,0,1
63125,-95.2380952380952,4,2,1,65,0,0
63625,-86.9565217391304,4,2,1,65,0,0
64875,-86.9565217391304,4,2,1,45,0,0
65375,-86.9565217391304,4,2,1,35,0,0
65875,-86.9565217391304,4,2,1,25,0,0
66375,-86.9565217391304,4,2,1,5,0,0

[Colours]
Combo1 : 227,174,189
Combo2 : 128,0,0
Combo3 : 128,128,128

[HitObjects]
429,237,375,6,0,P|380:261|303:238,1,136
249,181,1125,2,0,P|164:162|100:214,1,170
90,234,1875,1,8,0:0:0:0:
90,234,2375,6,0,B|78:186|78:186|91:98,1,136
147,42,3125,2,0,B|187:25|229:45|229:45|272:26|311:42,1,170
334,57,3875,1,8,0:0:0:0:
334,57,4375,6,0,P|302:119|314:183,1,136
364,236,5125,2,0,B|295:226|295:226|236:237|236:237|244:261|261:290,1,170
263,298,5875,1,8,0:0:0:0:
263,298,6375,6,0,P|196:293|123:303,1,136
66,343,7125,2,0,B|105:285|82:218|82:218|64:230|51:247,1,170
38,265,7875,1,8,0:0:0:0:
38,265,8375,6,0,P|70:198|51:122,1,136
6,86,9125,2,0,B|64:93|64:93|113:77|113:77|172:85,1,170
198,92,9875,1,8,0:0:0:0:
198,92,10375,6,0,P|275:83|322:121,1,136
354,182,11125,2,0,P|354:129|451:79,1,170
472,87,11875,1,8,0:0:0:0:
472,87,12375,6,0,P|409:84|331:75,1,136
279,27,13125,2,0,B|296:69|282:109|282:109|267:156|287:200,1,170
294,218,13875,1,8,0:0:0:0:
256,192,14375,12,0,15875,0:0:0:0:
294,200,16375,6,0,P|229:202|167:212,1,127.5,6|0,0:0|0:0,0:0:0:0:
93,270,16875,2,0,P|95:219|84:171,1,93.5000028533936,10|0,0:0|0:0,0:0:0:0:
35,59,17375,1,2,0:0:0:0:
0,199,17625,1,0,0:0:0:0:
179,128,17875,1,10,0:0:0:0:
179,128,18375,6,0,P|251:127|303:179,1,127.5,2|0,0:0|0:0,0:0:0:0:
319,249,18875,2,0,L|307:347,1,93.5000028533936,10|0,0:0|0:0,0:0:0:0:
223,284,19375,1,2,0:0:0:0:
405,313,19625,1,0,0:0:0:0:
291,160,19875,1,10,0:0:0:0:
307,341,20125,1,0,0:0:0:0:
457,230,20375,6,0,B|469:189|469:189|452:103,1,127.5,2|0,0:0|0:0,0:0:0:0:
360,87,20875,2,0,L|379:192,1,93.5000028533936,10|0,0:0|0:0,0:0:0:0:
265,271,21375,1,2,0:0:0:0:
376,179,21625,1,0,0:0:0:0:
192,147,21875,1,10,0:0:0:0:
192,147,22375,6,0,L|98:132,1,85,2|0,0:0|0:0,0:0:0:0:
54,200,22750,2,0,L|148:215,1,85
167,293,23125,2,0,L|73:278,1,85,0|2,0:0|0:0,0:0:0:0:
192,147,23625,1,0,0:0:0:0:
320,258,23875,1,10,0:0:0:0:
320,258,24375,6,0,B|306:221|306:221|299:174|315:132,1,127.5,2|0,0:0|0:0,0:0:0:0:
249,66,24875,2,0,P|289:44|335:43,1,93.5000028533936,10|0,0:0|0:0,0:0:0:0:
475,108,25375,1,2,0:0:0:0:
314,134,25625,1,0,0:0:0:0:
442,22,25875,1,10,0:0:0:0:
442,22,26375,6,0,P|422:78|434:151,1,127.5,2|0,0:0|0:0,0:0:0:0:
501,206,26875,2,0,P|448:197|407:207,1,93.5000028533936,10|0,0:0|0:0,0:0:0:0:
276,310,27375,1,2,0:0:0:0:
238,161,27625,1,0,0:0:0:0:
409,205,27875,1,10,0:0:0:0:
285,229,28125,1,0,0:0:0:0:
405,124,28375,6,0,P|464:144|491:204,1,127.5,2|0,0:0|0:0,0:0:0:0:
462,289,28875,2,0,L|365:298,1,93.5000028533936,10|0,0:0|0:0,0:0:0:0:
273,156,29375,1,2,0:0:0:0:
409,205,29625,1,0,0:0:0:0:
303,79,29875,1,10,0:0:0:0:
303,79,30375,6,0,P|250:74|218:91,1,85,2|0,0:0|0:0,0:0:0:0:
139,98,30750,2,0,P|154:136|187:162,1,85
241,231,31125,2,0,P|266:197|272:155,1,85,0|2,0:0|0:0,0:0:0:0:
139,98,31625,1,0,0:0:0:0:
86,247,31875,1,8,0:0:0:0:
121,268,32000,1,0,0:0:0:0:
163,271,32125,1,0,0:0:0:0:
204,259,32250,1,0,0:0:0:0:
241,231,32375,6,2,P|290:229|346:255,1,93.5000028533936,6|0,0:0|0:0,0:0:0:0:
362,265,32750,1,0,0:0:0:0:
362,265,32875,1,10,0:0:0:0:
472,183,33125,2,0,L|481:87,1,93.5000028533936,0|2,0:0|0:0,0:0:0:0:
412,25,33500,2,0,L|402:120,1,93.5000028533936
326,172,33875,1,10,0:0:0:0:
326,172,34375,6,0,B|292:186|254:177|254:177|218:169|180:181,1,140.25000428009,2|0,0:0|0:0,0:0:0:0:
152,192,34875,1,10,0:0:0:0:
283,103,35125,1,0,0:0:0:0:
283,103,35250,1,0,0:0:0:0:
283,103,35375,2,0,P|332:93|377:109,1,93.5000028533936,2|0,0:0|0:0,0:0:0:0:
416,33,35750,2,0,P|449:70|457:117,1,93.5000028533936
414,178,36125,1,0,0:0:0:0:
414,178,36375,6,0,P|381:215|373:262,1,93.5000028533936,2|0,0:0|0:0,0:0:0:0:
378,294,36750,1,0,0:0:0:0:
378,294,36875,1,10,0:0:0:0:
221,366,37125,2,0,L|138:362,1,46.7500014266968
110,279,37375,2,0,L|205:285,1,93.5000028533936,2|0,0:0|0:0,0:0:0:0:
236,266,37750,1,0,0:0:0:0:
236,266,37875,1,10,0:0:0:0:
236,266,38375,6,0,P|251:221|240:173,1,93.5000028533936,2|0,0:0|0:0,0:0:0:0:
172,128,38750,2,0,P|125:137|89:171,1,93.5000028533936
69,248,39125,1,0,0:0:0:0:
69,248,39250,1,0,0:0:0:0:
69,248,39375,2,0,B|49:216|51:177|51:177|53:141|38:113,1,140.25000428009,2|0,0:0|0:0,0:0:0:0:
19,80,39875,1,10,0:0:0:0:
19,80,40375,6,0,L|113:69,1,93.5000028533936,2|0,0:0|0:0,0:0:0:0:
149,69,40750,1,0,0:0:0:0:
149,69,40875,1,10,0:0:0:0:
303,54,41125,2,0,L|294:150,1,93.5000028533936,0|2,0:0|0:0,0:0:0:0:
363,212,41500,2,0,L|373:117,1,93.5000028533936
454,71,41875,1,10,0:0:0:0:
454,71,42375,6,0,P|400:28|321:38,1,140.25000428009,2|0,0:0|0:0,0:0:0:0:
303,54,42875,1,10,0:0:0:0:
226,185,43125,1,0,0:0:0:0:
226,185,43250,1,0,0:0:0:0:
226,185,43375,2,0,P|179:194|127:179,1,93.5000028533936,2|0,0:0|0:0,0:0:0:0:
44,181,43750,2,0,P|91:172|143:187,1,93.5000028533936
91,266,44125,1,0,0:0:0:0:
91,266,44375,6,0,P|69:316|138:349,1,140.25000428009,2|0,0:0|0:0,0:0:0:0:
165,333,44875,2,0,P|234:314|306:337,1,140.25000428009,10|0,0:0|0:0,0:0:0:0:
330,350,45375,2,0,P|390:326|372:265,1,140.25000428009,2|0,0:0|0:0,0:0:0:0:
337,250,45875,1,10,0:0:0:0:
337,250,46375,5,2,0:0:0:0:
271,159,46625,1,0,0:0:0:0:
337,69,46875,1,0,0:0:0:0:
444,103,47125,1,0,0:0:0:0:
444,216,47375,1,0,0:0:0:0:
271,159,47625,5,0,0:0:0:0:
254,165,47750,1,0,0:0:0:0:
217,164,47875,1,0,0:0:0:0:
200,172,48000,1,0,0:0:0:0:
163,171,48125,1,0,0:0:0:0:
147,177,48250,1,0,0:0:0:0:
110,178,48375,6,0,L|86:279,1,97.7500018644333,6|0,0:0|0:0,0:0:0:0:
62,366,48750,2,0,L|155:340,1,97.7500018644333
249,312,49125,2,0,L|180:243,1,97.7500018644333,0|2,0:0|0:0,0:0:0:0:
62,366,49625,1,0,0:0:0:0:
253,316,49875,1,10,0:0:0:0:
253,316,50375,6,0,P|303:315|356:338,1,97.7500018644333,2|0,0:0|0:0,0:0:0:0:
444,343,50750,2,0,P|418:300|411:242,1,97.7500018644333
371,164,51125,2,0,P|346:207|300:242,1,97.7500018644333,0|2,0:0|0:0,0:0:0:0:
132,262,51625,1,0,0:0:0:0:
132,262,51750,1,0,0:0:0:0:
132,262,51875,2,0,P|141:312|123:359,1,97.7500018644333,10|0,0:0|0:0,0:0:0:0:
277,315,52375,6,0,P|327:305|383:316,1,97.7500018644333,2|0,0:0|0:0,0:0:0:0:
408,328,52750,1,0,0:0:0:0:
408,328,52875,1,10,0:0:0:0:
500,214,53125,2,0,B|517:168|517:168|505:117,1,97.7500018644333,0|2,0:0|0:0,0:0:0:0:
423,67,53500,2,0,B|405:112|405:112|417:163,1,97.7500018644333
510,125,53875,1,10,0:0:0:0:
510,125,54375,6,0,B|462:118|462:118|409:127|409:127|350:116,1,146.62500279665,2|0,0:0|0:0,0:0:0:0:
327,109,54875,1,10,0:0:0:0:
175,51,55125,1,0,0:0:0:0:
175,51,55250,1,0,0:0:0:0:
175,51,55375,2,0,L|181:111,1,48.8750009322167,2|0,0:0|0:0,0:0:0:0:
128,171,55625,2,0,L|122:231,1,48.8750009322167
181,310,55875,1,10,0:0:0:0:
181,310,56375,6,0,B|227:302|227:302|274:264,1,97.7500018644333,6|0,0:0|0:0,0:0:0:0:
320,187,56750,2,0,B|302:231|302:231|310:289,1,97.7500018644333
354,371,57125,2,0,B|323:332|323:332|267:310,1,97.7500018644333,0|2,0:0|0:0,0:0:0:0:
108,320,57625,1,0,0:0:0:0:
108,320,57750,1,0,0:0:0:0:
108,320,57875,2,0,P|105:265|101:219,1,97.7500018644333,10|0,0:0|0:0,0:0:0:0:
74,49,58375,6,0,P|111:79|176:77,1,97.7500018644333,2|0,0:0|0:0,0:0:0:0:
168,170,58750,2,0,P|212:152|243:94,1,97.7500018644333
321,148,59125,2,0,P|328:99|293:44,1,97.7500018644333,0|2,0:0|0:0,0:0:0:0:
275,220,59625,1,0,0:0:0:0:
275,220,59750,1,0,0:0:0:0:
275,220,59875,2,0,P|328:231|377:215,1,97.7500018644333,10|0,0:0|0:0,0:0:0:0:
440,58,60375,6,0,L|449:157,1,97.7500018644333,2|0,0:0|0:0,0:0:0:0:
456,194,60750,1,0,0:0:0:0:
456,194,60875,1,10,0:0:0:0:
374,330,61125,2,0,P|327:344|279:332,1,97.7500018644333,0|2,0:0|0:0,0:0:0:0:
230,260,61500,2,0,P|277:246|325:258,1,97.7500018644333
280,332,61875,1,10,0:0:0:0:
144,331,62125,1,0,0:0:0:0:
144,331,62250,1,0,0:0:0:0:
144,331,62375,6,0,B|120:225|120:225|91:282,1,146.62500279665,2|0,0:0|0:0,0:0:0:0:
84,293,62875,1,10,0:0:0:0:
30,122,63125,2,0,P|98:87|207:116,1,178.499994552612
317,233,63875,2,0,P|310:208|308:184,1,48.8750009322167,10|0,0:0|0:0,0:0:0:0:
430,167,64125,2,0,P|435:190|437:214,1,48.8750009322167
392,319,64375,5,6,0:0:0:0:
256,192,64500,12,0,66375,0:0:0:0:
