osu file format v14

[General]
AudioFilename: audio.mp3
AudioLeadIn: 0
PreviewTime: 48375
Countdown: 0
SampleSet: Soft
StackLeniency: 0.7
Mode: 0
LetterboxInBreaks: 0
WidescreenStoryboard: 0

[Editor]
DistanceSpacing: 1.2
BeatDivisor: 4
GridSize: 4
TimelineZoom: 1

[Metadata]
Title:Outro (Rollin')
TitleUnicode:Outro (Rollin')
Artist:Brave Girls
ArtistUnicode:브레이브걸스
Creator:Ora
Version:Normal
Source:
Tags:kpop k-pop edm Brave Brothers Chakun 용감한형제 투챔프 차쿤 Kim Minyoung 김민영 Yujeong 남유정 Hong Eunji 홍은지 Lee Yuna 이유나 Lee Hayun 이하윤
BeatmapID:1359512
BeatmapSetID:641018

[Difficulty]
HPDrainRate:4
CircleSize:3.5
OverallDifficulty:4
ApproachRate:5
SliderMultiplier:1.4
SliderTickRate:1

[Events]
//Background and Video events
0,0,"C5rkGmBUoAAHxRQ.png",0,0
//Break Periods
//Storyboard Layer 0 (Background)
//Storyboard Layer 1 (Fail)
//Storyboard Layer 2 (Pass)
//Storyboard Layer 3 (Foreground)
//Storyboard Sound Samples

[TimingPoints]
375,500,4,2,2,40,1,0
375,-111.111111111111,4,2,2,40,0,0
1625,-111.111111111111,4,2,2,5,0,0
1875,-111.111111111111,4,2,2,40,0,0
3625,-111.111111111111,4,2,2,5,0,0
3875,-111.111111111111,4,2,2,40,0,0
5625,-111.111111111111,4,2,2,5,0,0
5875,-111.111111111111,4,2,2,40,0,0
6875,-111.111111111111,4,2,2,5,0,0
7125,-111.111111111111,4,2,2,40,0,0
7375,-111.111111111111,4,2,2,5,0,0
7625,-111.111111111111,4,2,2,40,0,0
9625,-111.111111111111,4,2,2,5,0,0
9875,-111.111111111111,4,2,2,40,0,0
11625,-111.111111111111,4,2,2,5,0,0
11875,-111.111111111111,4,2,2,40,0,0
13625,-111.111111111111,4,2,2,5,0,0
13875,-100,4,2,2,40,0,0
14875,-100,4,2,1,35,0,0
15375,-100,4,2,1,30,0,0
15875,-100,4,2,1,25,0,0
16375,-100,4,2,1,55,0,0
32375,-100,4,2,1,60,0,0
48375,-90.9090909090909,4,2,1,65,0,1
63125,-90.9090909090909,4,2,1,65,0,0
64875,-90.9090909090909,4,2,1,45,0,0
65375,-90.9090909090909,4,2,1,35,0,0
65875,-90.9090909090909,4,2,1,25,0,0
66375,-90.9090909090909,4,2,1,5,0,0

[Colours]
Combo1 : 227,174,189
Combo2 : 128,0,0
Combo3 : 128,128,128

[HitObjects]
378,241,375,6,0,P|362:180|362:115,1,125.999996154785
370,66,1125,2,0,P|296:104|192:88,1,188.999994232178,0|8,0:0|0:0,0:0:0:0:
48,47,2375,6,0,B|62:88|62:88|53:140|53:140|64:188,1,125.999996154785
71,218,3125,2,0,P|101:204|83:289,1,188.999994232178,0|8,0:0|0:0,0:0:0:0:
241,264,4375,6,0,P|305:274|351:321,1,125.999996154785
371,360,5125,2,0,B|344:310|365:268|365:268|389:222|371:178,1,188.999994232178,0|8,0:0|0:0,0:0:0:0:
289,51,6375,6,0,B|317:51|346:42|346:42|379:56|418:65|418:65|446:55|490:55,2,188.999994232178,0|0|8,0:0|0:0|0:0,0:0:0:0:
138,40,8375,6,0,P|157:96|146:173,1,125.999996154785,0|0,0:0|0:0,0:0:0:0:
130,208,9125,2,0,B|195:185|284:191|284:191|236:228,1,188.999994232178,0|8,0:0|0:0,0:0:0:0:
153,320,10375,6,0,P|210:303|282:307,1,125.999996154785
321,328,11125,2,0,P|391:341|422:227,1,188.999994232178,0|8,0:0|0:0,0:0:0:0:
342,127,12375,6,0,P|331:92|402:73,1,125.999996154785
434,105,13125,2,0,P|417:48|513:68,1,188.999994232178,0|8,0:0|0:0,0:0:0:0:
497,219,14375,2,0,B|429:250|356:221|356:221|296:195|227:226|227:226|261:147|212:85,1,420
383,93,16375,6,0,B|376:135|376:135|390:192|390:192|381:230,1,140,6|10,0:0|0:0,0:0:0:0:
359,310,17125,1,0,0:0:0:0:
281,277,17375,2,0,P|246:277|203:285,1,70,2|0,0:0|0:0,0:0:0:0:
133,251,17875,1,10,0:0:0:0:
282,173,18375,6,0,P|298:121|259:50,1,140,2|10,0:0|0:0,0:0:0:0:
178,23,19125,1,0,0:0:0:0:
135,95,19375,2,0,P|89:100|53:91,1,70,2|0,0:0|0:0,0:0:0:0:
0,148,19875,2,0,P|5:194|-4:230,1,70,10|0,0:0|0:0,0:0:0:0:
66,269,20375,6,0,B|97:252|132:265|132:265|171:279|210:262,1,140,2|10,0:0|0:0,0:0:0:0:
278,230,21125,1,0,0:0:0:0:
349,274,21375,2,0,P|355:312|347:354,2,70,2|0|10,0:0|0:0|0:0,0:0:0:0:
384,109,22375,6,0,P|439:118|494:100,2,105,2|0|0,0:0|0:0|0:0,0:0:0:0:
327,46,23375,2,0,P|300:102|327:173,1,140,2|10,0:0|0:0,0:0:0:0:
448,287,24375,6,0,B|397:274|397:274|349:278|308:302,1,140,2|10,0:0|0:0,0:0:0:0:
243,344,25125,1,0,0:0:0:0:
195,274,25375,2,0,P|164:248|133:235,1,70,2|0,0:0|0:0,0:0:0:0:
53,224,25875,1,10,0:0:0:0:
107,65,26375,6,0,P|65:59|67:145,1,140,2|10,0:0|0:0,0:0:0:0:
135,146,27125,1,0,0:0:0:0:
189,82,27375,2,0,P|235:77|271:86,1,70,2|0,0:0|0:0,0:0:0:0:
334,117,27875,2,0,P|380:122|416:113,1,70,10|0,0:0|0:0,0:0:0:0:
484,98,28375,6,0,B|492:138|492:138|485:201|485:201|494:241,1,140,2|10,0:0|0:0,0:0:0:0:
508,318,29125,1,0,0:0:0:0:
426,298,29375,2,0,P|392:299|354:314,1,70,2|0,0:0|0:0,0:0:0:0:
285,352,29875,1,10,0:0:0:0:
209,202,30375,6,0,P|162:207|111:173,2,105,2|0|0,0:0|0:0|0:0,0:0:0:0:
273,148,31375,1,2,0:0:0:0:
355,134,31625,1,0,0:0:0:0:
410,196,31875,2,0,P|414:232|403:277,1,70,8|0,0:0|0:0,0:0:0:0:
351,327,32375,6,0,L|243:335,1,105,6|0,0:0|0:0,0:0:0:0:
152,250,33125,2,0,L|256:242,1,105,0|0,0:0|0:0,0:0:0:0:
339,147,33875,1,10,0:0:0:0:
174,117,34375,6,0,P|145:68|225:45,1,140,2|10,0:0|0:0,0:0:0:0:
271,80,35125,1,0,0:0:0:0:
350,110,35375,2,0,P|395:108|450:75,2,105,2|0|0,0:0|0:0|0:0,0:0:0:0:
285,163,36375,6,0,L|293:271,1,105,2|0,0:0|0:0,0:0:0:0:
208,362,37125,2,0,L|200:257,1,105
105,175,37875,1,10,0:0:0:0:
100,342,38375,6,0,P|51:371|28:291,1,140,2|10,0:0|0:0,0:0:0:0:
46,235,39125,1,0,0:0:0:0:
105,175,39375,2,0,P|129:102|99:32,1,140,2|10,0:0|0:0,0:0:0:0:
272,10,40375,6,0,P|244:54|240:106,1,105,2|0,0:0|0:0,0:0:0:0:
331,193,41125,2,0,P|358:148|362:96,1,105,0|0,0:0|0:0,0:0:0:0:
484,65,41875,1,10,0:0:0:0:
511,230,42375,6,0,P|457:213|386:251,1,140,2|10,0:0|0:0,0:0:0:0:
337,317,43125,1,0,0:0:0:0:
264,275,43375,2,0,L|158:291,2,105,2|0|0,0:0|0:0|0:0,0:0:0:0:
295,197,44375,5,2,0:0:0:0:
276,30,44875,1,10,0:0:0:0:
109,49,45375,1,2,0:0:0:0:
128,216,45875,1,10,0:0:0:0:
295,197,46375,6,0,L|376:187,1,70,2|0,0:0|0:0,0:0:0:0:
447,178,46875,2,0,L|457:259,1,70
464,330,47375,2,0,L|383:340,1,70
312,349,47875,2,0,L|302:268,1,70
295,197,48375,6,0,P|314:144|306:74,2,115.50000352478,6|0|0,0:0|0:0|0:0,0:0:0:0:
218,249,49375,2,0,L|136:239,1,77.0000023498536,2|0,0:0|0:0,0:0:0:0:
73,302,49875,1,10,0:0:0:0:
193,161,50375,6,0,B|202:128|192:101|192:101|181:74|188:42,2,115.50000352478,2|0|0,0:0|0:0|0:0,0:0:0:0:
141,239,51375,2,0,P|134:282|143:317,1,77.0000023498536,2|0,0:0|0:0,0:0:0:0:
226,276,51875,1,10,0:0:0:0:
377,169,52375,6,0,P|434:178|484:235,1,115.50000352478,2|0,0:0|0:0,0:0:0:0:
418,342,53125,2,0,P|361:333|311:276,1,115.50000352478,0|0,0:0|0:0,0:0:0:0:
242,179,53875,2,0,P|205:173|160:179,1,77.0000023498536,10|0,0:0|0:0,0:0:0:0:
79,211,54375,6,0,B|89:170|89:170|85:103|85:103|99:53,1,154.000004699707,2|10,0:0|0:0,0:0:0:0:
182,25,55125,1,0,0:0:0:0:
258,77,55375,2,0,L|339:67,1,77.0000023498536,2|0,0:0|0:0,0:0:0:0:
419,102,55875,1,10,0:0:0:0:
313,253,56375,6,0,P|296:313|326:373,2,115.50000352478,6|0|0,0:0|0:0|0:0,0:0:0:0:
393,207,57375,2,0,P|368:175|327:161,1,77.0000023498536,2|0,0:0|0:0,0:0:0:0:
245,185,57875,1,10,0:0:0:0:
136,334,58375,6,0,B|167:343|195:332|195:332|223:321|254:335,2,115.50000352478,2|0|0,0:0|0:0|0:0,0:0:0:0:
69,269,59375,2,0,P|61:235|72:189,1,77.0000023498536,2|0,0:0|0:0,0:0:0:0:
138,133,59875,1,10,0:0:0:0:
294,233,60375,6,0,B|329:228|329:228|369:207|369:207|407:203,1,115.50000352478,2|0,0:0|0:0,0:0:0:0:
472,83,61125,2,0,B|437:88|437:88|397:109|397:109|359:113,1,115.50000352478,0|0,0:0|0:0,0:0:0:0:
245,37,61875,1,10,0:0:0:0:
76,111,62375,6,0,P|74:182|94:271,1,154.000004699707,2|10,0:0|0:0,0:0:0:0:
180,238,63125,2,0,P|259:255|293:315,1,154.000004699707
201,329,63875,1,10,0:0:0:0:
158,149,64375,5,6,0:0:0:0:
256,192,64500,12,0,66375,0:0:0:0:
