osu file format v14

[General]
AudioFilename: audio.mp3
AudioLeadIn: 0
PreviewTime: 48250
Countdown: 0
SampleSet: Normal
StackLeniency: 0.7
Mode: 1
LetterboxInBreaks: 0
WidescreenStoryboard: 0

[Editor]
Bookmarks: 375,16375,32375,48375,64375
DistanceSpacing: 0.8
BeatDivisor: 4
GridSize: 32
TimelineZoom: 1.6

[Metadata]
Title:Outro (Rollin')
TitleUnicode:Outro (Rollin')
Artist:Brave Girls
ArtistUnicode:브레이브걸스
Creator:Marianna
Version:Oni
Source:
Tags:edm Brave Brothers Chakun 용감한형제 투챔프 차쿤 Kim Minyoung 김민영 Yujeong 남유정 Hong Eunji 홍은지 Lee Yuna 이유나 Lee Hayun 이하윤 Idealism
BeatmapID:1439074
BeatmapSetID:680603

[Difficulty]
HPDrainRate:6
CircleSize:2
OverallDifficulty:6
ApproachRate:10
SliderMultiplier:1.4
SliderTickRate:1

[Events]
//Background and Video events
0,0,"C5rkGmBUoAAHxRQ.png",0,0
//Break Periods
//Storyboard Layer 0 (Background)
//Storyboard Layer 1 (Fail)
//Storyboard Layer 2 (Pass)
//Storyboard Layer 3 (Foreground)
//Storyboard Sound Samples

[TimingPoints]
375,500,4,1,0,50,1,0
16375,-100,4,1,0,80,0,0
47375,-98.0392156862745,4,1,0,80,0,0
47500,-96.1538461538461,4,1,0,80,0,0
47625,-94.3396226415094,4,1,0,80,0,0
47750,-92.5925925925926,4,1,0,80,0,0
47875,-90.9090909090909,4,1,0,80,0,0
48000,-89.2857142857143,4,1,0,80,0,0
48125,-87.719298245614,4,1,0,80,0,0
48250,-84.7457627118644,4,1,0,80,0,0
48375,-83.3333333333333,4,1,0,80,0,1
64375,-83.3333333333333,4,1,0,80,0,0

[HitObjects]
256,192,375,5,0,0:0:0:0:
256,192,1125,1,0,0:0:0:0:
256,192,1875,1,2,0:0:0:0:
256,192,2375,1,0,0:0:0:0:
256,192,3125,1,0,0:0:0:0:
256,192,3875,1,2,0:0:0:0:
256,192,4375,1,0,0:0:0:0:
256,192,5125,1,0,0:0:0:0:
256,192,5875,1,2,0:0:0:0:
256,192,6375,1,0,0:0:0:0:
256,192,7125,1,0,0:0:0:0:
256,192,7875,1,2,0:0:0:0:
256,192,8375,1,0,0:0:0:0:
256,192,9125,1,0,0:0:0:0:
256,192,9875,1,2,0:0:0:0:
256,192,10375,1,0,0:0:0:0:
256,192,11125,1,0,0:0:0:0:
256,192,11875,1,2,0:0:0:0:
256,192,12375,1,0,0:0:0:0:
256,192,13125,1,0,0:0:0:0:
256,192,13875,1,2,0:0:0:0:
256,192,14375,12,0,16125,0:0:0:0:
256,192,16375,5,4,0:0:0:0:
256,192,16625,1,0,0:0:0:0:
256,192,16750,1,0,0:0:0:0:
256,192,16875,1,2,0:0:0:0:
256,192,17125,1,0,0:0:0:0:
256,192,17250,1,2,0:0:0:0:
256,192,17375,1,0,0:0:0:0:
256,192,17625,1,0,0:0:0:0:
256,192,17875,1,2,0:0:0:0:
256,192,18375,1,0,0:0:0:0:
256,192,18625,1,0,0:0:0:0:
256,192,18750,1,0,0:0:0:0:
256,192,18875,1,2,0:0:0:0:
256,192,19125,1,0,0:0:0:0:
256,192,19250,1,2,0:0:0:0:
256,192,19375,1,0,0:0:0:0:
256,192,19500,1,2,0:0:0:0:
256,192,19625,1,0,0:0:0:0:
256,192,19875,1,2,0:0:0:0:
256,192,20125,1,2,0:0:0:0:
256,192,20375,1,0,0:0:0:0:
256,192,20625,1,0,0:0:0:0:
256,192,20750,1,0,0:0:0:0:
256,192,20875,1,2,0:0:0:0:
256,192,21125,1,0,0:0:0:0:
256,192,21250,1,2,0:0:0:0:
256,192,21375,1,0,0:0:0:0:
256,192,21625,1,0,0:0:0:0:
256,192,21875,1,2,0:0:0:0:
256,192,22375,1,2,0:0:0:0:
256,192,22625,1,0,0:0:0:0:
256,192,22750,1,2,0:0:0:0:
256,192,23000,1,0,0:0:0:0:
256,192,23125,1,2,0:0:0:0:
256,192,23250,1,2,0:0:0:0:
256,192,23375,1,0,0:0:0:0:
256,192,23875,1,6,0:0:0:0:
256,192,24375,1,0,0:0:0:0:
256,192,24625,1,0,0:0:0:0:
256,192,24750,1,0,0:0:0:0:
256,192,24875,1,2,0:0:0:0:
256,192,25125,1,0,0:0:0:0:
256,192,25250,1,2,0:0:0:0:
256,192,25375,1,0,0:0:0:0:
256,192,25625,1,0,0:0:0:0:
256,192,25875,1,2,0:0:0:0:
256,192,26375,1,0,0:0:0:0:
256,192,26625,1,0,0:0:0:0:
256,192,26750,1,0,0:0:0:0:
256,192,26875,1,2,0:0:0:0:
256,192,27125,1,0,0:0:0:0:
256,192,27250,1,2,0:0:0:0:
256,192,27375,1,0,0:0:0:0:
256,192,27500,1,2,0:0:0:0:
256,192,27625,1,0,0:0:0:0:
256,192,27875,1,2,0:0:0:0:
256,192,28125,1,2,0:0:0:0:
256,192,28375,1,0,0:0:0:0:
256,192,28625,1,0,0:0:0:0:
256,192,28750,1,0,0:0:0:0:
256,192,28875,1,2,0:0:0:0:
256,192,29125,1,0,0:0:0:0:
256,192,29250,1,2,0:0:0:0:
256,192,29375,1,0,0:0:0:0:
256,192,29625,1,0,0:0:0:0:
256,192,29875,1,2,0:0:0:0:
256,192,30375,1,2,0:0:0:0:
256,192,30625,1,2,0:0:0:0:
256,192,30750,1,0,0:0:0:0:
256,192,31000,1,0,0:0:0:0:
256,192,31125,1,2,0:0:0:0:
256,192,31250,1,0,0:0:0:0:
256,192,31375,1,2,0:0:0:0:
256,192,31625,1,0,0:0:0:0:
256,192,31875,1,2,0:0:0:0:
256,192,32000,1,0,0:0:0:0:
256,192,32125,1,0,0:0:0:0:
256,192,32375,1,4,0:0:0:0:
256,192,32625,1,2,0:0:0:0:
256,192,32750,1,0,0:0:0:0:
256,192,32875,1,0,0:0:0:0:
256,192,33125,1,2,0:0:0:0:
256,192,33375,1,0,0:0:0:0:
256,192,33500,1,2,0:0:0:0:
256,192,33625,1,0,0:0:0:0:
256,192,33875,1,2,0:0:0:0:
256,192,34375,1,0,0:0:0:0:
256,192,34625,1,0,0:0:0:0:
256,192,34750,1,0,0:0:0:0:
256,192,34875,1,2,0:0:0:0:
256,192,35125,1,0,0:0:0:0:
256,192,35250,1,2,0:0:0:0:
256,192,35375,1,2,0:0:0:0:
256,192,35625,1,0,0:0:0:0:
256,192,35750,1,2,0:0:0:0:
256,192,35875,1,0,0:0:0:0:
256,192,36125,1,0,0:0:0:0:
256,192,36375,1,2,0:0:0:0:
256,192,36625,1,0,0:0:0:0:
256,192,36750,1,2,0:0:0:0:
256,192,36875,1,0,0:0:0:0:
256,192,37125,1,2,0:0:0:0:
256,192,37375,1,2,0:0:0:0:
256,192,37625,1,0,0:0:0:0:
256,192,37750,1,2,0:0:0:0:
256,192,37875,1,0,0:0:0:0:
256,192,38125,1,0,0:0:0:0:
256,192,38375,1,2,0:0:0:0:
256,192,38625,1,0,0:0:0:0:
256,192,38750,1,2,0:0:0:0:
256,192,38875,1,0,0:0:0:0:
256,192,39000,1,0,0:0:0:0:
256,192,39125,1,2,0:0:0:0:
256,192,39250,1,2,0:0:0:0:
256,192,39375,1,0,0:0:0:0:
256,192,39875,1,6,0:0:0:0:
256,192,40375,1,2,0:0:0:0:
256,192,40625,1,0,0:0:0:0:
256,192,40750,1,2,0:0:0:0:
256,192,40875,1,2,0:0:0:0:
256,192,41125,1,2,0:0:0:0:
256,192,41375,1,0,0:0:0:0:
256,192,41500,1,2,0:0:0:0:
256,192,41625,1,0,0:0:0:0:
256,192,41875,1,2,0:0:0:0:
256,192,42375,1,0,0:0:0:0:
256,192,42625,1,0,0:0:0:0:
256,192,42750,1,0,0:0:0:0:
256,192,42875,1,2,0:0:0:0:
256,192,43125,1,0,0:0:0:0:
256,192,43250,1,2,0:0:0:0:
256,192,43375,1,0,0:0:0:0:
256,192,43625,1,0,0:0:0:0:
256,192,43750,1,0,0:0:0:0:
256,192,43875,1,2,0:0:0:0:
256,192,44125,1,0,0:0:0:0:
256,192,44375,1,2,0:0:0:0:
256,192,44875,1,2,0:0:0:0:
256,192,45375,1,0,0:0:0:0:
256,192,45875,1,2,0:0:0:0:
256,192,46375,1,2,0:0:0:0:
256,192,46625,1,2,0:0:0:0:
256,192,46875,1,2,0:0:0:0:
256,192,47125,1,2,0:0:0:0:
256,192,47375,1,0,0:0:0:0:
256,192,47500,1,0,0:0:0:0:
256,192,47625,1,2,0:0:0:0:
256,192,47750,1,2,0:0:0:0:
256,192,47875,1,0,0:0:0:0:
256,192,48000,1,0,0:0:0:0:
256,192,48125,1,2,0:0:0:0:
256,192,48375,1,4,0:0:0:0:
256,192,48625,1,2,0:0:0:0:
256,192,48750,1,0,0:0:0:0:
256,192,49000,1,0,0:0:0:0:
256,192,49125,1,2,0:0:0:0:
256,192,49250,1,2,0:0:0:0:
256,192,49375,1,0,0:0:0:0:
256,192,49625,1,0,0:0:0:0:
256,192,49750,1,0,0:0:0:0:
256,192,49875,1,2,0:0:0:0:
256,192,50125,1,0,0:0:0:0:
256,192,50375,1,0,0:0:0:0:
256,192,50500,1,2,0:0:0:0:
256,192,50625,1,2,0:0:0:0:
256,192,50750,1,0,0:0:0:0:
256,192,51000,1,0,0:0:0:0:
256,192,51125,1,2,0:0:0:0:
256,192,51250,1,0,0:0:0:0:
256,192,51375,1,2,0:0:0:0:
256,192,51875,1,2,0:0:0:0:
256,192,52125,1,0,0:0:0:0:
256,192,52250,1,0,0:0:0:0:
256,192,52375,1,2,0:0:0:0:
256,192,52625,1,2,0:0:0:0:
256,192,52750,1,2,0:0:0:0:
256,192,52875,1,0,0:0:0:0:
256,192,53125,1,2,0:0:0:0:
256,192,53375,1,0,0:0:0:0:
256,192,53500,1,2,0:0:0:0:
256,192,53625,1,0,0:0:0:0:
256,192,53875,1,2,0:0:0:0:
256,192,54375,1,0,0:0:0:0:
256,192,54625,1,0,0:0:0:0:
256,192,54750,1,0,0:0:0:0:
256,192,54875,1,2,0:0:0:0:
256,192,55125,1,0,0:0:0:0:
256,192,55375,1,0,0:0:0:0:
256,192,55500,1,2,0:0:0:0:
256,192,55625,1,2,0:0:0:0:
256,192,55875,1,6,0:0:0:0:
256,192,56375,1,0,0:0:0:0:
256,192,56500,1,2,0:0:0:0:
256,192,56625,1,2,0:0:0:0:
256,192,56750,1,0,0:0:0:0:
256,192,57000,1,2,0:0:0:0:
256,192,57125,1,0,0:0:0:0:
256,192,57250,1,0,0:0:0:0:
256,192,57375,1,2,0:0:0:0:
256,192,57875,1,2,0:0:0:0:
256,192,58125,1,2,0:0:0:0:
256,192,58375,1,0,0:0:0:0:
256,192,58500,1,0,0:0:0:0:
256,192,58625,1,2,0:0:0:0:
256,192,58750,1,0,0:0:0:0:
256,192,59000,1,2,0:0:0:0:
256,192,59125,1,2,0:0:0:0:
256,192,59250,1,0,0:0:0:0:
256,192,59375,1,2,0:0:0:0:
256,192,59875,1,2,0:0:0:0:
256,192,60125,1,0,0:0:0:0:
256,192,60375,1,2,0:0:0:0:
256,192,60625,1,0,0:0:0:0:
256,192,60750,1,2,0:0:0:0:
256,192,60875,1,2,0:0:0:0:
256,192,61125,1,2,0:0:0:0:
256,192,61375,1,0,0:0:0:0:
256,192,61500,1,2,0:0:0:0:
256,192,61625,1,0,0:0:0:0:
256,192,61875,1,2,0:0:0:0:
256,192,62125,1,0,0:0:0:0:
256,192,62375,1,2,0:0:0:0:
256,192,62625,1,0,0:0:0:0:
256,192,62750,1,0,0:0:0:0:
256,192,62875,1,2,0:0:0:0:
256,192,63125,1,0,0:0:0:0:
256,192,63375,1,0,0:0:0:0:
256,192,63625,1,0,0:0:0:0:
256,192,63750,1,0,0:0:0:0:
256,192,63875,1,2,0:0:0:0:
256,192,64000,1,2,0:0:0:0:
256,192,64125,1,0,0:0:0:0:
256,192,64375,1,4,0:0:0:0:
