osu file format v14

[General]
AudioFilename: audio.mp3
AudioLeadIn: 0
PreviewTime: 48250
Countdown: 0
SampleSet: Normal
StackLeniency: 0.7
Mode: 1
LetterboxInBreaks: 0
WidescreenStoryboard: 1

[Editor]
Bookmarks: 375,11500,16375,32375,48375,64375
DistanceSpacing: 0.8
BeatDivisor: 4
GridSize: 32
TimelineZoom: 1.6

[Metadata]
Title:Outro (Rollin')
TitleUnicode:Outro (Rollin')
Artist:Brave Girls
ArtistUnicode:브레이브걸스
Creator:Marianna
Version:Idealism's Kantan
Source:
Tags:edm Brave Brothers Chakun 용감한형제 투챔프 차쿤 Kim Minyoung 김민영 Yujeong 남유정 Hong Eunji 홍은지 Lee Yuna 이유나 Lee Hayun 이하윤 Idealism
BeatmapID:1440869
BeatmapSetID:680603

[Difficulty]
HPDrainRate:8
CircleSize:2
OverallDifficulty:3
ApproachRate:10
SliderMultiplier:1.4
SliderTickRate:1

[Events]
//Background and Video events
0,0,"C5rkGmBUoAAHxRQ.png",0,0
//Break Periods
//Storyboard Layer 0 (Background)
//Storyboard Layer 1 (Fail)
//Storyboard Layer 2 (Pass)
//Storyboard Layer 3 (Foreground)
//Storyboard Sound Samples

[TimingPoints]
375,500,4,1,0,50,1,0
16375,-100,4,1,0,80,0,0
48375,-100,4,1,0,80,0,1
64375,-100,4,1,0,80,0,0

[HitObjects]
256,192,375,5,8,0:0:0:0:
256,192,1125,1,0,0:0:0:0:
256,192,2375,1,0,0:0:0:0:
256,192,3125,1,8,0:0:0:0:
256,192,4375,1,8,0:0:0:0:
256,192,5125,1,0,0:0:0:0:
256,192,6375,1,0,0:0:0:0:
256,192,7125,1,8,0:0:0:0:
256,192,8375,1,8,0:0:0:0:
256,192,9125,1,0,0:0:0:0:
256,192,10375,1,0,0:0:0:0:
256,192,11125,1,8,0:0:0:0:
256,192,12375,1,8,0:0:0:0:
256,192,13125,1,0,0:0:0:0:
256,192,14375,12,0,16125,0:0:0:0:
256,192,16375,5,4,0:0:0:0:
256,192,17375,1,0,0:0:0:0:
256,192,17875,1,8,0:0:0:0:
256,192,18375,1,0,0:0:0:0:
256,192,18875,1,8,0:0:0:0:
256,192,19875,1,8,0:0:0:0:
256,192,20375,1,0,0:0:0:0:
256,192,20875,1,8,0:0:0:0:
256,192,21875,1,8,0:0:0:0:
256,192,22375,1,0,0:0:0:0:
256,192,23375,1,0,0:0:0:0:
256,192,23875,1,8,0:0:0:0:
256,192,24375,1,0,0:0:0:0:
256,192,24875,1,8,0:0:0:0:
256,192,25875,1,8,0:0:0:0:
256,192,26375,1,0,0:0:0:0:
256,192,27375,1,0,0:0:0:0:
256,192,27875,1,8,0:0:0:0:
256,192,28375,1,0,0:0:0:0:
256,192,28875,1,8,0:0:0:0:
256,192,29875,1,8,0:0:0:0:
256,192,30375,1,0,0:0:0:0:
256,192,31375,1,0,0:0:0:0:
256,192,31875,1,8,0:0:0:0:
256,192,32375,1,4,0:0:0:0:
256,192,33375,1,0,0:0:0:0:
256,192,34375,1,0,0:0:0:0:
256,192,35375,1,0,0:0:0:0:
256,192,35875,1,8,0:0:0:0:
256,192,36375,1,8,0:0:0:0:
256,192,36875,1,0,0:0:0:0:
256,192,37375,1,8,0:0:0:0:
256,192,37875,1,0,0:0:0:0:
256,192,38875,1,8,0:0:0:0:
256,192,39375,1,0,0:0:0:0:
256,192,39875,1,8,0:0:0:0:
256,192,40375,1,0,0:0:0:0:
256,192,41375,1,0,0:0:0:0:
256,192,41875,1,8,0:0:0:0:
256,192,42375,1,0,0:0:0:0:
256,192,43375,1,0,0:0:0:0:
256,192,43875,1,8,0:0:0:0:
256,192,44375,1,8,0:0:0:0:
256,192,44875,1,8,0:0:0:0:
256,192,45375,1,8,0:0:0:0:
256,192,45875,1,8,0:0:0:0:
256,192,46375,12,0,48125,0:0:0:0:
256,192,48375,5,4,0:0:0:0:
256,192,48875,1,0,0:0:0:0:
256,192,49375,1,8,0:0:0:0:
256,192,50375,1,8,0:0:0:0:
256,192,50875,1,8,0:0:0:0:
256,192,51375,1,12,0:0:0:0:
256,192,52375,1,0,0:0:0:0:
256,192,52875,1,8,0:0:0:0:
256,192,53375,1,0,0:0:0:0:
256,192,53875,1,8,0:0:0:0:
256,192,54875,1,8,0:0:0:0:
256,192,55375,1,0,0:0:0:0:
256,192,55875,1,8,0:0:0:0:
256,192,56375,1,8,0:0:0:0:
256,192,56875,1,0,0:0:0:0:
256,192,57375,1,8,0:0:0:0:
256,192,58375,1,8,0:0:0:0:
256,192,58875,1,8,0:0:0:0:
256,192,59375,1,12,0:0:0:0:
256,192,60375,1,8,0:0:0:0:
256,192,60875,1,0,0:0:0:0:
256,192,61375,1,8,0:0:0:0:
256,192,61875,1,0,0:0:0:0:
256,192,62875,1,8,0:0:0:0:
256,192,63375,1,0,0:0:0:0:
256,192,63875,1,8,0:0:0:0:
256,192,64375,1,4,0:0:0:0:
