osu file format v14

[General]
AudioFilename: The Festival of Ghost 2 (Sneak).mp3
AudioLeadIn: 0
PreviewTime: 61459
Countdown: 0
SampleSet: Soft
StackLeniency: 0.7
Mode: 3
LetterboxInBreaks: 0
SpecialStyle: 0
WidescreenStoryboard: 1

[Editor]
DistanceSpacing: 1
BeatDivisor: 4
GridSize: 8
TimelineZoom: 1.5

[Metadata]
Title:The Festival of Ghost 2
TitleUnicode:The Festival of Ghost 2
Artist:Brandy
ArtistUnicode:Brandy
Creator:IamBaum
Version:MX
Source:O2 Jam
Tags:Puxtu
BeatmapID:506841
BeatmapSetID:215849

[Difficulty]
HPDrainRate:7
CircleSize:4
OverallDifficulty:8
ApproachRate:5
SliderMultiplier:1.4
SliderTickRate:1

[Events]
//Background and Video events
0,0,"BG.jpg",0,0
//Break Periods
//Storyboard Layer 0 (Background)
//Storyboard Layer 1 (Fail)
//Storyboard Layer 2 (Pass)
//Storyboard Layer 3 (Foreground)
//Storyboard Sound Samples

[TimingPoints]
5466,659.340659340659,3,2,0,45,1,0
7444,670.391061452514,3,2,0,45,1,0
9455,-111.111111111111,4,2,0,45,0,0
11520,440.560980982451,3,2,0,45,1,0
24736,442.80442804428,3,2,0,45,1,0
28721,441.176470588235,4,2,0,45,1,0
33995,441.176470588235,4,2,0,45,1,0
55170,476.190476190476,3,2,0,45,1,0
57071,517.241379310345,3,2,0,45,1,0
59139,579.710144927536,3,2,0,45,1,0
61460,477.2320540863,3,2,0,45,1,0
63385,436.363636363636,4,2,0,45,1,0
65575,439.56043956044,4,2,0,45,1,0
66465,439.56043956044,4,2,0,45,1,0
66904,-100,4,2,0,45,0,1
68662,442.80442804428,4,2,0,45,1,1
81040,439.56043956044,4,2,0,45,1,1
83018,-100,4,2,0,45,0,0
84571,437.956204379562,4,2,0,45,1,0
86322,441.176470588235,4,2,0,45,1,0
88086,437.956204379562,4,2,0,45,1,0
89837,439.56043956044,3,2,0,45,1,0
89837,-111.111111111111,3,2,0,45,0,0
91595,442.80442804428,4,2,0,45,1,0
96908,444.444444444444,4,2,0,45,1,0
96908,-105.263157894737,4,2,0,45,0,0
98685,439.56043956044,4,2,0,45,1,0
107476,442.80442804428,4,2,0,45,1,0
113675,439.56043956044,4,2,0,45,1,0
114554,437.956204379562,4,2,0,45,1,0
114554,-151.515151515152,4,2,0,45,0,0
116305,413.793103448276,4,2,0,55,1,0
117960,409.556313993174,4,2,0,55,1,0
122885,410.958904109589,4,2,0,55,1,0
124520,410.958904109589,4,2,0,55,1,0

[HitObjects]
64,192,5301,128,0,9455:0:0:0:0:
192,192,5466,1,0,0:0:0:0:
320,192,6125,1,0,0:0:0:0:
448,192,6784,1,0,0:0:0:0:
320,192,7444,1,0,0:0:0:0:
192,192,8784,1,0,0:0:0:0:
320,192,9455,1,0,0:0:0:0:
192,192,10125,1,0,0:0:0:0:
64,192,10795,1,0,0:0:0:0:
64,192,11520,1,8,0:0:0:0:
448,192,11520,1,8,0:0:0:0:
320,192,11960,1,8,0:0:0:0:
64,192,11960,1,8,0:0:0:0:
192,192,12401,1,4,0:0:0:0:
448,192,12401,1,4,0:0:0:0:
64,192,12401,1,4,0:0:0:0:
320,192,12841,1,8,0:0:0:0:
448,192,12841,1,8,0:0:0:0:
64,192,13282,1,8,0:0:0:0:
192,192,13282,1,8,0:0:0:0:
320,192,13722,1,8,0:0:0:0:
64,192,13722,1,4,0:0:0:0:
448,192,13722,1,4,0:0:0:0:
64,192,14163,1,8,0:0:0:0:
448,192,14163,1,8,0:0:0:0:
192,192,14603,1,8,0:0:0:0:
320,192,14603,1,8,0:0:0:0:
448,192,15044,1,4,0:0:0:0:
192,192,15044,1,4,0:0:0:0:
64,192,15044,1,4,0:0:0:0:
448,192,15485,1,8,0:0:0:0:
64,192,15485,1,8,0:0:0:0:
64,192,15925,1,8,0:0:0:0:
320,192,15925,1,8,0:0:0:0:
192,192,16366,1,4,0:0:0:0:
64,192,16366,1,4,0:0:0:0:
448,192,16366,1,4,0:0:0:0:
192,192,16806,1,0,0:0:0:0:
320,192,16806,1,0,0:0:0:0:
448,192,17027,1,0,0:0:0:0:
192,192,17247,1,0,0:0:0:0:
64,192,17247,1,0,0:0:0:0:
320,192,17467,1,0,0:0:0:0:
192,192,17687,1,0,0:0:0:0:
448,192,17687,1,0,0:0:0:0:
320,192,17908,1,0,0:0:0:0:
192,192,18128,128,0,19009:0:0:0:0:
64,192,18128,1,0,0:0:0:0:
448,192,18568,1,0,0:0:0:0:
320,192,19009,1,0,0:0:0:0:
64,192,19450,1,2,0:0:0:0:
320,192,19450,1,2,0:0:0:0:
64,192,19670,1,2,0:0:0:0:
448,192,19670,1,2,0:0:0:0:
64,192,19890,1,2,0:0:0:0:
320,192,19890,1,2,0:0:0:0:
64,192,20110,1,2,0:0:0:0:
448,192,20110,1,2,0:0:0:0:
64,192,20331,1,2,0:0:0:0:
320,192,20331,1,2,0:0:0:0:
448,192,20771,1,2,0:0:0:0:
64,192,20771,1,2,0:0:0:0:
448,192,20992,1,2,0:0:0:0:
192,192,20992,1,2,0:0:0:0:
448,192,21212,1,2,0:0:0:0:
64,192,21212,1,2,0:0:0:0:
448,192,21432,1,2,0:0:0:0:
192,192,21432,1,2,0:0:0:0:
448,192,21652,1,2,0:0:0:0:
64,192,21652,1,2,0:0:0:0:
64,192,22093,1,0,0:0:0:0:
320,192,22093,1,0,0:0:0:0:
192,192,22313,1,0,0:0:0:0:
320,192,22534,1,0,0:0:0:0:
448,192,22754,1,0,0:0:0:0:
192,192,22974,128,0,24296:0:0:0:0:
320,192,23415,128,0,24296:0:0:0:0:
448,192,23415,1,0,0:0:0:0:
64,192,24296,1,4,0:0:0:0:
64,192,24736,1,0,0:0:0:0:
192,192,24736,1,8,0:0:0:0:
448,192,24957,1,2,0:0:0:0:
320,192,25068,1,2,0:0:0:0:
448,192,25178,1,2,0:0:0:0:
64,192,25400,1,2,0:0:0:0:
192,192,25510,1,2,0:0:0:0:
64,192,25621,1,2,0:0:0:0:
448,192,25843,1,2,0:0:0:0:
320,192,25953,1,2,0:0:0:0:
448,192,26064,1,8,0:0:0:0:
64,192,26064,1,8,0:0:0:0:
192,192,26064,1,8,0:0:0:0:
320,192,26285,1,2,0:0:0:0:
320,192,26396,1,2,0:0:0:0:
320,192,26507,1,2,0:0:0:0:
64,192,26728,1,8,0:0:0:0:
192,192,26728,1,8,0:0:0:0:
448,192,26728,1,8,0:0:0:0:
320,192,26950,1,2,0:0:0:0:
192,192,27171,1,2,0:0:0:0:
64,192,27392,1,8,0:0:0:0:
448,192,27392,1,8,0:0:0:0:
320,192,27392,1,8,0:0:0:0:
192,192,27614,1,2,0:0:0:0:
192,192,27724,1,2,0:0:0:0:
192,192,27835,1,2,0:0:0:0:
64,192,28057,1,8,0:0:0:0:
320,192,28057,1,8,0:0:0:0:
448,192,28057,1,8,0:0:0:0:
448,192,28278,1,2,0:0:0:0:
192,192,28499,1,2,0:0:0:0:
320,192,28721,1,4,0:0:0:0:
448,192,28721,1,4,0:0:0:0:
64,192,28721,1,4,0:0:0:0:
64,192,29162,1,8,0:0:0:0:
192,192,29162,1,8,0:0:0:0:
192,192,29603,1,8,0:0:0:0:
320,192,29603,1,8,0:0:0:0:
448,192,30044,1,8,0:0:0:0:
192,192,30044,1,8,0:0:0:0:
64,192,30485,1,8,0:0:0:0:
448,192,30485,1,8,0:0:0:0:
64,192,30926,1,8,0:0:0:0:
192,192,30926,1,8,0:0:0:0:
192,192,31368,1,8,0:0:0:0:
448,192,31368,1,8,0:0:0:0:
320,192,31809,1,8,0:0:0:0:
64,192,31809,1,8,0:0:0:0:
192,192,32250,1,12,0:0:0:0:
320,192,32250,1,12,0:0:0:0:
448,192,32250,1,0,0:0:0:0:
320,192,33132,128,0,33573:0:0:0:0:
448,192,33573,128,0,33995:0:0:0:0:
192,192,33995,1,8,0:0:0:0:
64,192,33995,1,8,0:0:0:0:
320,192,33995,1,8,0:0:0:0:
320,192,34215,1,8,0:0:0:0:
64,192,34215,1,8,0:0:0:0:
192,192,34436,1,8,0:0:0:0:
448,192,34436,1,8,0:0:0:0:
320,192,34656,1,8,0:0:0:0:
192,192,34656,1,8,0:0:0:0:
320,192,34877,1,8,0:0:0:0:
64,192,34877,1,8,0:0:0:0:
192,192,35208,1,8,0:0:0:0:
64,192,35208,1,8,0:0:0:0:
192,192,35539,1,10,0:0:0:0:
448,192,35539,1,10,0:0:0:0:
448,192,35759,1,2,0:0:0:0:
320,192,35759,1,2,0:0:0:0:
192,192,35870,1,2,0:0:0:0:
64,192,35980,1,2,0:0:0:0:
64,192,36200,1,10,0:0:0:0:
192,192,36200,1,10,0:0:0:0:
448,192,36421,1,2,0:0:0:0:
320,192,36421,1,2,0:0:0:0:
192,192,36531,1,2,0:0:0:0:
64,192,36642,1,2,0:0:0:0:
192,192,36862,1,10,0:0:0:0:
64,192,36862,1,10,0:0:0:0:
448,192,37083,1,2,0:0:0:0:
320,192,37083,1,2,0:0:0:0:
192,192,37193,1,0,0:0:0:0:
64,192,37303,1,2,0:0:0:0:
192,192,37524,1,4,0:0:0:0:
320,192,37524,1,14,0:0:0:0:
448,192,37524,1,14,0:0:0:0:
320,192,37745,1,8,0:0:0:0:
64,192,37745,1,8,0:0:0:0:
64,192,37965,1,8,0:0:0:0:
192,192,37965,1,8,0:0:0:0:
448,192,37965,1,8,0:0:0:0:
320,192,38186,1,8,0:0:0:0:
192,192,38186,1,8,0:0:0:0:
320,192,38406,1,8,0:0:0:0:
64,192,38406,1,8,0:0:0:0:
192,192,38737,1,8,0:0:0:0:
64,192,38737,1,8,0:0:0:0:
320,192,39068,1,8,0:0:0:0:
192,192,39068,1,8,0:0:0:0:
320,192,39289,1,2,0:0:0:0:
448,192,39289,1,2,0:0:0:0:
192,192,39399,1,2,0:0:0:0:
64,192,39399,1,2,0:0:0:0:
320,192,39509,1,2,0:0:0:0:
448,192,39509,1,2,0:0:0:0:
192,192,39730,1,2,0:0:0:0:
64,192,39730,1,2,0:0:0:0:
320,192,39840,1,2,0:0:0:0:
448,192,39840,1,2,0:0:0:0:
192,192,39950,1,2,0:0:0:0:
64,192,39950,1,2,0:0:0:0:
320,192,40281,1,2,0:0:0:0:
448,192,40392,1,10,0:0:0:0:
192,192,40392,1,10,0:0:0:0:
64,192,40502,1,2,0:0:0:0:
192,192,40612,1,10,0:0:0:0:
448,192,40612,1,10,0:0:0:0:
64,192,40722,1,2,0:0:0:0:
192,192,40833,1,10,0:0:0:0:
448,192,40833,1,10,0:0:0:0:
320,192,40943,1,2,0:0:0:0:
448,192,41053,1,8,0:0:0:0:
192,192,41053,1,12,0:0:0:0:
64,192,41053,1,12,0:0:0:0:
64,192,41274,1,8,0:0:0:0:
320,192,41274,1,8,0:0:0:0:
320,192,41494,1,8,0:0:0:0:
448,192,41494,1,8,0:0:0:0:
448,192,41715,1,8,0:0:0:0:
192,192,41715,1,8,0:0:0:0:
192,192,41936,1,8,0:0:0:0:
64,192,41936,1,8,0:0:0:0:
320,192,42267,1,8,0:0:0:0:
192,192,42267,1,8,0:0:0:0:
448,192,42597,1,8,0:0:0:0:
64,192,42597,1,8,0:0:0:0:
64,192,42818,1,2,0:0:0:0:
320,192,42818,1,2,0:0:0:0:
192,192,42928,1,2,0:0:0:0:
320,192,43039,1,2,0:0:0:0:
192,192,43259,1,8,0:0:0:0:
320,192,43259,1,8,0:0:0:0:
448,192,43480,1,2,0:0:0:0:
192,192,43480,1,2,0:0:0:0:
320,192,43590,1,2,0:0:0:0:
192,192,43700,1,2,0:0:0:0:
192,192,43921,1,8,0:0:0:0:
64,192,43921,1,8,0:0:0:0:
64,192,44142,1,2,0:0:0:0:
320,192,44142,1,2,0:0:0:0:
192,192,44252,1,2,0:0:0:0:
320,192,44362,1,2,0:0:0:0:
320,192,44583,1,8,0:0:0:0:
448,192,44583,1,8,0:0:0:0:
448,192,44803,1,8,0:0:0:0:
192,192,44803,1,8,0:0:0:0:
192,192,45024,1,8,0:0:0:0:
64,192,45024,1,8,0:0:0:0:
320,192,45244,1,8,0:0:0:0:
64,192,45244,1,8,0:0:0:0:
320,192,45465,1,8,0:0:0:0:
448,192,45465,1,8,0:0:0:0:
320,192,45796,1,8,0:0:0:0:
64,192,45796,1,8,0:0:0:0:
192,192,46127,1,8,0:0:0:0:
320,192,46127,1,8,0:0:0:0:
320,192,46347,1,2,0:0:0:0:
64,192,46347,1,2,0:0:0:0:
192,192,46458,1,2,0:0:0:0:
64,192,46568,1,8,0:0:0:0:
448,192,46568,1,8,0:0:0:0:
320,192,46678,1,2,0:0:0:0:
192,192,46789,1,8,0:0:0:0:
64,192,46789,1,8,0:0:0:0:
320,192,46899,1,8,0:0:0:0:
448,192,46899,1,8,0:0:0:0:
64,192,47009,1,2,0:0:0:0:
192,192,47119,1,8,0:0:0:0:
320,192,47119,1,8,0:0:0:0:
448,192,47230,1,2,0:0:0:0:
320,192,47340,1,8,0:0:0:0:
192,192,47340,1,8,0:0:0:0:
64,192,47450,1,8,0:0:0:0:
448,192,47450,1,8,0:0:0:0:
320,192,47561,1,2,0:0:0:0:
192,192,47671,1,8,0:0:0:0:
64,192,47671,1,8,0:0:0:0:
64,192,47892,1,8,0:0:0:0:
192,192,47892,1,8,0:0:0:0:
192,192,48112,1,12,0:0:0:0:
320,192,48112,1,12,0:0:0:0:
448,192,48112,1,12,0:0:0:0:
320,192,48553,1,8,0:0:0:0:
192,192,48553,1,8,0:0:0:0:
448,192,48994,1,8,0:0:0:0:
64,192,48994,1,8,0:0:0:0:
192,192,49436,1,8,0:0:0:0:
320,192,49436,1,8,0:0:0:0:
320,192,49767,1,2,0:0:0:0:
448,192,49877,1,8,0:0:0:0:
192,192,49877,1,8,0:0:0:0:
320,192,50318,1,8,0:0:0:0:
64,192,50318,1,8,0:0:0:0:
320,192,50759,1,8,0:0:0:0:
448,192,50759,1,8,0:0:0:0:
320,192,50980,1,8,0:0:0:0:
192,192,50980,1,8,0:0:0:0:
192,192,51200,1,8,0:0:0:0:
64,192,51200,1,8,0:0:0:0:
320,192,51421,1,8,0:0:0:0:
448,192,51421,1,8,0:0:0:0:
320,192,51642,1,4,0:0:0:0:
192,192,51642,1,4,0:0:0:0:
64,192,51642,1,4,0:0:0:0:
320,192,52083,1,8,0:0:0:0:
64,192,52083,1,8,0:0:0:0:
320,192,52524,1,8,0:0:0:0:
192,192,52524,1,8,0:0:0:0:
192,192,52965,1,8,0:0:0:0:
64,192,52965,1,8,0:0:0:0:
192,192,53186,1,8,0:0:0:0:
448,192,53186,1,8,0:0:0:0:
320,192,53406,1,4,0:0:0:0:
448,192,53406,1,4,0:0:0:0:
64,192,53406,128,2,54289:0:0:0:0:
320,192,54178,1,2,0:0:0:0:
192,192,54289,1,10,0:0:0:0:
448,192,54289,1,2,0:0:0:0:
448,192,54730,1,12,0:0:0:0:
192,192,54730,1,12,0:0:0:0:
448,192,55170,1,10,0:0:0:0:
64,192,55170,1,2,0:0:0:0:
192,192,55328,1,2,0:0:0:0:
320,192,55487,1,2,0:0:0:0:
448,192,55646,1,10,0:0:0:0:
192,192,55646,1,2,0:0:0:0:
320,192,55804,1,2,0:0:0:0:
192,192,55963,1,2,0:0:0:0:
448,192,56122,1,10,0:0:0:0:
320,192,56122,1,2,0:0:0:0:
64,192,56122,1,2,0:0:0:0:
192,192,56281,1,2,0:0:0:0:
320,192,56439,1,2,0:0:0:0:
448,192,56598,1,10,0:0:0:0:
192,192,56598,1,2,0:0:0:0:
320,192,56757,1,2,0:0:0:0:
192,192,56916,1,2,0:0:0:0:
64,192,57071,1,2,0:0:0:0:
448,192,57071,1,10,0:0:0:0:
320,192,57071,1,2,0:0:0:0:
192,192,57243,1,2,0:0:0:0:
320,192,57415,1,2,0:0:0:0:
192,192,57588,1,2,0:0:0:0:
448,192,57588,1,10,0:0:0:0:
320,192,57760,1,2,0:0:0:0:
192,192,57933,1,2,0:0:0:0:
64,192,58105,1,2,0:0:0:0:
448,192,58105,1,10,0:0:0:0:
320,192,58105,1,2,0:0:0:0:
192,192,58277,1,2,0:0:0:0:
320,192,58450,1,2,0:0:0:0:
192,192,58622,1,2,0:0:0:0:
448,192,58622,1,10,0:0:0:0:
320,192,58795,1,2,0:0:0:0:
192,192,58967,1,2,0:0:0:0:
64,192,59139,1,2,0:0:0:0:
448,192,59139,1,10,0:0:0:0:
320,192,59139,1,2,0:0:0:0:
192,192,59332,1,2,0:0:0:0:
320,192,59525,1,2,0:0:0:0:
192,192,59718,1,2,0:0:0:0:
448,192,59718,1,10,0:0:0:0:
320,192,59911,1,2,0:0:0:0:
192,192,60105,1,2,0:0:0:0:
320,192,60298,1,2,0:0:0:0:
448,192,60298,1,10,0:0:0:0:
64,192,60298,1,2,0:0:0:0:
192,192,60491,1,2,0:0:0:0:
320,192,60684,1,2,0:0:0:0:
448,192,60878,1,10,0:0:0:0:
192,192,60878,1,0,0:0:0:0:
320,192,61071,1,2,0:0:0:0:
192,192,61264,1,2,0:0:0:0:
64,192,61457,1,8,0:0:0:0:
320,192,61457,1,8,0:0:0:0:
192,192,61619,1,8,0:0:0:0:
64,192,61619,1,8,0:0:0:0:
448,192,61778,1,8,0:0:0:0:
320,192,61778,1,8,0:0:0:0:
320,192,61937,1,8,0:0:0:0:
64,192,61937,1,8,0:0:0:0:
192,192,62096,1,8,0:0:0:0:
448,192,62096,1,8,0:0:0:0:
64,192,62255,1,8,0:0:0:0:
192,192,62255,1,8,0:0:0:0:
320,192,62414,1,8,0:0:0:0:
448,192,62414,1,8,0:0:0:0:
192,192,62573,1,8,0:0:0:0:
448,192,62573,1,8,0:0:0:0:
320,192,62732,1,8,0:0:0:0:
64,192,62732,1,8,0:0:0:0:
192,192,62891,1,8,0:0:0:0:
448,192,62891,1,8,0:0:0:0:
192,192,63050,1,8,0:0:0:0:
64,192,63050,1,8,0:0:0:0:
320,192,63209,1,8,0:0:0:0:
448,192,63209,1,8,0:0:0:0:
64,192,63368,1,4,0:0:0:0:
192,192,63368,1,12,0:0:0:0:
448,192,63368,1,12,0:0:0:0:
320,192,63821,1,8,0:0:0:0:
64,192,63821,1,8,0:0:0:0:
64,192,64257,1,12,0:0:0:0:
192,192,64257,1,12,0:0:0:0:
320,192,64257,1,8,0:0:0:0:
448,192,64694,1,8,0:0:0:0:
64,192,64694,1,8,0:0:0:0:
64,192,65130,1,2,0:0:0:0:
192,192,65239,1,2,0:0:0:0:
320,192,65348,1,2,0:0:0:0:
448,192,65457,1,2,0:0:0:0:
192,192,65575,1,2,0:0:0:0:
320,192,65684,1,2,0:0:0:0:
448,192,65794,1,2,0:0:0:0:
320,192,65904,1,2,0:0:0:0:
448,192,66014,1,2,0:0:0:0:
320,192,66124,1,2,0:0:0:0:
192,192,66234,1,2,0:0:0:0:
64,192,66344,1,2,0:0:0:0:
320,192,66465,1,2,0:0:0:0:
192,192,66574,1,2,0:0:0:0:
64,192,66684,1,2,0:0:0:0:
192,192,66794,1,2,0:0:0:0:
320,192,66904,1,12,0:0:0:0:
448,192,66904,1,8,0:0:0:0:
64,192,67014,1,2,0:0:0:0:
192,192,67124,1,2,0:0:0:0:
320,192,67234,1,2,0:0:0:0:
64,192,67344,1,8,0:0:0:0:
192,192,67344,1,8,0:0:0:0:
448,192,67454,1,2,0:0:0:0:
320,192,67563,1,2,0:0:0:0:
192,192,67673,1,2,0:0:0:0:
64,192,67783,1,2,0:0:0:0:
192,192,67893,1,2,0:0:0:0:
64,192,68003,1,8,0:0:0:0:
448,192,68003,1,8,0:0:0:0:
192,192,68113,1,2,0:0:0:0:
320,192,68223,1,8,0:0:0:0:
64,192,68223,1,8,0:0:0:0:
448,192,68333,1,2,0:0:0:0:
320,192,68443,1,2,0:0:0:0:
192,192,68552,1,2,0:0:0:0:
320,192,68662,1,8,0:0:0:0:
448,192,68662,1,8,0:0:0:0:
64,192,68772,1,2,0:0:0:0:
192,192,68883,1,2,0:0:0:0:
320,192,68994,1,2,0:0:0:0:
448,192,69104,1,8,0:0:0:0:
64,192,69104,1,8,0:0:0:0:
320,192,69215,1,2,0:0:0:0:
192,192,69326,1,2,0:0:0:0:
64,192,69436,1,2,0:0:0:0:
192,192,69547,1,2,0:0:0:0:
64,192,69658,1,2,0:0:0:0:
192,192,69769,1,8,0:0:0:0:
320,192,69769,1,8,0:0:0:0:
448,192,69879,1,2,0:0:0:0:
320,192,69990,1,10,0:0:0:0:
192,192,69990,1,10,0:0:0:0:
64,192,70101,1,2,0:0:0:0:
192,192,70211,1,2,0:0:0:0:
320,192,70322,1,2,0:0:0:0:
64,192,70433,1,8,0:0:0:0:
192,192,70433,1,8,0:0:0:0:
448,192,70543,1,0,0:0:0:0:
64,192,70654,1,0,0:0:0:0:
448,192,70765,1,0,0:0:0:0:
64,192,70876,1,0,0:0:0:0:
192,192,70876,1,8,0:0:0:0:
448,192,70986,1,0,0:0:0:0:
64,192,71097,1,0,0:0:0:0:
448,192,71208,1,0,0:0:0:0:
192,192,71318,1,0,0:0:0:0:
64,192,71318,1,8,0:0:0:0:
320,192,71429,1,0,0:0:0:0:
192,192,71540,1,0,0:0:0:0:
320,192,71650,1,0,0:0:0:0:
192,192,71761,1,0,0:0:0:0:
64,192,71761,1,8,0:0:0:0:
320,192,71872,1,0,0:0:0:0:
192,192,71983,1,0,0:0:0:0:
320,192,72093,1,0,0:0:0:0:
448,192,72204,5,8,0:0:0:0:
64,192,72204,1,8,0:0:0:0:
192,192,72315,1,2,0:0:0:0:
320,192,72425,1,2,0:0:0:0:
448,192,72536,1,2,0:0:0:0:
320,192,72647,1,8,0:0:0:0:
192,192,72647,1,8,0:0:0:0:
448,192,72757,1,2,0:0:0:0:
320,192,72868,1,2,0:0:0:0:
192,192,72979,1,2,0:0:0:0:
320,192,73090,1,8,0:0:0:0:
64,192,73090,1,8,0:0:0:0:
192,192,73200,1,2,0:0:0:0:
64,192,73311,1,2,0:0:0:0:
192,192,73422,1,2,0:0:0:0:
320,192,73532,1,8,0:0:0:0:
448,192,73532,1,8,0:0:0:0:
64,192,73643,1,2,0:0:0:0:
192,192,73754,1,10,0:0:0:0:
320,192,73754,1,8,0:0:0:0:
64,192,73864,1,2,0:0:0:0:
320,192,73975,1,12,0:0:0:0:
448,192,73975,1,12,0:0:0:0:
192,192,73975,1,12,0:0:0:0:
64,192,74086,1,2,0:0:0:0:
192,192,74197,1,2,0:0:0:0:
320,192,74307,1,2,0:0:0:0:
448,192,74418,1,2,0:0:0:0:
320,192,74529,1,2,0:0:0:0:
192,192,74639,1,2,0:0:0:0:
64,192,74750,1,2,0:0:0:0:
448,192,74861,1,2,0:0:0:0:
320,192,74971,1,2,0:0:0:0:
192,192,75082,1,2,0:0:0:0:
64,192,75193,1,2,0:0:0:0:
192,192,75304,1,2,0:0:0:0:
320,192,75414,1,2,0:0:0:0:
448,192,75525,1,2,0:0:0:0:
320,192,75636,1,2,0:0:0:0:
448,192,75746,1,12,0:0:0:0:
64,192,75746,1,4,0:0:0:0:
192,192,75746,1,4,0:0:0:0:
320,192,75857,1,2,0:0:0:0:
192,192,75968,1,2,0:0:0:0:
320,192,76078,1,2,0:0:0:0:
64,192,76189,1,8,0:0:0:0:
448,192,76189,1,8,0:0:0:0:
192,192,76300,1,2,0:0:0:0:
64,192,76411,1,2,0:0:0:0:
192,192,76521,1,8,0:0:0:0:
320,192,76521,1,8,0:0:0:0:
448,192,76632,1,2,0:0:0:0:
320,192,76743,1,2,0:0:0:0:
448,192,76853,1,8,0:0:0:0:
64,192,76853,1,8,0:0:0:0:
192,192,76964,1,2,0:0:0:0:
320,192,77075,1,8,0:0:0:0:
448,192,77075,1,8,0:0:0:0:
192,192,77185,1,2,0:0:0:0:
64,192,77296,1,8,0:0:0:0:
448,192,77296,1,8,0:0:0:0:
320,192,77407,1,2,0:0:0:0:
448,192,77518,1,8,0:0:0:0:
192,192,77518,1,8,0:0:0:0:
64,192,77960,1,8,0:0:0:0:
320,192,77960,1,8,0:0:0:0:
192,192,78403,1,8,0:0:0:0:
320,192,78403,1,8,0:0:0:0:
192,192,78735,1,2,0:0:0:0:
320,192,78846,1,8,0:0:0:0:
448,192,78846,1,8,0:0:0:0:
64,192,79289,1,8,0:0:0:0:
192,192,79289,1,8,0:0:0:0:
448,192,79289,1,8,0:0:0:0:
64,192,79510,1,8,0:0:0:0:
320,192,79510,1,8,0:0:0:0:
192,192,79732,1,8,0:0:0:0:
320,192,79732,1,8,0:0:0:0:
448,192,79953,1,8,0:0:0:0:
192,192,79953,1,8,0:0:0:0:
64,192,80174,1,8,0:0:0:0:
320,192,80174,1,8,0:0:0:0:
320,192,80396,1,8,0:0:0:0:
448,192,80396,1,8,0:0:0:0:
192,192,80617,1,8,0:0:0:0:
64,192,80617,1,8,0:0:0:0:
448,192,80839,1,8,0:0:0:0:
192,192,80839,1,8,0:0:0:0:
448,192,81040,1,8,0:0:0:0:
320,192,81040,1,8,0:0:0:0:
320,192,81369,1,8,0:0:0:0:
64,192,81369,1,8,0:0:0:0:
192,192,81589,1,2,0:0:0:0:
320,192,81699,1,8,0:0:0:0:
448,192,81699,1,8,0:0:0:0:
192,192,81919,1,8,0:0:0:0:
64,192,81919,1,8,0:0:0:0:
448,192,82248,1,8,0:0:0:0:
192,192,82248,1,8,0:0:0:0:
320,192,82468,1,2,0:0:0:0:
192,192,82578,1,8,0:0:0:0:
448,192,82578,1,8,0:0:0:0:
64,192,82798,1,2,0:0:0:0:
192,192,82908,1,2,0:0:0:0:
320,192,83018,1,4,0:0:0:0:
448,192,83018,1,4,0:0:0:0:
320,192,83897,128,2,84556:0:0:0:0:
448,192,83897,1,2,0:0:0:0:
64,192,84571,1,2,0:0:0:0:
64,192,84789,1,2,0:0:0:0:
320,192,85008,1,8,0:0:0:0:
448,192,85008,1,8,0:0:0:0:
192,192,85227,1,2,0:0:0:0:
192,192,85446,1,2,0:0:0:0:
320,192,85665,1,8,0:0:0:0:
64,192,85665,1,8,0:0:0:0:
448,192,85884,1,2,0:0:0:0:
448,192,86103,1,2,0:0:0:0:
320,192,86322,1,8,0:0:0:0:
64,192,86322,1,8,0:0:0:0:
192,192,86432,1,0,0:0:0:0:
320,192,86542,1,0,0:0:0:0:
448,192,86652,1,0,0:0:0:0:
64,192,86763,1,0,0:0:0:0:
192,192,86873,1,0,0:0:0:0:
320,192,86983,1,0,0:0:0:0:
448,192,87094,1,0,0:0:0:0:
192,192,87204,1,0,0:0:0:0:
320,192,87314,1,0,0:0:0:0:
448,192,87424,1,0,0:0:0:0:
320,192,87535,1,0,0:0:0:0:
64,192,87645,1,0,0:0:0:0:
192,192,87755,1,0,0:0:0:0:
320,192,87866,1,0,0:0:0:0:
448,192,87976,1,0,0:0:0:0:
192,192,88086,1,12,0:0:0:0:
64,192,88086,1,0,0:0:0:0:
192,192,88304,1,2,0:0:0:0:
64,192,88304,1,0,0:0:0:0:
320,192,88523,1,8,0:0:0:0:
448,192,88523,1,0,0:0:0:0:
192,192,88742,1,2,0:0:0:0:
192,192,88961,1,2,0:0:0:0:
320,192,89180,1,8,0:0:0:0:
64,192,89180,1,8,0:0:0:0:
448,192,89399,1,2,0:0:0:0:
320,192,89618,1,8,0:0:0:0:
192,192,89618,1,8,0:0:0:0:
64,192,89837,1,8,0:0:0:0:
192,192,89837,1,8,0:0:0:0:
320,192,89983,1,0,0:0:0:0:
448,192,90130,1,0,0:0:0:0:
192,192,90276,1,8,0:0:0:0:
320,192,90276,1,8,0:0:0:0:
64,192,90423,1,0,0:0:0:0:
192,192,90569,1,0,0:0:0:0:
320,192,90716,1,8,0:0:0:0:
64,192,90716,1,8,0:0:0:0:
448,192,90862,1,0,0:0:0:0:
320,192,91009,1,0,0:0:0:0:
64,192,91155,1,8,0:0:0:0:
192,192,91155,1,8,0:0:0:0:
448,192,91302,1,0,0:0:0:0:
320,192,91448,1,0,0:0:0:0:
448,192,91595,1,8,0:0:0:0:
192,192,91595,1,8,0:0:0:0:
320,192,91705,1,2,0:0:0:0:
192,192,91816,1,8,0:0:0:0:
448,192,91816,1,8,0:0:0:0:
64,192,91927,1,2,0:0:0:0:
448,192,92037,1,8,0:0:0:0:
320,192,92037,1,8,0:0:0:0:
192,192,92148,1,2,0:0:0:0:
320,192,92259,1,2,0:0:0:0:
448,192,92369,1,2,0:0:0:0:
320,192,92480,1,2,0:0:0:0:
192,192,92591,1,2,0:0:0:0:
448,192,92702,1,8,0:0:0:0:
320,192,92702,1,8,0:0:0:0:
192,192,92812,1,2,0:0:0:0:
64,192,92923,1,2,0:0:0:0:
192,192,93034,1,2,0:0:0:0:
320,192,93144,1,2,0:0:0:0:
192,192,93255,1,2,0:0:0:0:
320,192,93366,1,8,0:0:0:0:
64,192,93366,1,8,0:0:0:0:
192,192,93476,1,2,0:0:0:0:
320,192,93587,1,2,0:0:0:0:
448,192,93698,1,2,0:0:0:0:
320,192,93809,1,2,0:0:0:0:
192,192,93919,1,2,0:0:0:0:
448,192,94030,1,8,0:0:0:0:
320,192,94030,1,8,0:0:0:0:
192,192,94141,1,2,0:0:0:0:
64,192,94251,1,2,0:0:0:0:
192,192,94362,1,2,0:0:0:0:
320,192,94473,1,2,0:0:0:0:
448,192,94583,1,2,0:0:0:0:
192,192,94694,1,8,0:0:0:0:
320,192,94694,1,8,0:0:0:0:
64,192,94805,1,2,0:0:0:0:
320,192,94916,1,8,0:0:0:0:
192,192,94916,1,8,0:0:0:0:
448,192,95026,1,2,0:0:0:0:
320,192,95137,1,2,0:0:0:0:
192,192,95248,1,2,0:0:0:0:
64,192,95358,1,2,0:0:0:0:
192,192,95469,1,2,0:0:0:0:
448,192,95580,1,8,0:0:0:0:
320,192,95580,1,8,0:0:0:0:
192,192,95690,1,2,0:0:0:0:
64,192,95801,1,2,0:0:0:0:
192,192,95912,1,2,0:0:0:0:
320,192,96023,1,2,0:0:0:0:
448,192,96133,1,2,0:0:0:0:
64,192,96244,1,8,0:0:0:0:
320,192,96244,1,8,0:0:0:0:
192,192,96355,1,2,0:0:0:0:
320,192,96465,1,2,0:0:0:0:
448,192,96576,1,2,0:0:0:0:
192,192,96687,1,8,0:0:0:0:
320,192,96687,1,8,0:0:0:0:
64,192,96797,1,0,0:0:0:0:
192,192,96908,1,8,0:0:0:0:
448,192,96908,1,8,0:0:0:0:
320,192,97056,1,0,0:0:0:0:
448,192,97204,1,0,0:0:0:0:
320,192,97352,1,8,0:0:0:0:
64,192,97352,1,8,0:0:0:0:
448,192,97500,1,0,0:0:0:0:
320,192,97648,1,0,0:0:0:0:
64,192,97796,1,0,0:0:0:0:
192,192,97945,1,0,0:0:0:0:
64,192,98093,1,0,0:0:0:0:
192,192,98241,1,0,0:0:0:0:
320,192,98389,1,0,0:0:0:0:
448,192,98537,1,0,0:0:0:0:
64,192,98685,1,12,0:0:0:0:
192,192,98685,1,12,0:0:0:0:
320,192,98904,1,0,0:0:0:0:
192,192,99124,1,0,0:0:0:0:
448,192,99344,1,2,0:0:0:0:
320,192,99454,1,2,0:0:0:0:
192,192,99564,1,2,0:0:0:0:
448,192,99783,1,0,0:0:0:0:
320,192,100003,1,0,0:0:0:0:
64,192,100223,1,2,0:0:0:0:
192,192,100333,1,2,0:0:0:0:
320,192,100443,1,2,0:0:0:0:
448,192,100663,1,0,0:0:0:0:
320,192,100882,1,0,0:0:0:0:
192,192,101102,1,2,0:0:0:0:
320,192,101212,1,2,0:0:0:0:
448,192,101322,1,2,0:0:0:0:
192,192,101542,1,0,0:0:0:0:
64,192,101761,1,0,0:0:0:0:
192,192,101981,1,8,0:0:0:0:
320,192,101981,1,8,0:0:0:0:
64,192,102201,1,8,0:0:0:0:
448,192,102201,1,8,0:0:0:0:
320,192,102421,1,8,0:0:0:0:
64,192,102421,1,8,0:0:0:0:
192,192,102641,1,8,0:0:0:0:
448,192,102641,1,8,0:0:0:0:
320,192,102860,1,8,0:0:0:0:
192,192,102860,1,8,0:0:0:0:
64,192,103080,1,8,0:0:0:0:
320,192,103080,1,8,0:0:0:0:
448,192,103300,1,8,0:0:0:0:
64,192,103300,1,8,0:0:0:0:
192,192,103520,1,8,0:0:0:0:
320,192,103520,1,8,0:0:0:0:
192,192,103739,1,8,0:0:0:0:
448,192,103739,1,8,0:0:0:0:
320,192,103959,1,8,0:0:0:0:
64,192,103959,1,8,0:0:0:0:
448,192,103959,1,8,0:0:0:0:
320,192,104179,1,8,0:0:0:0:
192,192,104179,1,8,0:0:0:0:
448,192,104399,1,8,0:0:0:0:
64,192,104399,1,8,0:0:0:0:
192,192,104619,1,8,0:0:0:0:
320,192,104619,1,8,0:0:0:0:
192,192,104838,1,8,0:0:0:0:
448,192,104838,1,8,0:0:0:0:
64,192,105058,1,8,0:0:0:0:
320,192,105058,1,8,0:0:0:0:
192,192,105278,1,8,0:0:0:0:
448,192,105278,1,8,0:0:0:0:
192,192,105498,1,8,0:0:0:0:
64,192,105498,1,8,0:0:0:0:
448,192,105717,1,8,0:0:0:0:
320,192,105717,1,8,0:0:0:0:
64,192,105717,1,8,0:0:0:0:
320,192,105937,1,8,0:0:0:0:
192,192,105937,1,8,0:0:0:0:
64,192,106157,1,8,0:0:0:0:
448,192,106157,1,8,0:0:0:0:
64,192,106377,1,8,0:0:0:0:
320,192,106377,1,8,0:0:0:0:
320,192,106597,1,8,0:0:0:0:
448,192,106597,1,8,0:0:0:0:
192,192,106816,1,8,0:0:0:0:
64,192,106816,1,8,0:0:0:0:
192,192,107036,1,8,0:0:0:0:
448,192,107036,1,8,0:0:0:0:
320,192,107256,1,8,0:0:0:0:
64,192,107256,1,8,0:0:0:0:
64,192,107476,1,12,0:0:0:0:
192,192,107476,1,12,0:0:0:0:
448,192,107476,1,12,0:0:0:0:
192,192,107918,1,8,0:0:0:0:
448,192,107918,1,8,0:0:0:0:
64,192,108361,1,8,0:0:0:0:
192,192,108361,1,8,0:0:0:0:
64,192,108804,1,8,0:0:0:0:
320,192,108804,1,8,0:0:0:0:
320,192,109136,1,2,0:0:0:0:
448,192,109247,1,8,0:0:0:0:
192,192,109247,1,8,0:0:0:0:
192,192,109690,1,8,0:0:0:0:
320,192,109690,1,8,0:0:0:0:
448,192,110132,1,10,0:0:0:0:
192,192,110132,1,8,0:0:0:0:
64,192,110354,1,10,0:0:0:0:
192,192,110354,1,8,0:0:0:0:
320,192,110575,1,10,0:0:0:0:
448,192,110575,1,8,0:0:0:0:
448,192,110797,1,10,0:0:0:0:
192,192,110797,1,8,0:0:0:0:
192,192,111018,1,12,0:0:0:0:
320,192,111018,1,12,0:0:0:0:
64,192,111018,1,12,0:0:0:0:
64,192,111461,1,10,0:0:0:0:
448,192,111461,1,8,0:0:0:0:
448,192,111904,1,8,0:0:0:0:
192,192,111904,1,8,0:0:0:0:
64,192,112346,1,8,0:0:0:0:
320,192,112346,1,8,0:0:0:0:
192,192,112678,1,2,0:0:0:0:
320,192,112789,1,8,0:0:0:0:
64,192,112789,1,8,0:0:0:0:
448,192,113232,1,8,0:0:0:0:
320,192,113232,1,8,0:0:0:0:
192,192,113675,1,8,0:0:0:0:
448,192,113675,1,8,0:0:0:0:
320,192,113894,1,8,0:0:0:0:
64,192,113894,1,8,0:0:0:0:
320,192,114114,1,8,0:0:0:0:
448,192,114114,1,8,0:0:0:0:
448,192,114334,1,8,0:0:0:0:
192,192,114334,1,8,0:0:0:0:
320,192,114554,128,0,114991:0:0:0:0:
448,192,114554,128,0,116305:0:0:0:0:
320,192,115210,128,0,115648:0:0:0:0:
320,192,115867,128,0,116305:0:0:0:0:
192,192,116305,1,12,0:0:0:0:
64,192,116305,1,12,0:0:0:0:
192,192,116511,1,2,0:0:0:0:
320,192,116718,1,8,0:0:0:0:
448,192,116718,1,8,0:0:0:0:
192,192,116925,1,10,0:0:0:0:
64,192,116925,1,8,0:0:0:0:
448,192,117029,1,10,0:0:0:0:
320,192,117029,1,8,0:0:0:0:
64,192,117132,1,8,0:0:0:0:
192,192,117132,1,8,0:0:0:0:
320,192,117339,1,8,0:0:0:0:
448,192,117339,1,8,0:0:0:0:
192,192,117546,1,8,0:0:0:0:
320,192,117546,1,8,0:0:0:0:
448,192,117753,1,8,0:0:0:0:
192,192,117753,1,8,0:0:0:0:
320,192,117960,1,2,0:0:0:0:
64,192,117960,1,0,0:0:0:0:
448,192,118062,1,2,0:0:0:0:
320,192,118164,1,2,0:0:0:0:
192,192,118267,1,2,0:0:0:0:
64,192,118369,1,2,0:0:0:0:
192,192,118471,1,2,0:0:0:0:
320,192,118574,1,2,0:0:0:0:
448,192,118676,1,2,0:0:0:0:
64,192,118779,1,2,0:0:0:0:
192,192,118881,1,2,0:0:0:0:
320,192,118983,1,2,0:0:0:0:
448,192,119086,1,2,0:0:0:0:
64,192,119188,1,2,0:0:0:0:
192,192,119291,1,2,0:0:0:0:
320,192,119393,1,2,0:0:0:0:
448,192,119495,1,2,0:0:0:0:
64,192,119598,1,12,0:0:0:0:
192,192,119598,1,12,0:0:0:0:
320,192,119598,1,0,0:0:0:0:
448,192,119803,1,8,0:0:0:0:
320,192,119803,1,8,0:0:0:0:
192,192,120007,1,8,0:0:0:0:
64,192,120007,1,8,0:0:0:0:
320,192,120212,1,8,0:0:0:0:
448,192,120212,1,8,0:0:0:0:
320,192,120417,1,8,0:0:0:0:
64,192,120417,1,8,0:0:0:0:
64,192,120622,1,8,0:0:0:0:
192,192,120622,1,8,0:0:0:0:
320,192,120826,1,8,0:0:0:0:
448,192,120826,1,8,0:0:0:0:
320,192,121031,1,8,0:0:0:0:
192,192,121031,1,8,0:0:0:0:
448,192,121236,1,0,0:0:0:0:
192,192,121236,1,0,0:0:0:0:
64,192,121338,1,0,0:0:0:0:
192,192,121441,1,0,0:0:0:0:
320,192,121543,1,0,0:0:0:0:
448,192,121646,1,0,0:0:0:0:
320,192,121748,1,0,0:0:0:0:
192,192,121850,1,0,0:0:0:0:
64,192,121953,1,0,0:0:0:0:
448,192,122055,1,0,0:0:0:0:
320,192,122157,1,0,0:0:0:0:
192,192,122260,1,0,0:0:0:0:
64,192,122362,1,0,0:0:0:0:
192,192,122465,1,0,0:0:0:0:
320,192,122567,1,0,0:0:0:0:
448,192,122669,1,0,0:0:0:0:
320,192,122772,1,0,0:0:0:0:
192,192,122874,1,12,0:0:0:0:
448,192,122874,1,12,0:0:0:0:
64,192,122874,1,12,0:0:0:0:
192,192,123090,1,2,0:0:0:0:
448,192,123295,1,8,0:0:0:0:
320,192,123295,1,8,0:0:0:0:
192,192,123501,1,8,0:0:0:0:
320,192,123501,1,8,0:0:0:0:
448,192,123604,1,8,0:0:0:0:
64,192,123604,1,10,0:0:0:0:
192,192,123706,1,8,0:0:0:0:
320,192,123706,1,8,0:0:0:0:
64,192,123912,1,8,0:0:0:0:
192,192,123912,1,8,0:0:0:0:
448,192,124117,1,8,0:0:0:0:
192,192,124117,1,8,0:0:0:0:
64,192,124323,1,8,0:0:0:0:
320,192,124323,1,8,0:0:0:0:
192,192,124520,1,8,0:0:0:0:
64,192,124520,1,8,0:0:0:0:
448,192,124725,1,8,0:0:0:0:
320,192,124725,1,8,0:0:0:0:
64,192,124930,1,8,0:0:0:0:
192,192,124930,1,8,0:0:0:0:
320,192,125033,1,10,0:0:0:0:
192,192,125136,1,8,0:0:0:0:
448,192,125136,1,8,0:0:0:0:
448,192,125341,1,8,0:0:0:0:
64,192,125341,1,8,0:0:0:0:
192,192,125547,1,8,0:0:0:0:
320,192,125547,1,8,0:0:0:0:
448,192,125752,1,0,0:0:0:0:
64,192,125752,1,8,0:0:0:0:
320,192,125855,1,8,0:0:0:0:
448,192,125958,1,8,0:0:0:0:
192,192,125958,1,8,0:0:0:0:
192,192,126163,1,8,0:0:0:0:
448,192,126163,1,10,0:0:0:0:
320,192,126266,1,2,0:0:0:0:
192,192,126369,1,2,0:0:0:0:
64,192,126472,1,2,0:0:0:0:
192,192,126574,1,8,0:0:0:0:
320,192,126574,1,8,0:0:0:0:
64,192,126677,1,2,0:0:0:0:
192,192,126780,1,2,0:0:0:0:
320,192,126883,1,2,0:0:0:0:
448,192,126985,1,8,0:0:0:0:
64,192,126985,1,8,0:0:0:0:
192,192,127088,1,2,0:0:0:0:
320,192,127191,1,2,0:0:0:0:
448,192,127293,1,2,0:0:0:0:
320,192,127396,1,8,0:0:0:0:
192,192,127396,1,8,0:0:0:0:
64,192,127499,1,2,0:0:0:0:
192,192,127602,1,2,0:0:0:0:
320,192,127704,1,2,0:0:0:0:
448,192,127807,1,12,0:0:0:0:
192,192,127807,1,12,0:0:0:0:
192,192,128013,1,8,0:0:0:0:
64,192,128013,1,8,0:0:0:0:
320,192,128218,1,10,0:0:0:0:
448,192,128321,1,8,0:0:0:0:
192,192,128321,1,8,0:0:0:0:
320,192,128526,1,8,0:0:0:0:
64,192,128526,1,8,0:0:0:0:
192,192,128732,1,10,0:0:0:0:
320,192,128835,1,8,0:0:0:0:
448,192,128835,1,8,0:0:0:0:
192,192,129040,1,8,0:0:0:0:
64,192,129040,1,8,0:0:0:0:
192,192,129246,1,12,0:0:0:0:
320,192,129246,1,12,0:0:0:0:
64,192,129451,1,12,0:0:0:0:
320,192,129451,1,12,0:0:0:0:
448,192,129451,1,12,0:0:0:0:
192,192,129656,1,8,0:0:0:0:
64,192,129656,1,8,0:0:0:0:
192,192,129862,1,10,0:0:0:0:
320,192,129965,1,8,0:0:0:0:
448,192,129965,1,8,0:0:0:0:
320,192,130170,1,8,0:0:0:0:
192,192,130170,1,8,0:0:0:0:
64,192,130273,1,0,0:0:0:0:
192,192,130376,1,10,0:0:0:0:
320,192,130478,1,8,0:0:0:0:
448,192,130478,1,8,0:0:0:0:
192,192,130581,1,2,0:0:0:0:
320,192,130684,1,8,0:0:0:0:
64,192,130684,1,8,0:0:0:0:
192,192,130787,1,2,0:0:0:0:
64,192,130889,1,8,0:0:0:0:
320,192,130889,1,8,0:0:0:0:
448,192,130992,1,2,0:0:0:0:
320,192,131095,1,12,0:0:0:0:
192,192,131095,1,12,0:0:0:0:
64,192,131095,1,12,0:0:0:0:
448,192,131300,1,8,0:0:0:0:
192,192,131300,1,8,0:0:0:0:
192,192,131506,1,8,0:0:0:0:
320,192,131506,1,8,0:0:0:0:
320,192,131711,1,8,0:0:0:0:
64,192,131711,1,8,0:0:0:0:
64,192,131917,1,8,0:0:0:0:
192,192,131917,1,8,0:0:0:0:
448,192,132122,1,8,0:0:0:0:
64,192,132122,1,8,0:0:0:0:
320,192,132328,1,8,0:0:0:0:
192,192,132328,1,8,0:0:0:0:
320,192,132533,1,8,0:0:0:0:
448,192,132533,1,8,0:0:0:0:
448,192,132739,1,8,0:0:0:0:
192,192,132739,1,8,0:0:0:0:
64,192,132739,1,8,0:0:0:0:
320,192,132944,1,8,0:0:0:0:
192,192,132944,1,8,0:0:0:0:
448,192,133150,1,8,0:0:0:0:
64,192,133150,1,8,0:0:0:0:
320,192,133355,1,8,0:0:0:0:
448,192,133355,1,8,0:0:0:0:
64,192,133561,1,8,0:0:0:0:
192,192,133561,1,8,0:0:0:0:
192,192,133766,1,8,0:0:0:0:
320,192,133766,1,8,0:0:0:0:
192,192,133972,1,8,0:0:0:0:
64,192,133972,1,8,0:0:0:0:
320,192,134074,1,8,0:0:0:0:
448,192,134074,1,8,0:0:0:0:
192,192,134177,1,8,0:0:0:0:
64,192,134177,1,8,0:0:0:0:
448,192,134383,1,8,0:0:0:0:
192,192,134383,1,8,0:0:0:0:
320,192,134383,1,8,0:0:0:0:
64,192,134588,1,8,0:0:0:0:
192,192,134588,1,8,0:0:0:0:
320,192,134793,1,8,0:0:0:0:
448,192,134793,1,8,0:0:0:0:
192,192,134999,1,8,0:0:0:0:
64,192,134999,1,8,0:0:0:0:
192,192,135204,1,8,0:0:0:0:
320,192,135204,1,8,0:0:0:0:
320,192,135410,1,8,0:0:0:0:
448,192,135410,1,8,0:0:0:0:
192,192,135615,1,8,0:0:0:0:
320,192,135615,1,8,0:0:0:0:
192,192,135821,1,8,0:0:0:0:
64,192,135821,1,8,0:0:0:0:
64,192,136026,1,8,0:0:0:0:
320,192,136026,1,8,0:0:0:0:
448,192,136026,1,8,0:0:0:0:
320,192,136232,1,0,0:0:0:0:
192,192,136437,1,8,0:0:0:0:
64,192,136437,1,8,0:0:0:0:
320,192,136540,1,2,0:0:0:0:
192,192,136643,1,2,0:0:0:0:
448,192,136643,1,2,0:0:0:0:
448,192,136848,1,2,0:0:0:0:
192,192,136848,1,2,0:0:0:0:
320,192,136951,1,2,0:0:0:0:
192,192,137054,1,8,0:0:0:0:
64,192,137054,1,8,0:0:0:0:
192,192,137259,1,10,0:0:0:0:
448,192,137259,1,10,0:0:0:0:
448,192,137465,1,10,0:0:0:0:
320,192,137465,1,10,0:0:0:0:
64,192,137670,1,12,0:0:0:0:
320,192,137670,1,12,0:0:0:0:
192,192,137670,1,12,0:0:0:0:
320,192,137876,1,2,0:0:0:0:
192,192,137876,1,2,0:0:0:0:
64,192,138081,1,2,0:0:0:0:
448,192,138081,1,2,0:0:0:0:
192,192,138287,1,2,0:0:0:0:
448,192,138287,1,2,0:0:0:0:
64,192,138492,1,8,0:0:0:0:
320,192,138492,1,8,0:0:0:0:
192,192,138492,1,8,0:0:0:0:
320,192,138698,1,2,0:0:0:0:
448,192,138698,1,2,0:0:0:0:
192,192,138903,1,8,0:0:0:0:
64,192,138903,1,8,0:0:0:0:
448,192,138903,1,8,0:0:0:0:
320,192,139109,1,2,0:0:0:0:
64,192,139109,1,2,0:0:0:0:
192,192,139314,1,8,0:0:0:0:
320,192,139314,1,8,0:0:0:0:
448,192,139314,1,8,0:0:0:0:
448,192,139520,1,2,0:0:0:0:
192,192,139520,1,2,0:0:0:0:
320,192,139725,1,2,0:0:0:0:
64,192,139725,1,2,0:0:0:0:
320,192,139930,1,2,0:0:0:0:
192,192,139930,1,2,0:0:0:0:
64,192,140136,1,8,0:0:0:0:
448,192,140136,1,8,0:0:0:0:
320,192,140136,1,8,0:0:0:0:
448,192,140341,1,2,0:0:0:0:
192,192,140341,1,2,0:0:0:0:
320,192,140444,1,2,0:0:0:0:
448,192,140547,1,8,0:0:0:0:
192,192,140547,1,8,0:0:0:0:
64,192,140547,1,8,0:0:0:0:
64,192,140752,1,2,0:0:0:0:
320,192,140752,1,2,0:0:0:0:
320,192,140958,128,0,141163:0:0:0:0:
192,192,140958,1,0,0:0:0:0:
192,192,141369,128,0,141574:0:0:0:0:
64,192,141369,1,0,0:0:0:0:
448,192,141369,1,0,0:0:0:0:
448,192,141780,128,0,141985:0:0:0:0:
320,192,141780,1,0,0:0:0:0:
320,192,142191,1,0,0:0:0:0:
192,192,142191,1,0,0:0:0:0:
64,192,142191,128,0,142602:0:0:0:0:
448,192,142602,1,8,0:0:0:0:
192,192,142602,1,8,0:0:0:0:
320,192,142602,1,8,0:0:0:0:
64,192,142807,1,8,0:0:0:0:
192,192,142807,1,8,0:0:0:0:
448,192,143013,1,8,0:0:0:0:
320,192,143013,1,8,0:0:0:0:
64,192,143218,1,8,0:0:0:0:
192,192,143218,1,8,0:0:0:0:
448,192,143424,1,8,0:0:0:0:
320,192,143424,1,8,0:0:0:0:
192,192,143629,1,8,0:0:0:0:
320,192,143629,1,8,0:0:0:0:
448,192,143835,1,8,0:0:0:0:
64,192,143835,1,8,0:0:0:0:
320,192,144040,1,8,0:0:0:0:
448,192,144040,1,8,0:0:0:0:
64,192,144246,1,8,0:0:0:0:
192,192,144246,1,8,0:0:0:0:
320,192,144246,1,8,0:0:0:0:
448,192,144451,1,8,0:0:0:0:
320,192,144451,1,8,0:0:0:0:
64,192,144656,1,8,0:0:0:0:
192,192,144656,1,8,0:0:0:0:
448,192,144862,1,8,0:0:0:0:
320,192,144862,1,8,0:0:0:0:
192,192,145067,1,8,0:0:0:0:
64,192,145067,1,8,0:0:0:0:
192,192,145273,1,8,0:0:0:0:
448,192,145273,1,8,0:0:0:0:
448,192,145478,1,8,0:0:0:0:
320,192,145478,1,8,0:0:0:0:
64,192,145684,1,8,0:0:0:0:
320,192,145684,1,8,0:0:0:0:
64,192,145889,1,12,0:0:0:0:
192,192,145889,1,12,0:0:0:0:
448,192,145889,1,12,0:0:0:0:
448,192,146095,1,2,0:0:0:0:
320,192,146198,1,2,0:0:0:0:
64,192,146300,1,2,0:0:0:0:
192,192,146300,1,2,0:0:0:0:
448,192,146403,1,2,0:0:0:0:
192,192,146506,1,2,0:0:0:0:
320,192,146506,1,2,0:0:0:0:
64,192,146711,1,2,0:0:0:0:
192,192,146711,1,2,0:0:0:0:
448,192,146917,1,2,0:0:0:0:
320,192,146917,1,2,0:0:0:0:
64,192,147225,1,2,0:0:0:0:
192,192,147225,1,2,0:0:0:0:
448,192,147328,1,2,0:0:0:0:
320,192,147328,1,2,0:0:0:0:
64,192,147533,1,2,0:0:0:0:
320,192,147533,1,2,0:0:0:0:
192,192,147636,1,2,0:0:0:0:
448,192,147739,1,4,0:0:0:0:
320,192,147739,1,4,0:0:0:0:
64,192,147944,128,0,153184:0:0:0:0:
320,192,153184,1,4,0:0:0:0:
