osu file format v14

[General]
AudioFilename: Love Fighter.mp3
AudioLeadIn: 0
PreviewTime: -1
Countdown: 0
SampleSet: Normal
StackLeniency: 0.2
Mode: 0
LetterboxInBreaks: 0
WidescreenStoryboard: 1

[Editor]
Bookmarks: 3815,11495,28775,44135,51815,55655,59495,63335,80615,99815,115175
DistanceSpacing: 0.7
BeatDivisor: 8
GridSize: 16
TimelineZoom: 2.599999

[Metadata]
Title:Love Fighter
TitleUnicode:Love Fighter
Artist:Brandy
ArtistUnicode:Brandy
Creator:Zeonive
Version:Resurrection
Source:
Tags:
BeatmapID:1785454
BeatmapSetID:854377

[Difficulty]
HPDrainRate:4
CircleSize:4
OverallDifficulty:8
ApproachRate:9
SliderMultiplier:1.9
SliderTickRate:2

[Events]
//Background and Video events
//Break Periods
//Storyboard Layer 0 (Background)
//Storyboard Layer 1 (Fail)
//Storyboard Layer 2 (Pass)
//Storyboard Layer 3 (Foreground)
//Storyboard Sound Samples

[TimingPoints]
-1945,480,4,1,0,100,1,0
11495,-79.9999999999999,4,1,0,100,0,0
28295,-50,4,1,0,100,0,0
28775,-100,4,1,0,100,0,0
40295,-79.9999999999999,4,1,0,100,0,0
43895,-133.333333333333,4,1,0,100,0,0
63335,-79.9999999999999,4,1,0,100,0,0
80615,-133.333333333333,4,1,0,100,0,0

[Colours]
Combo1 : 255,0,128
Combo2 : 0,202,0
Combo3 : 18,124,255
Combo4 : 242,24,57
Combo5 : 255,192,0
Combo6 : 255,128,0

[HitObjects]
128,128,3815,6,0,L|320:128,1,190,6|8,0:0|0:0,0:0:0:0:
384,256,4535,2,0,L|192:256,1,190
64,256,5255,1,8,0:0:0:0:
320,256,5735,2,0,L|320:64,1,190,2|8,0:0|0:0,0:0:0:0:
192,128,6455,2,0,L|192:262,1,95,0|2,0:0|0:0,0:0:0:0:
192,352,6935,1,0,0:0:0:0:
448,64,7655,6,0,L|256:64,1,190,6|4,0:0|0:0,0:0:0:0:
352,160,8375,2,0,L|185:160,1,142.5
128,160,8855,1,0,0:0:0:0:
128,32,9095,1,8,0:0:0:0:
0,32,9335,1,0,0:0:0:0:
0,160,9575,1,6,0:0:0:0:
0,160,10295,1,0,0:0:0:0:
0,160,10535,5,2,0:2:0:0:
31,195,10655,5,2,0:2:0:0:
47,239,10775,37,2,0:2:0:0:
46,286,10895,5,2,0:2:0:0:
103,363,11015,5,10,0:2:0:0:
120,306,11135,5,2,0:2:0:0:
158,260,11255,37,2,0:2:0:0:
210,233,11375,5,2,0:2:0:0:
272,224,11495,38,0,L|407:224,1,118.75,6|0,0:0|0:0,0:0:0:0:
320,128,11975,2,0,L|187:128,1,118.75,8|2,0:0|0:2,0:0:0:0:
160,128,12335,1,2,0:2:0:0:
160,160,12455,1,2,0:2:0:0:
160,192,12575,1,2,0:2:0:0:
160,224,12695,1,2,0:2:0:0:
160,256,12815,1,2,0:2:0:0:
192,256,12935,2,0,L|320:256,1,118.75,8|0,0:0|0:0,0:0:0:0:
392,32,13415,5,6,0:2:0:0:
360,176,13535,1,2,0:2:0:0:
312,32,13775,5,2,0:2:0:0:
280,176,13895,1,10,0:2:0:0:
232,32,14135,5,2,0:2:0:0:
200,176,14255,1,2,0:2:0:0:
152,32,14495,5,2,0:2:0:0:
120,176,14615,1,2,0:2:0:0:
392,32,14855,5,10,0:2:0:0:
120,176,15095,1,2,0:2:0:0:
368,192,15335,6,0,L|368:336,1,118.75,6|0,0:0|0:0,0:0:0:0:
448,192,15815,2,0,L|448:320,1,118.75,8|0,0:0|0:0,0:0:0:0:
256,192,16295,5,2,0:2:0:0:
257,311,16415,1,2,0:2:0:0:
255,73,16655,1,0,0:0:0:0:
137,192,16895,1,0,0:0:0:0:
374,194,17135,1,2,0:2:0:0:
256,192,17255,6,0,L|129:192,1,118.75,6|0,0:0|0:0,0:0:0:0:
137,80,17735,2,0,L|256:80,1,118.75,8|0,0:0|0:0,0:0:0:0:
376,80,18215,2,0,L|504:80,1,118.75,2|0,0:0|0:0,0:0:0:0:
494,192,18695,2,4,L|438:192,4,29.6875,12|4|4|4|12,3:3|3:3|3:3|3:3|3:3,3:3:0:0:
432,192,18995,1,4,3:3:0:0:
400,192,19055,1,4,3:3:0:0:
368,192,19115,1,4,3:3:0:0:
336,192,19175,6,0,L|208:192,1,118.75,6|0,0:0|0:0,0:0:0:0:
176,304,19655,2,0,L|336:304,1,118.75,8|2,0:0|0:2,0:0:0:0:
336,304,20015,1,2,0:2:0:0:
336,272,20135,1,2,0:2:0:0:
336,240,20255,1,2,0:2:0:0:
336,208,20375,1,2,0:2:0:0:
336,176,20495,1,2,0:2:0:0:
304,176,20615,2,0,L|128:176,1,118.75,8|0,0:0|0:0,0:0:0:0:
352,48,21095,5,2,0:2:0:0:
160,48,21215,1,2,0:2:0:0:
416,144,21455,5,2,0:2:0:0:
249,48,21575,1,10,0:2:0:0:
430,264,21815,5,2,0:2:0:0:
333,97,21935,1,2,0:2:0:0:
383,375,22175,5,2,0:2:0:0:
382,181,22295,1,2,0:2:0:0:
383,375,22535,5,10,0:2:0:0:
160,48,22775,1,2,0:2:0:0:
208,256,23015,6,0,L|208:384,1,118.75,6|0,0:0|0:0,0:0:0:0:
112,176,23495,2,0,L|112:304,1,118.75,8|0,0:0|0:0,0:0:0:0:
16,96,23975,5,2,0:2:0:0:
16,214,24095,1,2,0:2:0:0:
208,96,24335,1,0,0:0:0:0:
16,214,24575,1,0,0:0:0:0:
208,96,24815,1,2,0:2:0:0:
208,214,24935,6,4,L|351:214,1,118.75,6|4,3:3|3:3,3:3:0:0:
327,229,25235,1,4,3:3:0:0:
327,243,25295,1,4,3:3:0:0:
327,257,25355,1,4,3:3:0:0:
327,271,25415,2,0,L|452:271,1,118.75,12|4,0:3|3:3,0:0:0:0:
446,285,25715,1,4,3:3:0:0:
446,299,25775,1,4,3:3:0:0:
446,313,25835,1,4,3:3:0:0:
446,327,25895,1,6,3:3:0:0:
327,369,26015,1,2,0:2:0:0:
208,327,26135,1,2,0:2:0:0:
327,271,26255,1,2,0:2:0:0:
267,250,26375,1,10,0:2:0:0:
327,222,26495,1,2,0:2:0:0:
386,250,26615,1,10,0:2:0:0:
327,271,26735,1,2,0:2:0:0:
229,160,26855,5,6,0:0:0:0:
229,160,26975,1,2,0:0:0:0:
229,160,27215,1,2,0:0:0:0:
229,160,27455,1,2,0:0:0:0:
229,160,27695,1,2,0:0:0:0:
229,160,27935,1,2,0:0:0:0:
229,160,28175,1,2,0:0:0:0:
505,164,28295,6,0,B|337:104|405:213|225:158,1,285,8|0,0:0|0:0,0:0:0:0:
256,48,28775,6,0,L|160:48,1,95,6|0,0:0|0:0,0:0:0:0:
48,128,29255,6,0,L|144:128,1,95,8|0,0:0|0:0,0:0:0:0:
160,128,29615,1,0,0:0:0:0:
48,208,29735,1,2,0:0:0:0:
272,128,29975,1,0,0:0:0:0:
160,208,30095,2,0,L|96:208,1,47.5,0|8,0:0|0:0,0:0:0:0:
272,128,30335,1,0,0:0:0:0:
272,128,30575,1,0,0:0:0:0:
160,208,30695,6,0,L|32:208,1,95,6|0,0:0|0:0,0:0:0:0:
48,208,31055,1,0,0:0:0:0:
160,288,31175,2,0,L|160:384,1,95,8|0,0:0|0:0,0:0:0:0:
240,384,31655,2,0,L|240:289,1,95,2|4,0:0|3:3,0:0:0:0:
240,272,31955,1,4,3:3:0:0:
240,256,32015,1,4,3:3:0:0:
240,240,32075,1,4,3:3:0:0:
240,224,32135,1,14,3:3:0:0:
240,160,32255,1,2,0:2:0:0:
240,96,32375,1,10,0:2:0:0:
240,32,32495,1,2,0:2:0:0:
240,224,32615,6,0,L|352:224,1,95,6|0,0:0|0:0,0:0:0:0:
416,224,33095,2,0,L|528:224,1,95,8|0,0:0|0:0,0:0:0:0:
512,144,33575,2,0,L|400:144,1,95,2|0,0:0|0:0,0:0:0:0:
336,144,34055,2,0,L|224:144,1,95,8|0,0:0|0:0,0:0:0:0:
144,144,34535,5,2,0:2:0:0:
96,144,34655,1,2,0:2:0:0:
96,192,34775,1,6,3:3:0:0:
96,208,34835,1,4,3:3:0:0:
96,224,34895,1,4,3:3:0:0:
96,240,34955,1,4,3:3:0:0:
96,256,35015,1,12,3:3:0:0:
192,240,35255,1,4,3:3:0:0:
192,256,35315,1,4,3:3:0:0:
192,272,35375,1,4,3:3:0:0:
192,288,35435,1,4,3:3:0:0:
192,304,35495,1,6,3:3:0:0:
288,304,35615,1,2,0:2:0:0:
384,304,35735,1,2,0:2:0:0:
288,112,35975,1,10,0:2:0:0:
384,112,36095,1,2,0:2:0:0:
336,32,36215,1,2,0:2:0:0:
336,208,36455,6,0,L|240:208,1,95,6|0,0:0|0:0,0:0:0:0:
48,208,36935,2,0,L|144:208,1,95,8|0,0:0|0:0,0:0:0:0:
241,208,37295,1,0,0:0:0:0:
143,208,37415,1,2,0:0:0:0:
240,112,37655,1,0,0:0:0:0:
144,112,37775,2,0,L|80:112,1,47.5,0|8,0:0|0:0,0:0:0:0:
240,208,38015,1,0,0:0:0:0:
240,16,38255,1,0,0:0:0:0:
240,112,38375,6,0,L|240:208,1,95,6|0,0:0|0:0,0:0:0:0:
192,288,38735,1,0,0:0:0:0:
288,288,38855,1,8,0:0:0:0:
144,192,39095,1,0,0:0:0:0:
336,192,39335,2,0,L|448:192,1,95,2|4,0:0|0:3,0:0:0:0:
448,192,39635,1,4,0:3:0:0:
464,192,39695,1,4,0:3:0:0:
480,192,39755,1,4,0:3:0:0:
496,192,39815,1,14,0:3:0:0:
416,96,40055,1,10,0:2:0:0:
416,288,40295,6,0,L|232:288,1,178.125,6|0,0:0|0:0,0:0:0:0:
464,368,40775,1,8,0:0:0:0:
368,192,41015,6,0,L|167:192,1,178.125,4|0,0:0|0:0,0:0:0:0:
416,288,41495,1,0,0:0:0:0:
320,96,41735,1,2,0:2:0:0:
272,96,41855,1,2,0:2:0:0:
224,96,41975,1,2,0:2:0:0:
176,96,42095,1,2,0:2:0:0:
128,96,42215,5,6,0:0:0:0:
128,256,42455,2,0,L|80:256,2,29.6875
224,176,42695,1,8,0:0:0:0:
224,336,42935,1,0,0:0:0:0:
320,96,43175,1,2,0:2:0:0:
320,96,43295,1,2,0:2:0:0:
320,96,43415,1,2,0:2:0:0:
320,256,43655,1,10,0:2:0:0:
320,256,43775,1,2,0:2:0:0:
320,256,43895,6,2,L|448:256,1,106.875004076958,6|2,0:2|0:2,0:2:0:0:
428,200,44375,1,0,0:0:0:0:
428,146,44615,1,8,0:0:0:0:
428,92,44855,1,0,0:0:0:0:
330,40,45095,1,2,0:0:0:0:
330,94,45335,1,0,0:0:0:0:
330,148,45575,1,8,0:0:0:0:
330,203,45815,6,0,L|331:340,1,106.875004076958,6|0,0:0|0:0,0:0:0:0:
251,311,46295,2,0,L|251:338,1,17.812500679493
215,311,46415,2,0,L|215:338,1,17.812500679493
179,311,46535,2,0,L|179:338,1,17.812500679493,8|0,0:0|0:0,0:0:0:0:
143,311,46655,2,0,L|143:338,1,17.812500679493
142,251,46775,2,0,L|142:233,1,17.812500679493
178,251,46895,2,0,L|178:233,1,17.812500679493
214,251,47015,2,0,L|214:233,1,17.812500679493,2|0,0:0|0:0,0:0:0:0:
250,251,47135,2,0,L|250:233,1,17.812500679493
294,309,47255,2,0,L|294:326,1,17.812500679493
330,309,47375,2,0,L|330:326,1,17.812500679493
366,309,47495,2,0,L|366:326,1,17.812500679493,8|0,0:0|0:0,0:0:0:0:
402,309,47615,2,0,L|402:326,1,17.812500679493
402,248,47735,6,0,L|401:138,1,106.875004076958,6|0,0:0|0:0,0:0:0:0:
347,144,48215,1,0,0:0:0:0:
293,144,48455,1,8,0:0:0:0:
239,145,48695,1,0,0:0:0:0:
185,52,48935,1,2,0:0:0:0:
239,51,49175,1,0,0:0:0:0:
293,51,49415,1,8,0:0:0:0:
348,49,49655,6,4,L|496:49,1,142.500005435944,6|4,3:3|3:3,3:3:0:0:
491,63,50195,1,4,3:3:0:0:
491,77,50255,1,4,3:3:0:0:
491,91,50315,1,4,3:3:0:0:
491,105,50375,2,2,L|491:165,1,35.625001358986,14|2,0:3|0:2,0:2:0:0:
400,176,50615,2,2,L|400:116,1,35.625001358986,2|2,0:2|0:2,0:2:0:0:
491,232,50855,1,2,0:2:0:0:
400,275,51095,1,0,0:0:0:0:
308,231,51335,1,10,0:2:0:0:
308,231,51455,1,2,0:2:0:0:
308,231,51575,1,2,0:2:0:0:
135,122,51815,5,6,0:0:0:0:
376,122,52175,1,4,0:0:0:0:
255,330,52535,1,4,0:0:0:0:
255,53,52775,5,6,0:0:0:0:
135,261,53135,1,4,0:0:0:0:
376,261,53495,1,4,0:0:0:0:
206,205,53735,5,6,0:0:0:0:
227,148,53975,1,0,0:0:0:0:
288,151,54215,1,8,0:0:0:0:
304,210,54455,1,0,0:0:0:0:
256,243,54695,5,2,0:0:0:0:
256,37,55055,1,0,0:0:0:0:
256,346,55415,1,0,0:0:0:0:
256,140,55655,5,6,0:0:0:0:
256,140,56135,1,8,0:0:0:0:
205,291,56615,1,2,0:0:0:0:
177,196,56855,1,0,0:0:0:0:
302,291,57095,1,8,0:0:0:0:
336,199,57335,1,0,0:0:0:0:
205,49,57575,5,6,0:3:0:0:
201,62,57635,1,4,0:3:0:0:
197,76,57695,1,4,0:3:0:0:
193,90,57755,1,4,0:3:0:0:
189,103,57815,1,4,0:3:0:0:
307,49,58055,1,12,0:3:0:0:
310,62,58115,1,4,0:3:0:0:
314,76,58175,1,4,0:3:0:0:
318,90,58235,1,4,0:3:0:0:
322,103,58295,1,4,0:3:0:0:
256,321,58535,1,2,0:2:0:0:
256,267,58655,1,2,0:2:0:0:
256,213,58775,1,2,0:2:0:0:
168,173,59015,5,10,0:2:0:0:
220,124,59135,5,2,0:2:0:0:
290,125,59255,5,2,0:2:0:0:
339,174,59375,5,2,0:2:0:0:
168,337,59495,5,6,0:0:0:0:
40,192,59855,1,4,0:0:0:0:
168,47,60215,1,4,0:0:0:0:
344,337,60455,1,6,0:0:0:0:
472,192,60815,1,4,0:0:0:0:
344,47,61175,1,4,0:0:0:0:
256,192,61415,5,6,0:0:0:0:
168,183,62375,1,2,0:0:0:0:
202,120,62495,1,2,0:0:0:0:
271,106,62615,1,2,0:0:0:0:
331,144,62735,1,2,0:0:0:0:
211,272,62855,1,14,3:3:0:0:
211,272,62915,1,4,3:3:0:0:
211,272,62975,1,4,3:3:0:0:
132,267,63095,1,10,0:0:0:0:
86,214,63215,1,2,0:0:0:0:
256,192,63335,6,0,L|400:192,1,118.75
304,96,63815,2,0,L|185:96,1,118.75
160,96,64175,1,0,0:0:0:0:
160,128,64295,1,0,0:0:0:0:
160,160,64415,1,0,0:0:0:0:
160,192,64535,1,0,0:0:0:0:
160,224,64655,1,0,0:0:0:0:
192,224,64775,2,0,L|320:224,1,118.75
304,320,65255,5,0,0:0:0:0:
368,112,65375,1,0,0:0:0:0:
208,320,65615,5,0,0:0:0:0:
144,112,65735,1,0,0:0:0:0:
304,208,65975,5,0,0:0:0:0:
144,0,66095,1,0,0:0:0:0:
208,208,66335,5,0,0:0:0:0:
368,0,66455,1,0,0:0:0:0:
256,368,66695,5,0,0:0:0:0:
256,16,66935,1,0,0:0:0:0:
144,192,67175,6,0,L|144:320,1,118.75
368,192,67655,2,0,L|368:320,1,118.75
144,310,68135,1,0,0:0:0:0:
368,144,68255,1,0,0:0:0:0:
256,310,68495,1,0,0:0:0:0:
256,144,68735,1,0,0:0:0:0:
368,310,68975,1,0,0:0:0:0:
144,144,69095,6,0,L|22:144,1,118.75
256,144,69575,2,0,L|256:24,1,118.75
368,144,70055,2,0,L|490:144,1,118.75
256,240,70535,2,0,L|256:287,4,29.6875
256,288,70835,1,0,0:0:0:0:
256,304,70895,1,0,0:0:0:0:
256,320,70955,1,0,0:0:0:0:
256,336,71015,6,0,L|128:336,1,118.75
32,240,71495,2,0,L|160:240,1,118.75
176,240,71855,1,0,0:0:0:0:
176,208,71975,1,0,0:0:0:0:
176,176,72095,1,0,0:0:0:0:
176,144,72215,1,0,0:0:0:0:
176,112,72335,1,0,0:0:0:0:
208,112,72455,2,0,L|336:112,1,118.75
256,323,72935,5,0,0:0:0:0:
178,85,73055,1,0,0:0:0:0:
380,232,73295,1,0,0:0:0:0:
131,232,73415,1,0,0:0:0:0:
333,85,73655,1,0,0:0:0:0:
256,323,73775,1,0,0:0:0:0:
178,85,74015,1,0,0:0:0:0:
380,232,74135,1,0,0:0:0:0:
131,232,74375,1,0,0:0:0:0:
333,85,74615,1,0,0:0:0:0:
256,323,74855,6,0,L|96:323,1,118.75
256,233,75335,2,0,L|96:233,1,118.75
256,143,75815,1,0,0:0:0:0:
137,143,75935,1,0,0:0:0:0:
363,143,76175,1,0,0:0:0:0:
29,143,76415,1,0,0:0:0:0:
470,143,76655,1,0,0:0:0:0:
29,143,76775,6,0,B|29:268,1,118.75
29,276,77075,1,0,0:0:0:0:
29,290,77135,1,0,0:0:0:0:
29,304,77195,1,0,0:0:0:0:
29,318,77255,1,0,0:0:0:0:
145,318,77495,1,0,0:0:0:0:
145,304,77555,1,0,0:0:0:0:
145,290,77615,1,0,0:0:0:0:
145,276,77675,1,0,0:0:0:0:
145,261,77735,5,0,0:0:0:0:
145,171,77855,1,0,0:0:0:0:
234,171,77975,1,0,0:0:0:0:
234,81,78095,1,0,0:0:0:0:
234,351,78215,5,0,0:0:0:0:
234,261,78335,1,0,0:0:0:0:
323,261,78455,1,0,0:0:0:0:
323,171,78575,1,0,0:0:0:0:
64,192,80615,2,0,L|192:192,1,106.875004076958
0,112,81095,1,0,0:0:0:0:
128,112,81335,2,0,L|256:112,1,106.875004076958
64,32,81815,1,0,0:0:0:0:
64,32,81935,1,0,0:0:0:0:
64,32,82055,2,0,L|144:32,1,71.2500027179719
160,32,82415,1,0,0:0:0:0:
192,32,82535,5,0,0:0:0:0:
336,32,82775,1,0,0:0:0:0:
336,48,82835,1,0,0:0:0:0:
336,64,82895,1,0,0:0:0:0:
336,80,82955,1,0,0:0:0:0:
336,98,83015,2,0,L|336:137,1,35.625001358986
256,208,83255,2,0,L|256:101,1,106.875004076958
400,336,83735,2,0,L|400:229,1,106.875004076958
224,352,84215,1,0,0:0:0:0:
416,144,84455,6,0,L|496:144,1,71.2500027179719
416,64,84815,1,0,0:0:0:0:
344,144,84935,2,0,L|438:144,1,71.2500027179719
272,80,85295,2,0,L|272:8,1,71.2500027179719
208,160,85655,2,0,L|113:160,1,71.2500027179719
288,224,86015,1,0,0:0:0:0:
288,256,86135,1,0,0:0:0:0:
288,288,86255,1,0,0:0:0:0:
288,320,86375,2,0,L|288:400,1,71.2500027179719
192,256,86855,2,0,L|192:336,1,71.2500027179719
384,256,87335,2,0,L|384:336,1,71.2500027179719
480,192,87815,2,0,L|480:272,1,71.2500027179719
