osu file format v14

[General]
AudioFilename: audio.mp3
AudioLeadIn: 0
PreviewTime: 21982
Countdown: 0
SampleSet: None
StackLeniency: 0.7
Mode: 3
LetterboxInBreaks: 0
SpecialStyle: 0
WidescreenStoryboard: 1

[Editor]
DistanceSpacing: 1
BeatDivisor: 4
GridSize: 8
TimelineZoom: 1.8

[Metadata]
Title:Cross Time
TitleUnicode:Cross Time
Artist:Brandy
ArtistUnicode:Brandy
Creator:ababab0306
Version:MX
Source:PUMP IT UP – 2017 PRIME 2
Tags:O2JAM (C)Andamiro EuNyack NANACO★SYNDROME EZ2AC : NT XROSS Collaboration HIGH5 TAPSONIC WORLD CHAMPION SMIN Techno Rock ECON
BeatmapID:1852994
BeatmapSetID:886126

[Difficulty]
HPDrainRate:8
CircleSize:4
OverallDifficulty:8
ApproachRate:5
SliderMultiplier:1.4
SliderTickRate:1

[Events]
//Background and Video events
0,0,"Cross Time4.png",0,0
Video,800,"Cross Time.mp4"
//Break Periods
//Storyboard Layer 0 (Background)
//Storyboard Layer 1 (Fail)
//Storyboard Layer 2 (Pass)
//Storyboard Layer 3 (Foreground)
//Storyboard Sound Samples
Sample,74482,0,"click.wav",70
Sample,74482,0,"piano1.wav",35
Sample,75232,0,"Clock.wav",70
Sample,75982,0,"click.wav",70
Sample,75982,0,"piano2.wav",35
Sample,76732,0,"Clock.wav",70
Sample,80482,0,"click.wav",70
Sample,80482,0,"piano1.wav",35
Sample,81232,0,"Clock.wav",70
Sample,81982,0,"piano2.wav",35
Sample,81982,0,"click.wav",70
Sample,82732,0,"Clock.wav",70

[TimingPoints]
982.40571070547,375,4,3,1,100,1,0
21232,-166.666666666667,4,3,1,100,0,0
21419,-71.4285714285714,4,3,1,100,0,0
21513,-166.666666666667,4,3,1,100,0,0
21701,-71.4285714285714,4,3,1,100,0,0
21794,-166.666666666667,4,3,1,100,0,0
21851,-100,4,3,1,100,0,0
21982,-100,4,3,1,100,0,1
45982,-100,4,3,1,100,0,0
57982,-111.111111111111,4,2,1,70,0,0
63935,-100,4,2,1,70,0,0
68482,-100,4,3,1,70,0,0
71482,-10000,4,3,1,100,0,0
71682,-142.857142857143,4,3,1,100,0,0
72232,-10000,4,3,1,100,0,0
72432,-142.857142857143,4,3,1,100,0,0
72982,-10000,4,3,1,100,0,0
73182,-142.857142857143,4,3,1,100,0,0
73732,-10000,4,3,1,100,0,0
74013,-117.647058823529,4,3,1,100,0,0
86482,-100,4,3,1,100,0,0
98482,-100,4,3,1,100,0,1
110482,-100,4,3,1,100,0,0
111232,-250,4,3,1,100,0,0
111279,-62.5,4,3,1,100,0,0
111326,-250,4,3,1,100,0,0
111373,-62.5,4,3,1,100,0,0
111419,-250,4,3,1,100,0,0
111466,-62.5,4,3,1,100,0,0
111513,-250,4,3,1,100,0,0
111560,-62.5,4,3,1,100,0,0
111607,-100,4,3,1,100,0,0
114232,-250,4,3,1,100,0,0
114279,-62.5,4,3,1,100,0,0
114326,-250,4,3,1,100,0,0
114373,-62.5,4,3,1,100,0,0
114419,-250,4,3,1,100,0,0
114466,-62.5,4,3,1,100,0,0
114513,-250,4,3,1,100,0,0
114560,-62.5,4,3,1,100,0,0
114607,-100,4,3,1,100,0,0
117232,-250,4,3,1,100,0,0
117279,-62.5,4,3,1,100,0,0
117326,-250,4,3,1,100,0,0
117373,-62.5,4,3,1,100,0,0
117419,-250,4,3,1,100,0,0
117466,-62.5,4,3,1,100,0,0
117513,-250,4,3,1,100,0,0
117560,-62.5,4,3,1,100,0,0
117607,-100,4,3,1,100,0,0
120232,-250,4,3,1,100,0,0
120279,-62.5,4,3,1,100,0,0
120326,-250,4,3,1,100,0,0
120373,-62.5,4,3,1,100,0,0
120419,-250,4,3,1,100,0,0
120466,-62.5,4,3,1,100,0,0
120513,-250,4,3,1,100,0,0
120560,-62.5,4,3,1,100,0,0
120607,-100,4,3,1,100,0,0

[HitObjects]
448,192,982,5,0,0:0:0:0:
192,192,982,1,0,0:0:0:70:click.wav
192,192,1169,1,0,0:0:0:0:
192,192,1357,1,0,0:0:0:0:
320,192,1544,1,0,0:0:0:0:
448,192,1732,1,0,0:0:0:0:
64,192,1732,1,0,0:0:0:70:Clock.wav
320,192,1919,1,0,0:0:0:0:
192,192,2107,1,0,0:0:0:0:
64,192,2294,1,0,0:0:0:0:
448,192,2482,1,0,0:0:0:0:
320,192,2482,1,0,0:0:0:70:click.wav
320,192,2669,1,0,0:0:0:0:
64,192,2857,1,0,0:0:0:0:
192,192,3044,1,0,0:0:0:0:
448,192,3232,1,0,0:0:0:70:Clock.wav
320,192,3232,1,0,0:0:0:0:
64,192,3419,1,0,0:0:0:0:
320,192,3607,1,0,0:0:0:0:
192,192,3794,1,0,0:0:0:0:
448,192,3982,1,0,0:0:0:0:
64,192,3982,1,0,0:0:0:70:click.wav
64,192,4169,1,0,0:0:0:0:
320,192,4357,1,0,0:0:0:0:
448,192,4544,1,0,0:0:0:0:
192,192,4732,1,0,0:0:0:70:Clock.wav
320,192,4732,1,0,0:0:0:0:
64,192,4919,1,0,0:0:0:0:
192,192,5107,1,0,0:0:0:0:
448,192,5294,1,0,0:0:0:0:
320,192,5482,1,0,0:0:0:70:click.wav
64,192,5482,1,0,0:0:0:0:
64,192,5669,1,0,0:0:0:0:
320,192,5857,1,0,0:0:0:0:
448,192,6044,1,0,0:0:0:0:
192,192,6232,1,0,0:0:0:70:Clock.wav
320,192,6232,1,0,0:0:0:0:
64,192,6419,1,0,0:0:0:0:
320,192,6607,1,0,0:0:0:0:
448,192,6794,1,0,0:0:0:0:
64,192,6982,1,4,0:0:0:0:
320,192,6982,1,0,0:0:0:0:
192,192,6982,1,0,0:0:0:0:
64,192,7169,1,0,0:0:0:0:
448,192,7357,1,0,0:0:0:0:
320,192,7357,1,0,0:0:0:0:
192,192,7451,1,0,0:0:0:0:
448,192,7544,1,0,0:0:0:0:
320,192,7544,1,0,0:0:0:0:
192,192,7638,1,0,0:0:0:0:
64,192,7732,1,0,0:0:0:0:
320,192,7732,1,2,2:0:0:0:
448,192,7732,1,0,0:0:0:0:
192,192,7919,1,0,0:0:0:0:
320,192,8107,1,0,0:0:0:0:
448,192,8294,1,0,0:0:0:0:
192,192,8388,1,0,0:0:0:0:
448,192,8482,1,4,0:0:0:0:
320,192,8482,1,0,0:0:0:0:
64,192,8482,1,0,0:0:0:0:
192,192,8669,1,0,0:0:0:0:
320,192,8857,1,0,0:0:0:0:
448,192,9044,1,0,0:0:0:0:
64,192,9044,1,4,0:0:0:0:
192,192,9044,1,0,0:0:0:0:
320,192,9232,1,2,2:0:0:0:
64,192,9419,1,0,0:0:0:0:
448,192,9419,1,4,0:0:0:0:
192,192,9419,1,0,0:0:0:0:
320,192,9607,1,0,0:0:0:0:
192,192,9794,1,0,0:0:0:0:
64,192,9888,1,0,0:0:0:0:
320,192,9982,1,4,0:0:0:0:
448,192,9982,1,0,0:0:0:0:
320,192,10169,1,0,0:0:0:0:
448,192,10169,1,0,0:0:0:0:
192,192,10357,1,0,0:0:0:0:
64,192,10544,1,0,0:0:0:0:
448,192,10732,1,0,0:0:0:0:
192,192,10732,1,2,2:0:0:0:
448,192,10919,1,0,0:0:0:0:
192,192,10919,1,0,0:0:0:0:
320,192,11107,1,0,0:0:0:0:
192,192,11294,1,0,0:0:0:0:
320,192,11388,1,0,0:0:0:0:
448,192,11482,1,4,0:0:0:0:
64,192,11482,1,0,0:0:0:0:
448,192,11669,1,0,0:0:0:0:
64,192,11669,1,0,0:0:0:0:
192,192,11857,1,0,0:0:0:0:
320,192,12044,1,4,0:0:0:0:
448,192,12044,1,0,0:0:0:0:
64,192,12232,1,2,2:0:0:0:
192,192,12232,1,0,0:0:0:0:
448,192,12419,1,0,0:0:0:0:
320,192,12419,1,0,0:0:0:0:
192,192,12607,1,0,0:0:0:0:
64,192,12607,1,0,0:0:0:0:
320,192,12794,1,0,0:0:0:0:
448,192,12794,1,0,0:0:0:0:
192,192,12888,1,0,0:0:0:0:
64,192,12982,1,4,0:0:0:0:
448,192,12982,128,0,13169:0:0:0:0:
320,192,12982,1,0,0:0:0:0:
320,192,13357,1,2,2:0:0:0:
192,192,13357,1,0,0:0:0:0:
64,192,13544,1,4,0:0:0:0:
448,192,13732,1,0,0:0:0:0:
192,192,13732,1,0,0:0:0:0:
320,192,13919,1,0,0:0:0:0:
448,192,13919,1,4,0:0:0:0:
64,192,13919,1,0,0:0:0:0:
192,192,14107,1,2,2:0:0:0:
448,192,14294,1,4,0:0:0:0:
320,192,14294,1,0,0:0:0:0:
192,192,14482,1,0,0:0:0:0:
448,192,14482,1,0,0:0:0:0:
64,192,14482,128,4,14669:0:0:0:0:
320,192,14669,1,0,0:0:0:0:
448,192,14669,1,0,0:0:0:0:
192,192,14857,1,2,2:0:0:0:
64,192,15044,1,0,0:0:0:0:
320,192,15044,1,4,0:0:0:0:
192,192,15232,1,4,0:0:0:0:
448,192,15232,1,0,0:0:0:0:
320,192,15419,1,0,0:0:0:0:
192,192,15513,1,0,0:0:0:0:
64,192,15513,1,4,0:0:0:0:
448,192,15607,1,0,0:0:0:0:
320,192,15607,1,2,2:0:0:0:
64,192,15794,1,0,0:0:0:0:
448,192,15794,1,4,0:0:0:0:
320,192,15982,1,0,0:0:0:0:
64,192,15982,1,4,0:0:0:0:
448,192,16076,1,0,0:0:0:0:
192,192,16169,1,0,0:0:0:0:
64,192,16263,1,0,0:0:0:0:
320,192,16357,1,2,2:0:0:0:
448,192,16357,1,0,0:0:0:0:
192,192,16451,1,0,0:0:0:0:
448,192,16544,1,4,0:0:0:0:
64,192,16544,1,0,0:0:0:0:
320,192,16638,1,0,0:0:0:0:
192,192,16732,1,0,0:0:0:0:
448,192,16826,1,0,0:0:0:0:
64,192,16919,1,4,0:0:0:0:
320,192,16919,1,0,0:0:0:0:
192,192,17013,1,0,0:0:0:0:
448,192,17107,1,2,2:0:0:0:
320,192,17107,1,0,0:0:0:0:
64,192,17201,1,0,0:0:0:0:
192,192,17294,1,0,0:0:0:0:
448,192,17388,1,0,0:0:0:0:
320,192,17482,1,4,0:0:0:0:
64,192,17482,1,2,0:0:0:0:
192,192,17482,1,0,0:0:0:0:
320,192,17669,1,0,0:0:0:0:
448,192,17857,1,2,2:0:0:0:
64,192,17857,1,0,0:0:0:0:
64,192,18044,1,4,0:0:0:0:
320,192,18044,1,0,0:0:0:0:
192,192,18232,1,0,0:0:0:0:
448,192,18232,1,4,0:0:0:0:
192,192,18513,1,4,0:0:0:0:
448,192,18513,1,0,0:0:0:0:
192,192,18794,1,0,0:0:0:0:
448,192,18794,1,4,0:0:0:0:
320,192,18982,1,4,0:0:0:0:
64,192,18982,1,0,0:0:0:0:
448,192,19263,1,4,0:0:0:0:
192,192,19357,1,2,2:0:0:0:
64,192,19357,1,0,0:0:0:0:
320,192,19544,1,0,0:0:0:0:
448,192,19544,1,4,0:0:0:0:
64,192,19732,1,0,0:0:0:0:
320,192,19732,1,4,0:0:0:0:
192,192,19732,1,0,0:0:0:0:
64,192,20013,1,4,0:0:0:0:
448,192,20013,1,0,0:0:0:0:
192,192,20013,1,0,0:0:0:0:
64,192,20294,1,0,0:0:0:0:
448,192,20294,1,4,0:0:0:0:
320,192,20294,1,0,0:0:0:0:
64,192,20482,1,0,0:0:0:0:
192,192,20482,1,4,0:0:0:0:
448,192,20576,1,4,0:0:0:0:
320,192,20669,1,4,0:0:0:0:
64,192,20763,1,0,0:0:0:0:
192,192,20763,1,4,0:0:0:0:
320,192,20857,1,0,0:0:0:0:
448,192,20857,1,4,0:0:0:0:
64,192,20951,1,4,0:0:0:0:
192,192,21044,1,4,0:0:0:0:
448,192,21044,1,0,0:0:0:0:
320,192,21138,1,4,0:0:0:0:
64,192,21232,1,0,0:0:0:0:
192,192,21232,1,0,0:0:0:0:
448,192,21232,1,4,0:0:0:0:
320,192,21513,1,0,0:0:0:0:
64,192,21513,1,4,0:0:0:0:
448,192,21513,1,0,0:0:0:0:
448,192,21794,1,0,0:0:0:0:
192,192,21794,1,4,0:0:0:0:
64,192,21794,1,0,0:0:0:0:
64,192,21982,1,4,0:0:0:0:
448,192,21982,128,2,22169:0:0:0:0:
320,192,21982,1,0,0:0:0:0:
64,192,22169,1,0,0:0:0:0:
448,192,22263,1,0,0:0:0:0:
192,192,22357,1,0,0:0:0:0:
320,192,22357,1,8,0:0:0:0:
64,192,22544,1,0,0:0:0:0:
192,192,22544,1,0,0:0:0:0:
448,192,22732,1,4,0:0:0:0:
320,192,22732,1,0,0:0:0:0:
192,192,22919,1,0,0:0:0:0:
320,192,22919,1,0,0:0:0:0:
64,192,23107,1,0,0:0:0:0:
448,192,23107,1,8,0:0:0:0:
192,192,23294,1,0,0:0:0:0:
320,192,23294,1,0,0:0:0:0:
192,192,23482,1,4,0:0:0:0:
64,192,23482,128,0,23669:0:0:0:0:
448,192,23482,1,0,0:0:0:0:
448,192,23669,1,0,0:0:0:0:
64,192,23763,1,0,0:0:0:0:
320,192,23857,1,0,0:0:0:0:
192,192,23857,1,8,0:0:0:0:
448,192,24044,1,0,0:0:0:0:
320,192,24044,1,0,0:0:0:0:
64,192,24232,1,4,0:0:0:0:
192,192,24232,1,0,0:0:0:0:
320,192,24419,1,0,0:0:0:0:
192,192,24419,1,0,0:0:0:0:
448,192,24607,1,8,0:0:0:0:
64,192,24607,1,0,0:0:0:0:
192,192,24794,1,0,0:0:0:0:
320,192,24794,1,0,0:0:0:0:
64,192,24982,1,0,0:0:0:0:
448,192,24982,128,0,25169:0:0:0:70:cymbol 2.wav
320,192,24982,1,4,0:0:0:0:
64,192,25169,1,0,0:0:0:0:
448,192,25263,1,0,0:0:0:0:
192,192,25357,1,8,0:0:0:0:
320,192,25357,1,0,0:0:0:0:
64,192,25544,1,0,0:0:0:0:
192,192,25544,1,0,0:0:0:0:
448,192,25732,1,0,0:0:0:0:
320,192,25732,1,4,0:0:0:0:
64,192,25919,1,0,0:0:0:0:
192,192,25919,1,0,0:0:0:0:
192,192,26107,1,8,0:0:0:0:
320,192,26107,1,0,0:0:0:0:
448,192,26294,1,0,0:0:0:0:
320,192,26294,1,0,0:0:0:0:
192,192,26482,1,4,0:0:0:0:
64,192,26482,1,0,0:0:0:0:
320,192,26576,1,0,0:0:0:0:
448,192,26669,1,0,0:0:0:0:
192,192,26763,1,0,0:0:0:0:
448,192,26857,1,8,0:0:0:0:
64,192,26857,1,0,0:0:0:0:
320,192,26951,1,0,0:0:0:0:
64,192,27044,1,0,0:0:0:0:
192,192,27138,1,0,0:0:0:0:
320,192,27232,1,4,0:0:0:0:
448,192,27232,1,0,0:0:0:0:
64,192,27326,1,0,0:0:0:0:
192,192,27419,1,0,0:0:0:0:
448,192,27513,1,0,0:0:0:0:
64,192,27607,1,8,0:0:0:0:
320,192,27607,1,0,0:0:0:0:
192,192,27701,1,0,0:0:0:0:
448,192,27794,1,0,0:0:0:0:
320,192,27888,1,0,0:0:0:0:
64,192,27982,128,2,28169:0:0:0:0:
448,192,27982,1,4,0:0:0:0:
192,192,27982,1,0,0:0:0:0:
320,192,28169,1,0,0:0:0:0:
64,192,28263,1,0,0:0:0:0:
448,192,28357,1,0,0:0:0:0:
320,192,28357,1,8,0:0:0:0:
192,192,28544,1,0,0:0:0:0:
64,192,28544,1,0,0:0:0:0:
320,192,28732,1,4,0:0:0:0:
448,192,28732,1,0,0:0:0:0:
320,192,28919,1,0,0:0:0:0:
192,192,28919,1,0,0:0:0:0:
448,192,29107,1,8,0:0:0:0:
64,192,29107,1,0,0:0:0:0:
192,192,29294,1,0,0:0:0:0:
320,192,29294,1,0,0:0:0:0:
320,192,29482,1,4,0:0:0:0:
448,192,29482,128,0,29669:0:0:0:0:
64,192,29482,1,0,0:0:0:0:
192,192,29669,1,0,0:0:0:0:
448,192,29763,1,0,0:0:0:0:
192,192,29857,1,0,0:0:0:0:
64,192,29857,1,8,0:0:0:0:
320,192,30044,1,0,0:0:0:0:
448,192,30044,1,0,0:0:0:0:
192,192,30232,1,4,0:0:0:0:
64,192,30232,1,0,0:0:0:0:
192,192,30419,1,0,0:0:0:0:
320,192,30419,1,0,0:0:0:0:
448,192,30607,1,8,0:0:0:0:
64,192,30607,1,0,0:0:0:0:
320,192,30794,1,0,0:0:0:0:
192,192,30794,1,0,0:0:0:0:
192,192,30982,1,0,0:0:0:30:synth5.wav
448,192,30982,128,0,31169:0:0:0:70:cymbol 2.wav
64,192,30982,1,4,0:0:0:0:
320,192,31169,1,0,0:0:0:0:
192,192,31357,128,8,31544:0:0:0:0:
64,192,31357,1,0,0:0:0:0:
448,192,31357,1,0,0:0:0:30:synth5.wav
320,192,31544,1,0,0:0:0:0:
192,192,31638,1,0,0:0:0:40:Short synth1.wav
320,192,31732,1,4,0:0:0:0:
448,192,31732,1,0,0:0:0:0:
64,192,31919,128,0,32107:0:0:0:30:synth2.wav
192,192,31919,1,0,0:0:0:0:
448,192,32107,1,0,0:0:0:0:
320,192,32107,1,8,0:0:0:0:
448,192,32294,128,0,32482:0:0:0:25:synth3.wav
192,192,32294,1,0,0:0:0:0:
320,192,32482,1,0,0:0:0:0:
64,192,32482,1,4,0:0:0:0:
448,192,32669,128,0,32857:0:0:0:25:synth3.wav
192,192,32669,1,0,0:0:0:0:
320,192,32857,1,0,0:0:0:0:
64,192,32857,1,8,0:0:0:0:
192,192,32951,1,0,0:0:0:40:Short synth4.wav
448,192,33044,1,0,0:0:0:0:
320,192,33044,1,0,0:0:0:25:Short synth4.wav
64,192,33232,1,2,0:0:0:0:
192,192,33232,128,0,33419:0:0:0:30:synth5.wav
448,192,33232,1,4,0:0:0:0:
320,192,33419,1,0,0:0:0:0:
192,192,33607,128,0,33794:0:0:0:30:synth5.wav
64,192,33607,1,0,0:0:0:70:cymbol 2.wav
448,192,33607,1,8,0:0:0:0:
320,192,33794,1,0,0:0:0:0:
192,192,33982,1,0,0:0:0:0:
64,192,33982,1,4,0:0:0:0:
448,192,33982,128,2,34169:0:0:0:0:
64,192,34169,1,0,0:0:0:0:
448,192,34357,1,4,0:0:0:0:
320,192,34357,1,8,0:0:0:0:
192,192,34357,1,0,0:0:0:0:
64,192,34544,1,0,0:0:0:0:
192,192,34732,1,4,0:0:0:0:
448,192,34732,1,0,0:0:0:0:
320,192,34919,1,0,0:0:0:0:
64,192,35107,1,8,0:0:0:0:
320,192,35107,1,4,0:0:0:0:
448,192,35107,1,0,0:0:0:0:
192,192,35294,1,0,0:0:0:0:
320,192,35482,1,0,0:0:0:0:
448,192,35482,1,4,0:0:0:0:
64,192,35482,128,0,35669:0:0:0:0:
448,192,35669,1,0,0:0:0:0:
192,192,35857,1,8,0:0:0:0:
320,192,35857,1,4,0:0:0:0:
64,192,35857,1,0,0:0:0:0:
448,192,36044,1,0,0:0:0:0:
320,192,36232,1,0,0:0:0:0:
64,192,36232,1,4,0:0:0:0:
192,192,36419,1,0,0:0:0:0:
448,192,36607,1,4,0:0:0:0:
192,192,36607,1,8,0:0:0:0:
64,192,36607,1,0,0:0:0:0:
320,192,36794,1,0,0:0:0:0:
192,192,36982,1,0,0:0:0:70:cymbol 2.wav
64,192,36982,1,0,0:0:0:0:
448,192,36982,128,4,37169:0:0:0:0:
192,192,37169,1,0,0:0:0:0:
64,192,37357,1,8,0:0:0:0:
448,192,37357,1,0,0:0:0:0:
320,192,37357,1,4,0:0:0:0:
192,192,37544,1,0,0:0:0:0:
448,192,37732,1,4,0:0:0:0:
64,192,37732,1,0,0:0:0:0:
320,192,37919,1,0,0:0:0:0:
448,192,38107,1,0,0:0:0:0:
320,192,38107,1,4,0:0:0:0:
64,192,38107,1,8,0:0:0:0:
192,192,38294,1,0,0:0:0:0:
64,192,38482,1,0,0:0:0:0:
320,192,38482,1,4,0:0:0:0:
448,192,38482,1,0,0:0:0:0:
192,192,38669,1,0,0:0:0:0:
448,192,38669,1,0,0:0:0:0:
64,192,38857,1,4,0:0:0:0:
320,192,38857,1,8,0:0:0:0:
192,192,39044,1,0,0:0:0:0:
448,192,39044,1,0,0:0:0:0:
320,192,39232,1,0,0:0:0:0:
448,192,39232,1,4,0:0:0:0:
64,192,39232,1,0,0:0:0:0:
192,192,39419,1,0,0:0:0:0:
320,192,39419,1,0,0:0:0:0:
64,192,39607,1,4,0:0:0:0:
448,192,39607,1,8,0:0:0:0:
192,192,39794,1,0,0:0:0:0:
320,192,39794,1,4,0:0:0:0:
448,192,39982,1,2,0:0:0:0:
192,192,39982,1,4,0:0:0:0:
64,192,39982,128,0,40169:0:0:0:0:
448,192,40169,1,0,0:0:0:0:
320,192,40357,1,8,0:0:0:0:
448,192,40357,1,0,0:0:0:0:
64,192,40357,1,4,0:0:0:0:
192,192,40544,1,0,0:0:0:0:
64,192,40732,1,0,0:0:0:0:
320,192,40732,1,4,0:0:0:0:
448,192,40919,1,0,0:0:0:0:
192,192,41107,1,4,0:0:0:0:
64,192,41107,1,0,0:0:0:0:
448,192,41107,1,8,0:0:0:0:
320,192,41294,1,0,0:0:0:0:
64,192,41482,1,0,0:0:0:0:
192,192,41482,1,4,0:0:0:0:
448,192,41482,128,0,41669:0:0:0:0:
192,192,41669,1,0,0:0:0:0:
192,192,41857,1,4,0:0:0:0:
320,192,41857,1,0,0:0:0:0:
448,192,41857,1,8,0:0:0:0:
64,192,42044,1,0,0:0:0:0:
192,192,42232,1,4,0:0:0:0:
448,192,42232,1,0,0:0:0:0:
320,192,42419,1,0,0:0:0:0:
320,192,42607,1,8,0:0:0:0:
64,192,42607,1,4,0:0:0:0:
448,192,42607,1,0,0:0:0:0:
192,192,42794,1,0,0:0:0:0:
448,192,42982,1,4,0:0:0:0:
320,192,42982,1,0,0:0:0:0:
64,192,42982,128,0,43169:0:0:0:70:cymbol 2.wav
320,192,43169,1,0,0:0:0:0:
64,192,43357,1,0,0:0:0:0:
192,192,43357,1,4,0:0:0:0:
320,192,43357,1,8,0:0:0:0:
448,192,43544,1,0,0:0:0:0:
320,192,43732,1,0,0:0:0:0:
64,192,43732,1,4,0:0:0:0:
192,192,43919,1,0,0:0:0:0:
64,192,44107,1,4,0:0:0:0:
448,192,44107,1,8,0:0:0:0:
320,192,44107,1,0,0:0:0:0:
320,192,44294,128,0,44482:0:0:0:25:synth3.wav
64,192,44294,1,0,0:0:0:0:
448,192,44482,1,0,0:0:0:0:
192,192,44482,1,4,0:0:0:0:
64,192,44669,128,0,44857:0:0:0:25:synth3.wav
320,192,44669,1,0,0:0:0:0:
448,192,44857,1,8,0:0:0:0:
320,192,44857,1,4,0:0:0:0:
192,192,44951,1,0,0:0:0:40:Short synth4.wav
64,192,45044,1,0,0:0:0:25:Short synth4.wav
448,192,45044,1,0,0:0:0:0:
448,192,45232,128,2,45419:0:0:0:0:
192,192,45232,1,4,0:0:0:0:
320,192,45232,128,0,45419:0:0:0:30:synth5.wav
64,192,45419,1,0,0:0:0:0:
192,192,45607,1,0,0:0:0:70:cymbol 2.wav
320,192,45607,128,4,45794:0:0:0:0:
448,192,45607,128,0,45794:0:0:0:30:synth5.wav
64,192,45794,1,0,0:0:0:0:
64,192,45982,1,0,0:0:0:0:
192,192,45982,1,2,0:0:0:0:
448,192,45982,1,4,0:0:0:0:
320,192,46169,1,0,0:0:0:0:
64,192,46357,1,4,0:0:0:0:
192,192,46357,1,0,0:0:0:0:
448,192,46357,1,0,0:0:0:0:
320,192,46544,1,0,0:0:0:0:
320,192,46638,1,0,0:0:0:0:
64,192,46732,1,0,0:0:0:0:
448,192,46732,1,4,0:0:0:0:
192,192,46919,1,0,0:0:0:0:
320,192,46919,1,0,0:0:0:0:
64,192,47107,1,4,0:0:0:0:
448,192,47107,1,0,0:0:0:0:
320,192,47294,1,0,0:0:0:0:
192,192,47294,1,0,0:0:0:0:
192,192,47388,1,0,0:0:0:0:
320,192,47482,1,4,0:0:0:0:
448,192,47482,1,0,0:0:0:0:
64,192,47669,1,0,0:0:0:0:
192,192,47857,1,0,0:0:0:0:
448,192,47857,1,4,0:0:0:0:
320,192,48044,1,0,0:0:0:0:
64,192,48232,1,0,0:0:0:0:
448,192,48232,1,0,0:0:0:0:
192,192,48232,1,4,0:0:0:0:
320,192,48419,1,0,0:0:0:0:
64,192,48607,1,0,0:0:0:0:
192,192,48607,1,0,0:0:0:0:
320,192,48607,1,4,0:0:0:0:
64,192,48794,1,4,0:0:0:0:
448,192,48794,1,0,0:0:0:0:
64,192,48888,1,0,0:0:0:0:
320,192,48982,1,0,0:0:0:0:
448,192,48982,1,4,0:0:0:0:
192,192,48982,1,2,0:0:0:0:
64,192,49169,1,0,0:0:0:0:
192,192,49357,1,0,0:0:0:0:
320,192,49357,1,4,0:0:0:0:
448,192,49357,1,0,0:0:0:0:
64,192,49544,1,0,0:0:0:0:
320,192,49732,1,4,0:0:0:0:
448,192,49732,1,0,0:0:0:0:
448,192,49826,1,0,0:0:0:0:
192,192,49919,1,0,0:0:0:0:
64,192,49919,1,0,0:0:0:0:
320,192,50107,1,0,0:0:0:0:
448,192,50107,1,4,0:0:0:0:
192,192,50294,1,0,0:0:0:0:
192,192,50388,1,0,0:0:0:0:
64,192,50482,1,4,0:0:0:0:
448,192,50482,1,0,0:0:0:0:
448,192,50669,1,4,0:0:0:0:
192,192,50669,1,0,0:0:0:0:
320,192,50857,1,0,0:0:0:0:
64,192,51044,1,0,0:0:0:0:
192,192,51044,1,4,0:0:0:0:
64,192,51232,1,4,0:0:0:0:
320,192,51232,1,0,0:0:0:0:
448,192,51232,1,0,0:0:0:0:
448,192,51419,1,4,0:0:0:0:
192,192,51419,1,0,0:0:0:0:
320,192,51607,1,0,0:0:0:0:
64,192,51794,1,4,0:0:0:0:
448,192,51794,1,0,0:0:0:0:
448,192,51982,1,4,0:0:0:0:
192,192,51982,1,0,0:0:0:70:cymbol 2.wav
320,192,52076,1,0,0:0:0:0:
64,192,52169,1,0,0:0:0:0:
320,192,52263,1,0,0:0:0:0:
64,192,52357,1,4,0:0:0:0:
448,192,52357,1,8,0:0:0:0:
192,192,52357,1,0,0:0:0:0:
64,192,52544,1,0,0:0:0:0:
320,192,52544,1,0,0:0:0:0:
192,192,52732,1,4,0:0:0:0:
448,192,52732,1,0,0:0:0:0:
448,192,52826,1,0,0:0:0:0:
320,192,52919,1,0,0:0:0:0:
64,192,52919,1,0,0:0:0:0:
192,192,53107,1,8,0:0:0:0:
448,192,53107,1,0,0:0:0:0:
64,192,53107,1,4,0:0:0:0:
192,192,53294,1,0,0:0:0:0:
320,192,53294,1,0,0:0:0:0:
448,192,53482,1,4,0:0:0:0:
64,192,53482,1,0,0:0:0:0:
320,192,53576,1,0,0:0:0:0:
192,192,53669,1,0,0:0:0:0:
448,192,53669,1,0,0:0:0:0:
64,192,53857,1,4,0:0:0:0:
320,192,53857,1,8,0:0:0:0:
192,192,53857,1,0,0:0:0:0:
64,192,54044,1,0,0:0:0:0:
448,192,54044,1,0,0:0:0:0:
192,192,54138,1,0,0:0:0:0:
448,192,54232,1,4,0:0:0:0:
320,192,54232,1,0,0:0:0:0:
64,192,54419,1,0,0:0:0:0:
320,192,54419,1,0,0:0:0:0:
192,192,54513,1,0,0:0:0:0:
320,192,54607,1,8,0:0:0:0:
448,192,54607,1,0,0:0:0:0:
64,192,54607,1,4,0:0:0:0:
192,192,54794,1,0,0:0:0:0:
448,192,54794,1,0,0:0:0:0:
192,192,54888,1,0,0:0:0:0:
448,192,54982,1,4,0:0:0:0:
64,192,54982,1,2,0:0:0:0:
320,192,54982,1,0,0:0:0:0:
448,192,55169,1,0,0:0:0:0:
192,192,55169,1,0,0:0:0:0:
320,192,55263,1,0,0:0:0:0:
192,192,55357,1,8,0:0:0:0:
64,192,55357,1,4,0:0:0:0:
448,192,55451,1,0,0:0:0:0:
320,192,55544,1,0,0:0:0:0:
64,192,55544,1,0,0:0:0:0:
192,192,55638,1,0,0:0:0:0:
320,192,55732,1,4,0:0:0:0:
448,192,55732,1,0,0:0:0:0:
64,192,55826,1,0,0:0:0:0:
192,192,55919,1,0,0:0:0:0:
448,192,55919,1,0,0:0:0:0:
320,192,56013,1,0,0:0:0:0:
64,192,56107,1,4,0:0:0:0:
192,192,56107,1,8,0:0:0:0:
320,192,56201,1,0,0:0:0:0:
64,192,56294,1,0,0:0:0:0:
448,192,56294,1,0,0:0:0:0:
320,192,56388,128,0,56482:0:0:0:0:
64,192,56482,1,8,0:0:0:0:
192,192,56482,1,4,0:0:0:0:
448,192,56669,1,0,0:0:0:0:
192,192,56857,1,0,0:0:0:0:
192,192,57044,1,0,0:0:0:0:
64,192,57232,1,4,0:0:0:0:
320,192,57232,1,0,0:0:0:0:
448,192,57232,1,0,0:0:0:0:
448,192,57513,1,0,0:0:0:0:
64,192,57513,1,4,0:0:0:0:
320,192,57513,1,0,0:0:0:0:
448,192,57794,1,4,0:0:0:0:
64,192,57794,1,0,0:0:0:0:
320,192,57794,1,0,0:0:0:0:
192,192,57982,1,4,3:0:0:0:
448,192,57982,128,0,59294:0:0:0:0:
64,192,57982,1,0,0:0:0:0:
320,192,58076,1,0,0:0:0:0:
192,192,58263,1,0,0:0:0:0:
320,192,58451,1,0,0:0:0:0:
192,192,58544,1,4,3:0:0:0:
320,192,58732,1,8,0:0:0:0:
64,192,58732,1,0,0:0:0:0:
192,192,58919,1,0,0:0:0:0:
320,192,59013,1,0,0:0:0:0:
192,192,59201,1,0,0:0:0:0:
320,192,59294,1,4,3:0:0:0:
448,192,59482,1,0,0:0:0:0:
64,192,59482,1,4,3:0:0:0:
192,192,59576,1,0,0:0:0:0:
448,192,59763,1,0,0:0:0:0:
64,192,59857,1,0,0:0:0:0:
192,192,59857,1,0,0:0:0:0:
320,192,60044,1,4,3:0:0:0:
448,192,60044,1,0,0:0:0:0:
64,192,60232,1,0,0:0:0:0:
192,192,60232,1,0,0:0:0:0:
448,192,60232,1,8,0:0:0:0:
320,192,60326,1,0,0:0:0:0:
192,192,60419,1,0,0:0:0:0:
448,192,60419,1,4,3:0:0:0:
64,192,60607,1,0,0:0:0:0:
320,192,60607,1,0,0:0:0:0:
320,192,60794,1,4,3:0:0:0:
64,192,60982,128,0,62294:0:0:0:0:
192,192,60982,1,4,3:0:0:0:
320,192,60982,1,0,0:0:0:0:
448,192,61076,1,0,0:0:0:0:
192,192,61263,1,0,0:0:0:0:
448,192,61451,1,0,0:0:0:0:
192,192,61544,1,4,3:0:0:0:
448,192,61732,1,0,0:0:0:0:
320,192,61732,1,8,0:0:0:0:
192,192,61919,1,0,0:0:0:0:
448,192,62013,1,0,0:0:0:0:
192,192,62201,1,0,0:0:0:0:
448,192,62294,1,4,3:0:0:0:
192,192,62482,1,4,3:0:0:0:
320,192,62482,128,0,62669:0:0:0:0:
448,192,62669,128,0,63044:0:0:0:0:
192,192,62857,1,4,3:0:0:0:
192,192,63044,128,0,63232:0:0:0:0:
64,192,63232,1,8,0:0:0:0:
448,192,63232,1,0,0:0:0:0:
320,192,63419,1,0,0:0:0:0:
192,192,63607,1,8,0:0:0:0:
64,192,63607,1,0,0:0:0:0:
448,192,63794,1,0,0:0:0:0:
320,192,63794,1,8,0:0:0:0:
448,192,63888,1,8,0:0:0:0:
320,192,63982,1,2,3:0:0:0:
192,192,63982,1,4,3:0:0:0:
64,192,63982,1,0,0:0:0:0:
192,192,64169,1,0,0:0:0:0:
448,192,64263,1,4,3:0:0:0:
192,192,64263,1,0,0:0:0:0:
64,192,64357,1,8,0:0:0:0:
448,192,64451,1,0,0:0:0:0:
320,192,64451,1,0,0:0:0:0:
192,192,64544,1,4,3:0:0:0:
320,192,64638,1,0,0:0:0:0:
320,192,64732,1,4,2:0:0:0:
64,192,64732,1,0,0:0:0:0:
192,192,64919,1,4,3:0:0:0:
448,192,64919,1,0,0:0:0:0:
320,192,65013,1,0,0:0:0:0:
192,192,65107,1,0,0:0:0:0:
64,192,65107,1,8,0:0:0:0:
64,192,65201,1,0,0:0:0:0:
448,192,65294,1,4,3:0:0:0:
192,192,65388,1,0,0:0:0:0:
320,192,65482,1,0,3:0:0:0:
448,192,65482,1,0,0:0:0:0:
192,192,65482,1,4,3:0:0:0:
320,192,65669,1,0,0:0:0:0:
64,192,65669,1,0,0:0:0:0:
320,192,65763,1,4,3:0:0:0:
192,192,65857,1,8,0:0:0:0:
448,192,65951,1,0,0:0:0:0:
320,192,65951,1,0,0:0:0:0:
64,192,66044,1,4,3:0:0:0:
192,192,66138,1,0,0:0:0:0:
320,192,66232,1,0,0:0:0:0:
448,192,66232,128,0,66326:0:0:0:100:LR3_FX_ResetBTN.wav
64,192,66326,128,0,66419:0:0:0:0:
192,192,66326,1,0,0:0:0:0:
320,192,66419,1,4,3:0:0:0:
448,192,66419,1,0,0:0:0:0:
64,192,66513,1,0,0:0:0:0:
448,192,66607,1,8,0:0:0:0:
192,192,66607,1,0,0:0:0:0:
448,192,66701,1,0,0:0:0:0:
192,192,66794,1,4,3:0:0:0:
64,192,66794,1,0,0:0:0:0:
320,192,66888,1,0,0:0:0:0:
64,192,66982,1,0,0:0:0:70:cymbol 2.wav
448,192,66982,1,0,0:0:0:0:
320,192,66982,1,4,3:0:0:0:
192,192,67169,1,0,0:0:0:0:
192,192,67263,1,4,3:0:0:0:
448,192,67263,1,0,0:0:0:0:
64,192,67357,1,0,0:0:0:0:
448,192,67451,1,0,0:0:0:0:
320,192,67451,1,0,0:0:0:0:
192,192,67544,1,4,3:0:0:0:
320,192,67638,1,0,0:0:0:0:
320,192,67732,1,8,0:0:0:0:
64,192,67732,1,0,0:0:0:0:
64,192,67919,1,0,0:0:0:0:
448,192,67919,1,4,3:0:0:0:
192,192,67919,1,0,0:0:0:0:
320,192,68107,1,4,3:0:0:0:
192,192,68107,1,0,0:0:0:0:
448,192,68201,1,0,0:0:0:0:
64,192,68201,1,4,3:0:0:0:
320,192,68294,1,4,3:0:0:0:
192,192,68388,1,4,3:0:0:0:
64,192,68388,1,0,0:0:0:0:
448,192,68482,1,4,0:0:0:0:
320,192,68482,1,0,0:0:0:0:
192,192,68576,1,0,0:0:0:0:
448,192,68669,1,0,0:0:0:0:
192,192,68763,1,0,3:0:0:0:
64,192,68763,1,4,3:0:0:0:
320,192,68857,1,0,0:0:0:0:
64,192,68951,1,0,0:0:0:0:
192,192,69044,1,0,0:0:0:0:
320,192,69044,1,4,3:0:0:0:
448,192,69044,1,0,0:0:0:0:
64,192,69232,1,0,0:0:0:0:
192,192,69232,1,8,2:0:0:0:
448,192,69232,1,0,0:0:0:0:
64,192,69419,1,0,0:0:0:0:
320,192,69513,1,0,0:0:0:0:
192,192,69513,1,0,0:0:0:0:
448,192,69513,1,4,3:0:0:0:
64,192,69794,1,0,0:0:0:0:
448,192,69794,1,0,0:0:0:0:
320,192,69794,1,4,3:0:0:0:
64,192,69982,1,4,0:0:0:0:
448,192,69982,1,0,0:0:0:0:
192,192,69982,1,0,0:0:0:0:
320,192,70169,1,0,0:0:0:0:
448,192,70169,1,0,0:0:0:0:
192,192,70263,1,4,3:0:0:0:
64,192,70263,1,0,0:0:0:0:
448,192,70357,1,0,0:0:0:0:
192,192,70544,1,0,0:0:0:0:
320,192,70544,1,4,3:0:0:0:
64,192,70732,1,8,2:0:0:0:
448,192,70732,1,0,0:0:0:0:
192,192,70732,1,0,0:0:0:0:
64,192,70919,1,0,0:0:0:0:
448,192,70919,1,4,0:0:0:0:
192,192,71013,1,4,0:0:0:0:
448,192,71013,1,0,0:0:0:0:
320,192,71201,1,4,0:0:0:0:
192,192,71201,1,0,0:0:0:0:
448,192,71294,1,0,0:0:0:0:
64,192,71294,1,8,2:0:0:0:
320,192,71482,1,0,0:0:0:70:click.wav
448,192,71482,128,0,73732:0:0:0:0:
64,192,71482,128,0,73732:0:0:0:0:
192,192,72232,1,0,0:0:0:70:Clock.wav
320,192,72982,1,0,0:0:0:70:click.wav
192,192,73732,1,0,0:0:0:70:Clock.wav
192,192,74482,1,0,0:0:0:35:piano# (1).wav
448,192,74482,128,0,74669:0:0:0:15:A piano.wav
320,192,74669,128,0,74857:0:0:0:15:B piano.wav
64,192,74669,1,0,0:0:0:35:piano# (2).wav
64,192,74857,1,0,0:0:0:35:piano# (3).wav
192,192,74857,128,0,75044:0:0:0:15:C piano.wav
448,192,75044,128,0,75232:0:0:0:15:A piano.wav
320,192,75044,1,0,0:0:0:35:piano# (4).wav
320,192,75232,128,0,75419:0:0:0:15:B piano.wav
192,192,75232,1,0,0:0:0:35:piano# (5).wav
192,192,75419,128,0,75607:0:0:0:15:C piano.wav
64,192,75419,1,0,0:0:0:35:piano# (6).wav
320,192,75607,1,0,0:0:0:35:piano# (7).wav
448,192,75607,128,0,75794:0:0:0:15:A piano.wav
320,192,75794,128,0,75982:0:0:0:15:B piano.wav
64,192,75794,1,0,0:0:0:35:piano# (8).wav
64,192,75982,1,0,0:0:0:35:piano# (9).wav
192,192,75982,128,0,76169:0:0:0:15:C piano.wav
448,192,76169,128,0,76357:0:0:0:15:A piano.wav
320,192,76169,1,0,0:0:0:35:piano# (10).wav
64,192,76357,128,0,76544:0:0:0:15:B piano.wav
192,192,76357,1,0,0:0:0:35:piano# (11).wav
192,192,76544,128,0,76732:0:0:0:15:C piano.wav
448,192,76544,1,0,0:0:0:35:piano# (12).wav
320,192,76732,1,0,0:0:0:35:piano# (13).wav
448,192,76732,128,0,76919:0:0:0:15:A piano.wav
320,192,76919,128,0,77107:0:0:0:15:B piano.wav
192,192,76919,1,0,0:0:0:35:piano# (14).wav
64,192,77107,1,0,0:0:0:35:piano# (15).wav
192,192,77107,128,0,77294:0:0:0:15:C piano.wav
448,192,77294,128,0,77482:0:0:0:15:A piano.wav
320,192,77294,1,0,0:0:0:35:piano# (16).wav
64,192,77482,1,0,0:0:0:70:click.wav
192,192,77482,1,0,0:0:0:35:piano# (17).wav
320,192,77669,1,0,0:0:0:35:piano# (18).wav
448,192,77857,1,0,0:0:0:35:piano# (19).wav
64,192,78044,1,0,0:0:0:35:piano# (20).wav
448,192,78232,1,0,0:0:0:35:piano# (21).wav
192,192,78232,1,0,0:0:0:70:Clock.wav
64,192,78513,1,0,0:0:0:35:piano# (22).wav
320,192,78513,1,0,0:0:0:0:
448,192,78794,1,0,0:0:0:35:piano# (23).wav
320,192,78794,1,0,0:0:0:0:
64,192,78982,1,0,0:0:0:35:piano# (24).wav
192,192,78982,1,0,0:0:0:70:click.wav
320,192,79169,1,0,0:0:0:35:piano# (25).wav
192,192,79357,1,0,0:0:0:35:piano# (26).wav
448,192,79544,1,0,0:0:0:35:piano# (27).wav
64,192,79732,1,0,0:0:0:35:piano# (28).wav
320,192,79732,1,0,0:0:0:70:Clock.wav
192,192,79919,1,0,0:0:0:35:piano# (29).wav
448,192,80107,1,0,0:0:0:35:piano# (30).wav
192,192,80294,1,0,0:0:0:35:piano# (31).wav
320,192,80482,1,0,0:0:0:35:piano# (1).wav
64,192,80482,128,0,80669:0:0:0:15:A piano.wav
192,192,80669,128,0,80857:0:0:0:15:B piano.wav
448,192,80669,1,0,0:0:0:35:piano# (2).wav
448,192,80857,1,0,0:0:0:35:piano# (3).wav
320,192,80857,128,0,81044:0:0:0:15:C piano.wav
64,192,81044,128,0,81232:0:0:0:15:A piano.wav
192,192,81044,1,0,0:0:0:35:piano# (4).wav
192,192,81232,128,0,81419:0:0:0:15:B piano.wav
320,192,81232,1,0,0:0:0:35:piano# (5).wav
320,192,81419,128,0,81607:0:0:0:15:C piano.wav
448,192,81419,1,0,0:0:0:35:piano# (6).wav
192,192,81607,1,0,0:0:0:35:piano# (7).wav
64,192,81607,128,0,81794:0:0:0:15:A piano.wav
192,192,81794,128,0,81982:0:0:0:15:B piano.wav
448,192,81794,1,0,0:0:0:35:piano# (8).wav
448,192,81982,1,0,0:0:0:35:piano# (9).wav
320,192,81982,128,0,82169:0:0:0:15:C piano.wav
64,192,82169,128,0,82357:0:0:0:15:A piano.wav
192,192,82169,1,0,0:0:0:35:piano# (10).wav
448,192,82357,128,0,82544:0:0:0:15:B piano.wav
320,192,82357,1,0,0:0:0:35:piano# (11).wav
320,192,82544,128,0,82732:0:0:0:15:C piano.wav
64,192,82544,1,0,0:0:0:35:piano# (12).wav
192,192,82732,1,0,0:0:0:35:piano# (13).wav
64,192,82732,128,0,82919:0:0:0:15:A piano.wav
192,192,82919,128,0,83107:0:0:0:15:B piano.wav
320,192,82919,1,0,0:0:0:35:piano# (14).wav
448,192,83107,1,0,0:0:0:35:piano# (15).wav
320,192,83107,128,0,83294:0:0:0:15:C piano.wav
64,192,83294,128,0,83482:0:0:0:15:A piano.wav
192,192,83294,1,0,0:0:0:35:piano# (16).wav
320,192,83482,1,0,0:0:0:70:click.wav
448,192,83482,1,0,0:0:0:35:piano# (17).wav
192,192,83669,1,0,0:0:0:35:piano# (18).wav
64,192,83857,1,0,0:0:0:35:piano# (19).wav
448,192,84044,1,0,0:0:0:35:piano# (20).wav
320,192,84232,1,0,0:0:0:70:Clock.wav
64,192,84232,1,0,0:0:0:35:piano# (21).wav
192,192,84513,1,0,0:0:0:0:
448,192,84513,1,0,0:0:0:35:piano# (22).wav
192,192,84794,1,0,0:0:0:0:
64,192,84794,1,0,0:0:0:35:piano# (23).wav
320,192,84982,1,0,0:0:0:70:click.wav
448,192,84982,1,0,0:0:0:35:piano# (24).wav
64,192,85169,1,0,0:0:0:35:piano# (25).wav
192,192,85357,1,0,0:0:0:35:piano# (26).wav
448,192,85544,1,0,0:0:0:35:piano# (27).wav
320,192,85732,1,0,0:0:0:70:Clock.wav
64,192,85732,1,0,0:0:0:35:piano# (28).wav
192,192,85919,1,0,0:0:0:35:piano# (29).wav
448,192,86107,1,0,0:0:0:35:piano# (30).wav
192,192,86294,1,0,0:0:0:35:piano# (31).wav
320,192,86482,1,2,0:0:0:0:
64,192,86482,1,4,0:0:0:0:
448,192,86482,1,0,0:0:0:0:
192,192,86669,1,0,0:0:0:80:hithat.wav
64,192,86669,1,0,0:0:0:0:
320,192,86763,1,0,0:0:0:0:
192,192,86857,1,0,0:0:0:0:
320,192,87044,1,0,0:0:0:80:hithat.wav
448,192,87044,1,0,0:0:0:0:
192,192,87138,1,0,0:0:0:0:
320,192,87232,1,0,0:0:0:0:
192,192,87419,1,0,0:0:0:80:hithat.wav
64,192,87419,1,0,0:0:0:0:
320,192,87513,1,0,0:0:0:0:
192,192,87607,1,0,0:0:0:0:
320,192,87794,1,0,0:0:0:80:hithat.wav
448,192,87794,1,0,0:0:0:0:
192,192,87888,1,0,0:0:0:0:
448,192,87982,1,0,0:0:0:0:
192,192,88169,1,0,0:0:0:80:hithat.wav
64,192,88169,1,0,0:0:0:0:
320,192,88263,1,0,0:0:0:0:
64,192,88357,1,0,0:0:0:0:
320,192,88544,1,0,0:0:0:80:hithat.wav
448,192,88544,1,0,0:0:0:0:
192,192,88638,1,0,0:0:0:0:
448,192,88732,1,0,0:0:0:0:
192,192,88919,1,0,0:0:0:80:hithat.wav
64,192,88919,1,0,0:0:0:0:
320,192,89013,1,0,0:0:0:0:
64,192,89107,1,0,0:0:0:0:
448,192,89294,1,0,0:0:0:80:hithat.wav
192,192,89294,1,4,0:0:0:0:
64,192,89482,1,0,0:0:0:70:cymbol 2.wav
448,192,89482,128,4,90607:0:0:0:0:
320,192,89482,1,0,0:0:0:0:
192,192,89669,1,0,0:0:0:80:hithat.wav
320,192,89763,1,0,0:0:0:0:
64,192,89857,1,0,0:0:0:0:
320,192,90044,1,0,0:0:0:80:hithat.wav
192,192,90138,1,0,0:0:0:0:
320,192,90232,1,0,0:0:0:0:
64,192,90419,1,0,0:0:0:80:hithat.wav
320,192,90513,1,0,0:0:0:0:
192,192,90607,1,0,0:0:0:0:
448,192,90794,1,0,0:0:0:80:hithat.wav
64,192,90794,1,0,0:0:0:0:
192,192,90888,1,0,0:0:0:0:
320,192,90982,1,0,0:0:0:0:
448,192,90982,1,0,0:0:0:0:
64,192,91076,1,0,0:0:0:0:
192,192,91169,1,0,0:0:0:80:hithat.wav
448,192,91169,1,0,0:0:0:0:
320,192,91263,1,0,0:0:0:0:
64,192,91357,1,0,0:0:0:0:
192,192,91357,1,0,0:0:0:0:
448,192,91451,1,0,0:0:0:0:
320,192,91544,1,0,0:0:0:80:hithat.wav
64,192,91544,1,0,0:0:0:0:
192,192,91638,1,0,0:0:0:0:
448,192,91732,1,0,0:0:0:0:
64,192,91732,1,0,0:0:0:0:
320,192,91826,1,0,0:0:0:0:
192,192,91919,1,0,0:0:0:0:
64,192,91919,1,0,0:0:0:80:hithat.wav
448,192,92013,1,0,0:0:0:0:
64,192,92107,1,0,0:0:0:0:
320,192,92107,1,0,0:0:0:0:
192,192,92201,1,0,0:0:0:0:
320,192,92294,1,0,0:0:0:80:hithat.wav
448,192,92294,1,4,0:0:0:0:
192,192,92388,1,4,0:0:0:40:drum-hitfinish.wav
64,192,92388,1,0,0:0:0:0:
64,192,92482,1,4,0:0:0:0:
448,192,92482,1,0,0:0:0:0:
320,192,92482,1,2,0:0:0:0:
192,192,92576,1,0,0:0:0:0:
320,192,92669,1,0,0:0:0:0:
448,192,92669,1,0,0:0:0:80:hithat.wav
64,192,92763,1,0,0:0:0:0:
192,192,92857,1,0,0:0:0:0:
448,192,92857,1,0,0:0:0:0:
320,192,92951,1,0,0:0:0:0:
64,192,93044,1,0,0:0:0:0:
192,192,93044,1,0,0:0:0:80:hithat.wav
320,192,93138,1,0,0:0:0:0:
64,192,93232,1,0,0:0:0:0:
448,192,93232,1,4,0:0:0:0:
192,192,93326,1,0,0:0:0:0:
448,192,93419,1,0,0:0:0:0:
320,192,93419,1,0,0:0:0:80:hithat.wav
64,192,93513,1,0,0:0:0:0:
192,192,93607,1,0,0:0:0:0:
448,192,93607,1,0,0:0:0:0:
320,192,93701,1,0,0:0:0:0:
64,192,93794,1,0,0:0:0:0:
192,192,93794,1,0,0:0:0:80:hithat.wav
320,192,93888,1,0,0:0:0:0:
192,192,93982,1,4,0:0:0:70:cymbol 2.wav
448,192,93982,1,4,0:0:0:0:
64,192,93982,1,0,0:0:0:0:
320,192,94076,1,0,0:0:0:0:
192,192,94169,1,0,0:0:0:0:
64,192,94169,1,0,0:0:0:80:hithat.wav
448,192,94263,1,0,0:0:0:0:
64,192,94357,1,0,0:0:0:0:
320,192,94357,1,0,0:0:0:0:
192,192,94451,1,0,0:0:0:0:
320,192,94544,1,0,0:0:0:80:hithat.wav
448,192,94544,1,4,0:0:0:0:
192,192,94638,1,0,0:0:0:0:
448,192,94732,1,0,0:0:0:0:
64,192,94732,1,0,0:0:0:0:
320,192,94826,1,0,0:0:0:0:
64,192,94919,1,0,0:0:0:80:hithat.wav
192,192,94919,1,4,0:0:0:0:
448,192,95013,1,0,0:0:0:0:
320,192,95107,1,0,0:0:0:0:
64,192,95107,1,0,0:0:0:0:
192,192,95201,1,0,0:0:0:0:
320,192,95294,1,0,0:0:0:80:hithat.wav
448,192,95294,1,0,0:0:0:0:
192,192,95388,1,0,0:0:0:0:
320,192,95482,1,0,0:0:0:0:
448,192,95482,1,2,0:0:0:0:
64,192,95482,1,4,0:0:0:0:
192,192,95576,1,0,0:0:0:0:
448,192,95669,1,0,0:0:0:80:hithat.wav
320,192,95669,1,0,0:0:0:0:
64,192,95763,1,0,0:0:0:0:
448,192,95857,1,0,0:0:0:0:
192,192,95857,1,4,0:0:0:0:
320,192,95951,1,0,0:0:0:0:
64,192,96044,1,0,0:0:0:80:hithat.wav
192,192,96044,1,0,0:0:0:0:
320,192,96138,1,0,0:0:0:0:
448,192,96232,1,4,0:0:0:0:
64,192,96232,1,0,0:0:0:0:
192,192,96326,1,0,0:0:0:0:
448,192,96419,1,0,0:0:0:0:
320,192,96419,1,0,0:0:0:80:hithat.wav
64,192,96513,1,0,0:0:0:0:
192,192,96607,1,4,0:0:0:0:
448,192,96607,1,0,0:0:0:0:
320,192,96701,1,0,0:0:0:0:
448,192,96794,1,0,0:0:0:80:hithat.wav
64,192,96794,1,0,0:0:0:0:
192,192,96888,1,0,0:0:0:0:
320,192,96982,1,4,0:0:0:0:
448,192,96982,1,2,0:0:0:0:
64,192,97076,1,0,0:0:0:0:
192,192,97076,1,0,0:0:0:0:
448,192,97169,1,0,0:0:0:0:
320,192,97169,1,0,0:0:0:0:
64,192,97263,1,0,0:0:0:0:
192,192,97263,1,0,0:0:0:0:
448,192,97357,1,4,0:0:0:0:
320,192,97357,1,2,0:0:0:0:
64,192,97451,1,0,0:0:0:0:
192,192,97451,1,0,0:0:0:0:
448,192,97544,1,0,0:0:0:0:
320,192,97544,1,0,0:0:0:0:
192,192,97638,1,0,0:0:0:0:
64,192,97638,1,0,0:0:0:0:
320,192,97732,1,4,0:0:0:0:
448,192,97732,1,2,0:0:0:0:
64,192,97826,1,0,0:0:0:0:
192,192,97826,1,0,0:0:0:0:
320,192,97919,1,0,0:0:0:0:
448,192,97919,1,0,0:0:0:0:
192,192,98013,1,0,0:0:0:0:
64,192,98013,1,0,0:0:0:0:
320,192,98107,1,2,0:0:0:0:
448,192,98107,1,4,0:0:0:0:
192,192,98201,1,0,0:0:0:0:
64,192,98201,1,0,0:0:0:0:
448,192,98294,1,0,0:0:0:0:
320,192,98294,1,0,0:0:0:0:
192,192,98388,1,0,0:0:0:0:
64,192,98388,1,0,0:0:0:0:
320,192,98482,128,4,98857:0:0:0:0:
448,192,98482,1,2,0:0:0:0:
64,192,98482,1,0,0:0:0:0:
192,192,98669,1,0,0:0:0:0:
64,192,98857,1,4,0:0:0:0:
448,192,98857,1,8,0:0:0:0:
192,192,99044,1,0,0:0:0:0:
320,192,99044,1,0,0:0:0:0:
64,192,99044,1,0,0:0:0:0:
448,192,99232,1,4,0:0:0:0:
320,192,99419,128,0,99607:0:0:0:0:
64,192,99419,1,0,0:0:0:0:
64,192,99607,1,4,0:0:0:0:
192,192,99607,1,8,0:0:0:0:
192,192,99794,1,0,0:0:0:0:
448,192,99982,128,2,100357:0:0:0:0:
320,192,99982,1,4,0:0:0:0:
64,192,99982,1,0,0:0:0:0:
192,192,100169,1,0,0:0:0:0:
64,192,100357,1,4,0:0:0:0:
320,192,100357,1,8,0:0:0:0:
448,192,100544,1,0,0:0:0:0:
320,192,100544,1,0,0:0:0:0:
192,192,100544,1,0,0:0:0:0:
64,192,100732,1,4,0:0:0:0:
192,192,100919,1,0,0:0:0:0:
320,192,100919,128,0,101107:0:0:0:0:
64,192,101107,1,8,0:0:0:0:
448,192,101107,1,4,0:0:0:0:
192,192,101294,1,0,0:0:0:0:
64,192,101294,1,4,0:0:0:0:
320,192,101482,1,0,0:0:0:0:
448,192,101482,128,2,101857:0:0:0:0:
192,192,101482,1,4,0:0:0:0:
64,192,101669,1,0,0:0:0:0:
320,192,101857,1,8,0:0:0:0:
64,192,101857,1,4,0:0:0:0:
448,192,102044,1,0,0:0:0:0:
192,192,102044,1,0,0:0:0:0:
320,192,102044,1,0,0:0:0:0:
64,192,102232,1,4,0:0:0:0:
320,192,102419,128,0,102607:0:0:0:0:
192,192,102419,1,0,0:0:0:0:
448,192,102607,1,8,0:0:0:0:
64,192,102607,1,4,0:0:0:0:
320,192,102794,1,0,0:0:0:0:
192,192,102794,1,0,0:0:0:0:
448,192,102794,128,2,103169:0:0:0:0:
64,192,102982,1,4,0:0:0:0:
192,192,103169,1,0,0:0:0:0:
320,192,103169,1,0,0:0:0:0:
64,192,103357,1,0,0:0:0:0:
448,192,103357,1,8,0:0:0:0:
192,192,103357,1,4,0:0:0:0:
448,192,103544,1,0,0:0:0:0:
320,192,103544,128,0,103919:0:0:0:70:cymbol 2.wav
192,192,103732,1,0,0:0:0:0:
64,192,103732,1,4,0:0:0:0:
448,192,103919,1,0,0:0:0:0:
64,192,104107,1,8,0:0:0:0:
192,192,104107,1,4,0:0:0:0:
320,192,104107,128,0,104294:0:0:0:0:
448,192,104294,1,0,0:0:0:0:
64,192,104294,1,4,0:0:0:0:
448,192,104482,128,2,104857:0:0:0:0:
192,192,104482,1,4,0:0:0:0:
64,192,104669,1,0,0:0:0:0:
320,192,104763,1,0,0:0:0:0:
64,192,104857,1,4,0:0:0:0:
192,192,104857,1,8,0:0:0:0:
320,192,105044,1,0,0:0:0:0:
448,192,105044,1,0,0:0:0:0:
64,192,105138,1,0,0:0:0:0:
320,192,105232,1,4,0:0:0:0:
192,192,105232,1,0,0:0:0:0:
320,192,105419,128,0,105607:0:0:0:0:
64,192,105419,1,0,0:0:0:0:
448,192,105513,1,0,0:0:0:0:
64,192,105607,1,4,0:0:0:0:
192,192,105607,1,8,0:0:0:0:
320,192,105794,1,0,0:0:0:0:
448,192,105794,1,0,0:0:0:0:
64,192,105888,1,0,0:0:0:0:
448,192,105982,128,2,106357:0:0:0:0:
192,192,105982,1,4,0:0:0:0:
64,192,106169,1,0,0:0:0:0:
320,192,106263,1,0,0:0:0:0:
192,192,106357,1,8,0:0:0:0:
64,192,106357,1,4,0:0:0:0:
320,192,106544,1,0,0:0:0:0:
448,192,106544,1,0,0:0:0:0:
64,192,106638,1,0,0:0:0:0:
192,192,106732,1,4,0:0:0:0:
448,192,106732,1,0,0:0:0:0:
448,192,106826,1,0,0:0:0:0:
320,192,106919,128,0,107107:0:0:0:0:
64,192,106919,1,0,0:0:0:0:
64,192,107107,1,8,0:0:0:0:
192,192,107107,1,4,0:0:0:0:
192,192,107294,1,0,0:0:0:0:
448,192,107294,1,4,0:0:0:0:
320,192,107388,1,0,0:0:0:0:
64,192,107482,1,4,0:0:0:0:
192,192,107482,1,0,0:0:0:70:cymbol 2.wav
448,192,107576,1,0,0:0:0:0:
64,192,107669,1,0,0:0:0:0:
320,192,107669,1,0,0:0:0:0:
192,192,107763,1,0,0:0:0:0:
320,192,107857,1,4,0:0:0:0:
448,192,107857,1,8,0:0:0:0:
64,192,107951,1,0,0:0:0:0:
192,192,108044,1,0,0:0:0:0:
448,192,108044,1,0,0:0:0:0:
320,192,108138,1,0,0:0:0:0:
192,192,108232,1,4,0:0:0:0:
64,192,108232,1,0,0:0:0:0:
448,192,108326,1,0,0:0:0:0:
64,192,108419,1,0,0:0:0:0:
320,192,108419,1,0,0:0:0:0:
192,192,108513,1,0,0:0:0:0:
320,192,108607,1,4,0:0:0:0:
448,192,108607,1,8,0:0:0:0:
192,192,108701,1,0,0:0:0:0:
448,192,108794,128,0,109169:0:0:0:0:
64,192,108794,1,0,0:0:0:0:
320,192,108982,1,4,0:0:0:0:
192,192,108982,1,2,0:0:0:0:
64,192,109169,128,0,109544:0:0:0:0:
448,192,109357,1,2,0:0:0:0:
192,192,109357,1,4,0:0:0:0:
320,192,109544,128,0,109919:0:0:0:0:
64,192,109732,1,2,0:0:0:0:
192,192,109732,1,4,0:0:0:0:
448,192,109919,128,0,110107:0:0:0:0:
192,192,110107,128,2,110388:0:0:0:0:
320,192,110107,1,4,0:0:0:0:
64,192,110201,1,4,0:0:0:0:
448,192,110294,1,4,0:0:0:0:
64,192,110388,1,4,0:0:0:0:
320,192,110482,1,4,0:0:0:0:
448,192,110482,128,0,110669:0:0:0:70:cymbol 2.wav
192,192,110576,1,0,0:0:0:0:
64,192,110669,1,0,0:0:0:0:
448,192,110763,1,4,0:0:0:0:
320,192,110763,1,0,0:0:0:0:
192,192,110857,1,0,0:0:0:0:
64,192,110857,1,0,0:0:0:0:
448,192,111044,1,0,0:0:0:0:
320,192,111044,1,4,0:0:0:0:
64,192,111044,1,0,0:0:0:0:
320,192,111232,1,4,0:0:0:0:
192,192,111232,1,0,0:0:0:0:
192,192,111326,1,4,0:0:0:0:
320,192,111419,1,4,0:0:0:0:
448,192,111419,1,0,0:0:0:0:
64,192,111513,1,4,0:0:0:0:
320,192,111607,128,0,111794:0:0:0:0:
192,192,111607,128,4,111794:0:0:0:0:
448,192,111607,128,0,111794:0:0:0:30:Long synth6.wav
64,192,111982,128,0,112169:0:0:0:70:cymbol 2.wav
192,192,111982,1,4,0:0:0:0:
320,192,112076,1,0,0:0:0:0:
448,192,112169,1,0,0:0:0:0:
192,192,112263,1,4,0:0:0:0:
64,192,112263,1,0,0:0:0:0:
320,192,112357,1,0,0:0:0:0:
448,192,112357,1,0,0:0:0:0:
192,192,112544,1,0,0:0:0:0:
64,192,112544,1,4,0:0:0:0:
448,192,112544,1,0,0:0:0:0:
320,192,112732,1,4,0:0:0:0:
192,192,112732,1,0,0:0:0:0:
64,192,112919,1,0,0:0:0:0:
448,192,113013,1,0,0:0:0:0:
320,192,113013,1,4,0:0:0:0:
192,192,113107,1,0,0:0:0:0:
64,192,113107,1,0,0:0:0:0:
320,192,113294,1,4,0:0:0:0:
448,192,113294,1,0,0:0:0:0:
192,192,113294,1,0,0:0:0:0:
448,192,113482,128,0,113669:0:0:0:70:cymbol 2.wav
320,192,113482,1,4,0:0:0:0:
64,192,113576,1,0,0:0:0:0:
192,192,113669,1,0,0:0:0:0:
320,192,113763,1,4,0:0:0:0:
448,192,113763,1,0,0:0:0:0:
64,192,113857,1,0,0:0:0:0:
192,192,113857,1,0,0:0:0:0:
448,192,114044,1,0,0:0:0:0:
64,192,114044,1,4,0:0:0:0:
320,192,114044,1,0,0:0:0:0:
320,192,114232,1,4,0:0:0:0:
192,192,114232,1,0,0:0:0:0:
192,192,114326,1,4,0:0:0:0:
320,192,114419,1,4,0:0:0:0:
448,192,114419,1,0,0:0:0:0:
64,192,114513,1,4,0:0:0:0:
448,192,114607,128,0,114794:0:0:0:30:Long synth6.wav
192,192,114607,128,0,114794:0:0:0:0:
320,192,114607,128,4,114794:0:0:0:0:
64,192,114982,128,2,115169:0:0:0:0:
192,192,114982,1,4,0:0:0:0:
320,192,115076,1,0,0:0:0:0:
448,192,115169,1,0,0:0:0:0:
64,192,115263,1,4,0:0:0:0:
192,192,115263,1,0,0:0:0:0:
448,192,115357,1,0,0:0:0:0:
320,192,115357,1,0,0:0:0:0:
64,192,115544,1,0,0:0:0:0:
448,192,115544,1,0,0:0:0:0:
192,192,115544,1,4,0:0:0:0:
320,192,115732,128,0,115919:0:0:0:70:cymbol 2.wav
448,192,115732,1,4,0:0:0:0:
64,192,115826,1,0,0:0:0:0:
192,192,115919,1,0,0:0:0:0:
448,192,116013,1,4,0:0:0:0:
320,192,116013,1,0,0:0:0:0:
64,192,116107,1,0,0:0:0:0:
192,192,116107,1,0,0:0:0:0:
320,192,116294,1,4,0:0:0:0:
64,192,116294,1,0,0:0:0:0:
448,192,116294,1,0,0:0:0:0:
64,192,116482,128,2,116669:0:0:0:0:
192,192,116482,1,4,0:0:0:0:
448,192,116576,1,0,0:0:0:0:
320,192,116669,1,0,0:0:0:0:
64,192,116763,1,0,0:0:0:0:
192,192,116763,1,4,0:0:0:0:
320,192,116857,1,8,0:0:0:0:
448,192,116857,1,0,0:0:0:0:
192,192,117044,1,0,0:0:0:0:
64,192,117044,1,4,0:0:0:0:
448,192,117044,1,0,0:0:0:0:
320,192,117232,1,4,0:0:0:0:
192,192,117232,1,0,0:0:0:0:
192,192,117326,1,4,0:0:0:0:
448,192,117419,1,0,0:0:0:0:
320,192,117419,1,4,0:0:0:0:
64,192,117513,1,4,0:0:0:0:
448,192,117607,1,12,0:0:0:0:
192,192,117607,1,0,0:0:0:30:Long synth6.wav
320,192,117701,1,0,0:0:0:0:
64,192,117794,1,0,0:0:0:0:
448,192,117794,1,0,0:0:0:0:
192,192,117888,1,0,0:0:0:0:
320,192,117982,1,4,0:0:0:0:
448,192,117982,128,2,118169:0:0:0:0:
64,192,118076,1,0,0:0:0:0:
192,192,118169,1,0,0:0:0:0:
320,192,118263,1,0,0:0:0:0:
448,192,118263,1,4,0:0:0:0:
192,192,118357,1,8,0:0:0:0:
64,192,118357,1,0,0:0:0:0:
448,192,118544,1,0,0:0:0:0:
64,192,118544,1,0,0:0:0:0:
320,192,118544,1,4,0:0:0:0:
192,192,118732,1,4,0:0:0:0:
448,192,118732,1,0,0:0:0:0:
320,192,118826,1,0,0:0:0:0:
448,192,118919,1,0,0:0:0:0:
64,192,118919,1,4,0:0:0:0:
192,192,119013,1,0,0:0:0:0:
320,192,119107,1,8,0:0:0:0:
448,192,119107,1,0,0:0:0:15:Long synth6.wav
64,192,119201,1,0,0:0:0:0:
448,192,119294,1,4,0:0:0:0:
192,192,119294,1,0,0:0:0:0:
320,192,119388,1,0,0:0:0:0:
64,192,119482,128,2,119669:0:0:0:0:
192,192,119482,1,4,0:0:0:0:
448,192,119576,1,0,0:0:0:0:
320,192,119669,1,0,0:0:0:0:
192,192,119763,1,0,0:0:0:0:
64,192,119763,1,4,0:0:0:0:
320,192,119857,1,0,0:0:0:0:
448,192,119857,1,8,0:0:0:0:
448,192,120044,1,4,0:0:0:0:
64,192,120044,1,0,0:0:0:0:
192,192,120044,1,0,0:0:0:0:
64,192,120232,1,4,0:0:0:0:
320,192,120232,1,0,0:0:0:0:
320,192,120326,1,4,0:0:0:0:
448,192,120419,1,0,0:0:0:0:
192,192,120419,1,4,0:0:0:0:
64,192,120513,1,4,0:0:0:0:
448,192,120607,128,4,120794:0:0:0:0:
320,192,120607,128,0,120794:0:0:0:30:Long synth6.wav
192,192,120607,128,8,120794:0:0:0:0:
64,192,120982,1,0,0:0:0:0:
320,192,120982,1,4,0:0:0:0:
192,192,120982,128,0,121169:0:0:0:70:cymbol 2.wav
448,192,121169,1,0,0:0:0:0:
64,192,121263,1,0,0:0:0:0:
320,192,121263,1,0,0:0:0:40:drum-hitfinish.wav
192,192,121263,1,0,0:0:0:0:
64,192,121544,1,0,0:0:0:40:drum-hitfinish.wav
448,192,121544,1,0,0:0:0:0:
192,192,121544,1,0,0:0:0:0:
192,192,121732,128,2,121919:0:0:0:0:
320,192,121732,128,0,121919:0:0:0:0:
448,192,121732,1,4,0:0:0:0:
64,192,121919,1,0,0:0:0:0:
448,192,122013,1,0,0:0:0:0:
192,192,122013,1,0,0:0:0:0:
320,192,122013,1,0,0:0:0:40:drum-hitfinish.wav
320,192,122294,1,0,0:0:0:0:
448,192,122294,1,0,0:0:0:0:
64,192,122294,1,0,0:0:0:40:drum-hitfinish.wav
64,192,122482,1,0,0:0:0:0:
192,192,122482,128,0,122669:0:0:0:70:cymbol 2.wav
448,192,122482,1,4,0:0:0:0:
320,192,122669,1,0,0:0:0:0:
64,192,122763,1,0,0:0:0:40:drum-hitfinish.wav
192,192,122763,1,0,0:0:0:0:
448,192,122763,1,0,0:0:0:0:
64,192,123044,1,0,0:0:0:0:
320,192,123044,1,0,0:0:0:40:drum-hitfinish.wav
192,192,123044,1,0,0:0:0:0:
192,192,123232,1,4,0:0:0:0:
320,192,123232,128,0,123419:0:0:0:0:
448,192,123232,128,2,123419:0:0:0:0:
64,192,123419,1,4,0:0:0:0:
64,192,123513,1,0,0:0:0:0:
320,192,123513,1,4,0:0:0:0:
448,192,123513,1,0,0:0:0:0:
192,192,123701,1,4,0:0:0:0:
320,192,123701,1,0,0:0:0:0:
448,192,123794,1,4,0:0:0:0:
64,192,123794,1,0,0:0:0:0:
