osu file format v14

[General]
AudioFilename: audio.mp3
AudioLeadIn: 0
PreviewTime: 21982
Countdown: 0
SampleSet: None
StackLeniency: 0.7
Mode: 3
LetterboxInBreaks: 0
SpecialStyle: 0
WidescreenStoryboard: 1

[Editor]
DistanceSpacing: 1
BeatDivisor: 4
GridSize: 8
TimelineZoom: 1.8

[Metadata]
Title:Cross Time
TitleUnicode:Cross Time
Artist:Brandy
ArtistUnicode:Brandy
Creator:ababab0306
Version:EZ
Source:PUMP IT UP – 2017 PRIME 2
Tags:O2JAM (C)Andamiro EuNyack NANACO★SYNDROME EZ2AC : NT XROSS Collaboration HIGH5 TAPSONIC WORLD CHAMPION SMIN Techno Rock ECON
BeatmapID:1877177
BeatmapSetID:886126

[Difficulty]
HPDrainRate:6.5
CircleSize:4
OverallDifficulty:6.5
ApproachRate:5
SliderMultiplier:1.4
SliderTickRate:1

[Events]
//Background and Video events
0,0,"Cross Time2.png",0,0
Video,800,"Cross Time.mp4"
//Break Periods
//Storyboard Layer 0 (Background)
//Storyboard Layer 1 (Fail)
//Storyboard Layer 2 (Pass)
//Storyboard Layer 3 (Foreground)
//Storyboard Sound Samples
Sample,30982,0,"drum-hitfinish.wav",100
Sample,31357,0,"drum-hitclap.wav",100
Sample,74482,0,"click.wav",70
Sample,75982,0,"click.wav",70
Sample,77482,0,"click.wav",70
Sample,78982,0,"click.wav",70
Sample,79732,0,"Clock.wav",70
Sample,80482,0,"click.wav",70
Sample,81982,0,"click.wav",70
Sample,83482,0,"click.wav",70
Sample,84982,0,"click.wav",70
Sample,85732,0,"Clock.wav",70
Sample,89294,0,"hithat.wav",80
Sample,92294,0,"hithat.wav",80
Sample,94544,0,"hithat.wav",80
Sample,94919,0,"hithat.wav",80
Sample,107482,0,"drum-hitfinish.wav",100
Sample,110482,0,"drum-hitfinish.wav",100
Sample,111607,0,"drum-hitfinish.wav",100
Sample,111982,0,"drum-hitfinish.wav",100
Sample,113482,0,"drum-hitfinish.wav",100
Sample,114607,0,"drum-hitfinish.wav",100
Sample,115732,0,"drum-hitfinish.wav",100
Sample,117607,0,"Long synth6.wav",30
Sample,119107,0,"Long synth6.wav",15
Sample,120607,0,"Long synth6.wav",30
Sample,120982,0,"drum-hitfinish.wav",100
Sample,122482,0,"drum-hitfinish.wav",100

[TimingPoints]
982.40571070547,375,4,3,1,100,1,0
21982,-100,4,3,1,100,0,1
45982,-100,4,3,1,100,0,0
57982,-100,4,2,1,70,0,0
68482,-100,4,3,1,70,0,0
71482,-100,4,3,1,100,0,0
98482,-100,4,3,1,100,0,1
110482,-100,4,3,1,100,0,0

[HitObjects]
320,192,982,5,0,0:0:0:70:click.wav
192,192,1732,1,0,0:0:0:70:Clock.wav
320,192,2482,1,0,0:0:0:70:click.wav
192,192,3232,1,0,0:0:0:70:Clock.wav
448,192,3982,1,0,0:0:0:70:click.wav
64,192,4732,1,0,0:0:0:70:Clock.wav
448,192,5482,1,0,0:0:0:70:click.wav
64,192,6232,1,0,0:0:0:70:Clock.wav
320,192,6982,1,4,0:0:0:0:
448,192,6982,1,0,0:0:0:0:
64,192,7732,1,2,2:0:0:0:
192,192,7732,1,0,0:0:0:0:
448,192,8482,1,4,0:0:0:0:
192,192,8482,1,0,0:0:0:0:
320,192,9044,1,4,0:0:0:0:
64,192,9232,5,2,2:0:0:0:
320,192,9419,1,4,0:0:0:0:
192,192,9982,1,4,0:0:0:0:
320,192,9982,1,0,0:0:0:0:
448,192,10169,1,0,0:0:0:0:
320,192,10732,1,2,2:0:0:0:
64,192,10732,1,0,0:0:0:0:
192,192,10919,1,0,0:0:0:0:
320,192,11482,1,4,0:0:0:0:
448,192,11482,1,0,0:0:0:0:
192,192,11669,1,0,0:0:0:0:
64,192,12044,1,4,0:0:0:0:
320,192,12044,1,0,0:0:0:0:
448,192,12232,1,2,2:0:0:0:
192,192,12419,128,0,12982:0:0:0:0:
64,192,12982,1,4,0:0:0:0:
448,192,12982,1,0,0:0:0:0:
320,192,13357,1,2,2:0:0:0:
64,192,13544,1,4,0:0:0:0:
448,192,13732,1,0,0:0:0:0:
192,192,13919,1,4,0:0:0:0:
448,192,14107,1,2,2:0:0:0:
64,192,14294,1,4,0:0:0:0:
320,192,14482,1,4,0:0:0:0:
192,192,14482,128,0,14669:0:0:0:0:
448,192,14857,1,2,2:0:0:0:
64,192,15044,1,4,0:0:0:0:
320,192,15232,1,4,0:0:0:0:
192,192,15513,1,4,0:0:0:0:
320,192,15794,1,4,0:0:0:0:
64,192,15982,1,4,0:0:0:0:
448,192,15982,128,0,16169:0:0:0:0:
192,192,16357,1,2,2:0:0:0:
320,192,16544,1,4,0:0:0:0:
64,192,16732,1,0,0:0:0:0:
320,192,16919,1,4,0:0:0:0:
192,192,17107,1,2,2:0:0:0:
448,192,17294,1,0,0:0:0:0:
64,192,17482,128,2,17857:0:0:0:0:
320,192,17482,1,4,0:0:0:0:
448,192,17857,1,2,2:0:0:0:
192,192,18044,1,4,0:0:0:0:
320,192,18232,1,4,0:0:0:0:
320,192,18513,1,4,0:0:0:0:
320,192,18794,1,4,0:0:0:0:
192,192,18982,1,4,0:0:0:0:
320,192,19263,1,4,0:0:0:0:
448,192,19544,1,4,0:0:0:0:
64,192,19732,1,4,0:0:0:0:
192,192,20013,1,4,0:0:0:0:
320,192,20294,1,4,0:0:0:0:
64,192,20482,1,4,0:0:0:0:
320,192,20763,1,4,0:0:0:0:
448,192,21044,1,4,0:0:0:0:
192,192,21232,1,4,0:0:0:0:
192,192,21513,1,4,0:0:0:0:
192,192,21794,1,4,0:0:0:0:
320,192,21982,128,2,22169:0:0:0:0:
448,192,21982,1,4,0:0:0:0:
64,192,22357,1,8,0:0:0:0:
320,192,22732,1,4,0:0:0:0:
64,192,23107,1,8,0:0:0:0:
192,192,23482,1,4,0:0:0:0:
448,192,23482,128,0,23669:0:0:0:0:
320,192,23857,1,8,0:0:0:0:
64,192,24232,1,4,0:0:0:0:
320,192,24607,1,8,0:0:0:0:
448,192,24982,1,4,0:0:0:0:
64,192,24982,128,0,25169:0:0:0:70:cymbol 2.wav
192,192,25357,1,8,0:0:0:0:
448,192,25732,1,4,0:0:0:0:
192,192,26107,1,8,0:0:0:0:
64,192,26482,128,0,26669:0:0:0:0:
320,192,26482,1,4,0:0:0:0:
192,192,26857,1,8,0:0:0:0:
448,192,27232,128,0,27419:0:0:0:0:
64,192,27232,1,4,0:0:0:0:
320,192,27607,1,8,0:0:0:0:
448,192,27982,1,4,0:0:0:0:
192,192,27982,128,2,28169:0:0:0:0:
320,192,28357,1,8,0:0:0:0:
64,192,28732,1,4,0:0:0:0:
448,192,29107,1,8,0:0:0:0:
192,192,29482,1,4,0:0:0:0:
320,192,29482,128,0,29669:0:0:0:0:
64,192,29857,1,8,0:0:0:0:
448,192,30232,1,4,0:0:0:0:
192,192,30607,1,8,0:0:0:0:
320,192,30982,1,4,0:0:0:70:cymbol 2.wav
64,192,30982,128,0,31169:0:0:0:30:synth5.wav
64,192,31357,128,8,31544:0:0:0:30:synth5.wav
448,192,31732,1,4,0:0:0:0:
64,192,31919,1,0,0:0:0:30:synth2.wav
320,192,32107,1,8,0:0:0:0:
192,192,32294,1,0,0:0:0:25:synth3.wav
448,192,32482,1,4,0:0:0:0:
192,192,32669,1,0,0:0:0:25:synth3.wav
320,192,32857,1,8,0:0:0:0:
64,192,33044,1,0,0:0:0:25:Short synth4.wav
448,192,33232,1,4,0:0:0:0:
192,192,33232,1,2,0:0:0:0:
64,192,33607,1,0,0:0:0:70:cymbol 2.wav
320,192,33607,1,8,0:0:0:0:
320,192,33982,1,2,0:0:0:0:
448,192,33982,1,4,0:0:0:0:
64,192,34357,1,4,0:0:0:0:
192,192,34357,1,8,0:0:0:0:
320,192,34732,1,4,0:0:0:0:
192,192,35107,1,8,0:0:0:0:
448,192,35107,1,4,0:0:0:0:
64,192,35482,1,4,0:0:0:0:
192,192,35857,1,4,0:0:0:0:
320,192,35857,1,8,0:0:0:0:
448,192,36232,1,4,0:0:0:0:
64,192,36607,1,8,0:0:0:0:
192,192,36607,1,4,0:0:0:0:
448,192,36982,1,0,0:0:0:70:cymbol 2.wav
320,192,36982,1,4,0:0:0:0:
192,192,37357,1,8,0:0:0:0:
64,192,37357,1,4,0:0:0:0:
320,192,37732,1,4,0:0:0:0:
448,192,38107,1,8,0:0:0:0:
192,192,38107,1,4,0:0:0:0:
320,192,38482,1,4,0:0:0:0:
448,192,38857,1,8,0:0:0:0:
64,192,38857,1,4,0:0:0:0:
192,192,39232,1,4,0:0:0:0:
448,192,39607,1,8,0:0:0:0:
320,192,39607,1,4,0:0:0:0:
192,192,39982,1,4,0:0:0:0:
64,192,39982,1,2,0:0:0:0:
320,192,40357,1,4,0:0:0:0:
448,192,40357,1,8,0:0:0:0:
192,192,40732,1,4,0:0:0:0:
64,192,41107,1,4,0:0:0:0:
448,192,41107,1,8,0:0:0:0:
320,192,41482,1,4,0:0:0:0:
64,192,41857,1,4,0:0:0:0:
192,192,41857,1,8,0:0:0:0:
448,192,42232,1,4,0:0:0:0:
192,192,42607,1,4,0:0:0:0:
320,192,42607,1,8,0:0:0:0:
64,192,42982,1,4,0:0:0:0:
448,192,42982,1,0,0:0:0:70:cymbol 2.wav
320,192,43357,1,8,0:0:0:0:
192,192,43357,1,4,0:0:0:0:
64,192,43732,1,4,0:0:0:0:
448,192,44107,1,8,0:0:0:0:
320,192,44107,1,4,0:0:0:0:
192,192,44482,1,4,0:0:0:0:
448,192,44857,1,8,0:0:0:0:
64,192,44857,1,4,0:0:0:0:
192,192,45232,1,2,0:0:0:0:
320,192,45232,1,4,0:0:0:0:
320,192,45607,1,0,0:0:0:70:cymbol 2.wav
64,192,45607,1,4,0:0:0:0:
448,192,45982,1,4,0:0:0:0:
192,192,45982,1,2,0:0:0:0:
192,192,46357,1,4,0:0:0:0:
448,192,46732,1,4,0:0:0:0:
64,192,46919,1,0,0:0:0:0:
320,192,47107,1,4,0:0:0:0:
192,192,47294,1,0,0:0:0:0:
448,192,47482,1,4,0:0:0:0:
448,192,47857,1,4,0:0:0:0:
192,192,48232,1,4,0:0:0:0:
192,192,48607,1,4,0:0:0:0:
192,192,48794,1,4,0:0:0:0:
320,192,48982,1,4,0:0:0:0:
448,192,48982,1,2,0:0:0:0:
320,192,49357,1,4,0:0:0:0:
192,192,49732,1,4,0:0:0:0:
448,192,49919,1,0,0:0:0:0:
64,192,50107,1,4,0:0:0:0:
448,192,50294,1,0,0:0:0:0:
192,192,50482,1,4,0:0:0:0:
320,192,50669,1,4,0:0:0:0:
320,192,51044,1,4,0:0:0:0:
64,192,51232,1,4,0:0:0:0:
448,192,51419,1,4,0:0:0:0:
448,192,51794,1,4,0:0:0:0:
64,192,51982,1,4,0:0:0:0:
192,192,51982,1,2,0:0:0:70:cymbol 2.wav
320,192,52357,1,4,0:0:0:0:
448,192,52357,1,8,0:0:0:0:
192,192,52732,1,4,0:0:0:0:
64,192,53107,1,4,0:0:0:0:
320,192,53107,1,8,0:0:0:0:
448,192,53482,1,4,0:0:0:0:
192,192,53857,1,4,0:0:0:0:
320,192,53857,1,8,0:0:0:0:
64,192,54232,1,4,0:0:0:0:
448,192,54607,1,8,0:0:0:0:
320,192,54607,1,4,0:0:0:0:
64,192,54982,1,4,0:0:0:0:
192,192,54982,1,2,0:0:0:0:
320,192,55357,1,4,0:0:0:0:
448,192,55357,1,8,0:0:0:0:
192,192,55732,1,4,0:0:0:0:
448,192,56107,1,8,0:0:0:0:
320,192,56107,1,4,0:0:0:0:
64,192,56482,1,4,0:0:0:0:
192,192,56482,1,8,0:0:0:0:
320,192,57232,1,4,0:0:0:0:
320,192,57513,1,4,0:0:0:0:
320,192,57794,1,4,0:0:0:0:
64,192,57982,1,4,3:0:0:0:
192,192,57982,128,0,58169:0:0:0:0:
192,192,58732,1,0,0:0:0:0:
448,192,58732,128,8,58919:2:0:0:0:
320,192,59482,128,4,59669:3:0:0:0:
64,192,59482,1,0,0:0:0:0:
192,192,60044,128,4,60232:3:0:0:0:
448,192,60232,1,8,2:0:0:0:
192,192,60419,128,4,60607:3:0:0:0:
320,192,60982,1,4,3:0:0:0:
448,192,60982,128,0,61169:0:0:0:0:
192,192,61169,1,0,0:0:0:0:
64,192,61732,128,0,61919:0:0:0:0:
192,192,61732,1,8,2:0:0:0:
320,192,61919,1,0,0:0:0:0:
448,192,62482,1,4,3:0:0:0:
192,192,62482,1,0,0:0:0:0:
64,192,62669,128,0,63044:0:0:0:0:
448,192,63044,128,0,63982:0:0:0:0:
64,192,63982,1,4,3:0:0:0:
192,192,63982,128,2,64169:3:0:0:0:
320,192,64357,1,8,2:0:0:0:
64,192,64732,1,4,2:0:0:0:
320,192,64919,1,4,3:0:0:0:
192,192,65107,1,8,2:0:0:0:
64,192,65482,128,0,65669:0:0:0:0:
448,192,65482,1,4,3:0:0:0:
320,192,65857,1,8,2:0:0:0:
192,192,66232,1,0,0:0:0:0:
448,192,66232,128,4,66419:2:0:0:100:LR3_FX_ResetBTN.wav
64,192,66607,1,8,2:0:0:0:
448,192,66794,1,4,3:0:0:0:
64,192,66982,1,4,3:0:0:0:
320,192,66982,128,0,67169:0:0:0:70:cymbol 2.wav
320,192,67732,1,8,2:0:0:0:
64,192,67919,128,0,68107:0:0:0:0:
192,192,67919,1,4,3:0:0:0:
192,192,68482,1,4,0:0:0:0:
320,192,68763,1,4,3:0:0:0:
448,192,69044,1,4,3:0:0:0:
64,192,69232,1,8,2:0:0:0:
192,192,69513,1,4,3:0:0:0:
320,192,69794,1,4,3:0:0:0:
192,192,69982,1,4,0:0:0:0:
320,192,70263,1,4,3:0:0:0:
448,192,70544,1,4,3:0:0:0:
192,192,70732,128,8,71482:2:0:0:0:
448,192,71482,128,0,73732:0:0:0:70:click.wav
64,192,72232,1,0,0:0:0:70:Clock.wav
320,192,72982,1,0,0:0:0:70:click.wav
64,192,73732,1,0,0:0:0:70:Clock.wav
320,192,74482,128,0,74857:0:0:0:35:piano1.wav
192,192,74857,128,0,75232:0:0:0:0:
64,192,75232,128,0,75607:0:0:0:70:Clock.wav
320,192,75607,128,0,75982:0:0:0:0:
192,192,75982,128,0,76357:0:0:0:35:piano2.wav
448,192,76357,128,0,76732:0:0:0:0:
320,192,76732,128,0,77107:0:0:0:70:Clock.wav
64,192,77107,128,0,77482:0:0:0:0:
192,192,77482,1,0,0:0:0:35:piano# (17).wav
320,192,77857,1,0,0:0:0:0:
448,192,78232,1,0,0:0:0:70:Clock.wav
64,192,78607,1,0,0:0:0:0:
192,192,78982,1,0,0:0:0:35:piano# (24).wav
448,192,79357,1,0,0:0:0:0:
64,192,79732,1,0,0:0:0:35:piano# (28).wav
320,192,80107,1,0,0:0:0:0:
448,192,80482,128,0,80857:0:0:0:35:piano1.wav
320,192,80857,128,0,81232:0:0:0:0:
192,192,81232,128,0,81607:0:0:0:70:Clock.wav
448,192,81607,128,0,81982:0:0:0:0:
320,192,81982,128,0,82357:0:0:0:35:piano2.wav
64,192,82357,128,0,82732:0:0:0:0:
192,192,82732,128,0,83107:0:0:0:70:Clock.wav
448,192,83107,128,0,83482:0:0:0:0:
64,192,83482,1,0,0:0:0:35:piano# (17).wav
192,192,83857,1,0,0:0:0:0:
448,192,84232,1,0,0:0:0:70:Clock.wav
320,192,84607,1,0,0:0:0:0:
64,192,84982,1,0,0:0:0:35:piano# (24).wav
320,192,85357,5,0,0:0:0:0:
192,192,85732,1,0,0:0:0:35:piano# (28).wav
448,192,86107,1,0,0:0:0:0:
64,192,86482,5,2,0:0:0:0:
192,192,86482,1,4,0:0:0:0:
320,192,86669,1,0,0:0:0:80:hithat.wav
64,192,87044,1,0,0:0:0:80:hithat.wav
448,192,87419,1,0,0:0:0:80:hithat.wav
192,192,87794,1,0,0:0:0:80:hithat.wav
320,192,88169,1,0,0:0:0:80:hithat.wav
64,192,88544,1,0,0:0:0:80:hithat.wav
448,192,88919,1,0,0:0:0:80:hithat.wav
192,192,89294,1,4,0:0:0:0:
320,192,89482,1,4,0:0:0:0:
448,192,89482,1,0,0:0:0:70:cymbol 2.wav
64,192,89669,1,0,0:0:0:80:hithat.wav
320,192,90044,1,0,0:0:0:80:hithat.wav
192,192,90419,1,0,0:0:0:80:hithat.wav
64,192,90794,128,0,91169:0:0:0:80:hithat.wav
320,192,91169,1,0,0:0:0:80:hithat.wav
448,192,91357,1,0,0:0:0:0:
192,192,91544,128,0,91919:0:0:0:80:hithat.wav
320,192,91919,1,0,0:0:0:80:hithat.wav
448,192,92107,1,0,0:0:0:0:
192,192,92294,1,4,0:0:0:0:
64,192,92482,1,4,0:0:0:0:
448,192,92482,1,2,0:0:0:0:
320,192,92857,1,0,0:0:0:0:
64,192,93044,1,0,0:0:0:80:hithat.wav
448,192,93232,1,4,0:0:0:0:
64,192,93419,1,0,0:0:0:80:hithat.wav
320,192,93607,1,0,0:0:0:0:
192,192,93982,1,0,0:0:0:70:cymbol 2.wav
448,192,93982,1,4,0:0:0:0:
64,192,94357,1,0,0:0:0:0:
320,192,94544,1,4,0:0:0:0:
192,192,94732,1,0,0:0:0:0:
448,192,94919,1,4,0:0:0:0:
64,192,95107,1,0,0:0:0:0:
64,192,95482,1,2,0:0:0:0:
320,192,95482,1,4,0:0:0:0:
192,192,95857,1,4,0:0:0:0:
448,192,96044,1,0,0:0:0:80:hithat.wav
320,192,96232,1,4,0:0:0:0:
64,192,96419,1,0,0:0:0:0:
192,192,96607,1,4,0:0:0:0:
448,192,96794,1,0,0:0:0:80:hithat.wav
64,192,96982,1,6,0:0:0:0:
320,192,97169,1,0,0:0:0:0:
448,192,97357,1,6,0:0:0:0:
192,192,97544,1,0,0:0:0:0:
64,192,97732,1,6,0:0:0:0:
320,192,97919,1,0,0:0:0:0:
192,192,98107,1,6,0:0:0:0:
448,192,98294,1,0,0:0:0:0:
192,192,98482,128,6,98857:0:0:0:0:
320,192,98857,1,12,0:0:0:0:
64,192,99044,1,0,0:0:0:0:
320,192,99419,1,0,0:0:0:0:
192,192,99607,1,12,0:0:0:0:
64,192,99794,1,0,0:0:0:0:
448,192,99982,128,6,100357:0:0:0:0:
320,192,100357,1,12,0:0:0:0:
64,192,100544,1,0,0:0:0:0:
448,192,100919,1,0,0:0:0:0:
192,192,101107,1,12,0:0:0:0:
64,192,101294,1,4,0:0:0:0:
320,192,101482,128,6,101857:0:0:0:0:
448,192,101857,1,12,0:0:0:0:
64,192,102044,1,0,0:0:0:0:
320,192,102419,1,0,0:0:0:0:
192,192,102607,1,12,0:0:0:0:
448,192,102794,128,2,103169:0:0:0:0:
320,192,103169,1,0,0:0:0:0:
192,192,103357,1,12,0:0:0:0:
64,192,103544,128,0,103919:0:0:0:70:cymbol 2.wav
320,192,103919,1,0,0:0:0:0:
192,192,104107,128,12,104294:0:0:0:0:
320,192,104482,128,6,104857:0:0:0:0:
192,192,104857,1,12,0:0:0:0:
64,192,105044,1,0,0:0:0:0:
320,192,105419,1,0,0:0:0:0:
192,192,105607,1,12,0:0:0:0:
64,192,105794,1,0,0:0:0:0:
448,192,105982,128,6,106357:0:0:0:0:
192,192,106357,1,12,0:0:0:0:
64,192,106544,1,0,0:0:0:0:
448,192,106919,1,0,0:0:0:0:
192,192,107107,1,12,0:0:0:0:
64,192,107294,1,4,0:0:0:0:
320,192,107482,1,4,0:0:0:70:cymbol 2.wav
448,192,107669,1,0,0:0:0:0:
64,192,107857,1,12,0:0:0:0:
192,192,108044,1,0,0:0:0:0:
448,192,108232,1,4,0:0:0:0:
64,192,108419,1,0,0:0:0:0:
320,192,108607,1,12,0:0:0:0:
448,192,108794,1,0,0:0:0:0:
64,192,108982,1,2,0:0:0:0:
192,192,108982,1,4,0:0:0:0:
448,192,109357,1,2,0:0:0:0:
320,192,109357,1,4,0:0:0:0:
64,192,109732,1,2,0:0:0:0:
448,192,109732,1,4,0:0:0:0:
192,192,110107,1,4,0:0:0:0:
320,192,110107,1,2,0:0:0:0:
64,192,110482,1,4,0:0:0:70:cymbol 2.wav
192,192,110763,1,4,0:0:0:0:
320,192,111044,1,4,0:0:0:0:
64,192,111232,1,4,0:0:0:0:
448,192,111419,1,4,0:0:0:0:
64,192,111607,128,4,111794:0:0:0:30:Long synth6.wav
448,192,111982,1,0,0:0:0:70:cymbol 2.wav
320,192,112263,1,4,0:0:0:0:
192,192,112544,1,4,0:0:0:0:
320,192,112732,1,4,0:0:0:0:
192,192,113013,1,4,0:0:0:0:
64,192,113294,1,4,0:0:0:0:
448,192,113482,1,0,0:0:0:70:cymbol 2.wav
320,192,113763,1,4,0:0:0:0:
192,192,114044,1,4,0:0:0:0:
448,192,114232,1,4,0:0:0:0:
64,192,114419,1,4,0:0:0:0:
448,192,114607,128,4,114794:0:0:0:30:Long synth6.wav
192,192,114982,1,6,0:0:0:0:
192,192,115263,1,4,0:0:0:0:
192,192,115544,1,4,0:0:0:0:
320,192,115732,1,0,0:0:0:70:cymbol 2.wav
320,192,116013,1,4,0:0:0:0:
320,192,116294,1,4,0:0:0:0:
64,192,116482,1,6,0:0:0:0:
320,192,116669,1,0,0:0:0:0:
192,192,116857,1,8,0:0:0:0:
448,192,117044,1,4,0:0:0:0:
64,192,117232,1,4,0:0:0:0:
320,192,117419,1,4,0:0:0:0:
64,192,117607,128,12,117794:0:0:0:0:
448,192,117982,1,6,0:0:0:0:
192,192,118169,1,0,0:0:0:0:
320,192,118357,1,8,0:0:0:0:
64,192,118544,1,0,0:0:0:0:
192,192,118732,1,4,0:0:0:0:
448,192,118919,1,4,0:0:0:0:
64,192,119107,1,8,0:0:0:0:
320,192,119294,1,4,0:0:0:0:
448,192,119482,1,6,0:0:0:0:
192,192,119669,1,0,0:0:0:0:
320,192,119857,1,8,0:0:0:0:
64,192,120044,1,4,0:0:0:0:
448,192,120232,1,4,0:0:0:0:
192,192,120419,1,4,0:0:0:0:
448,192,120607,128,12,120794:0:0:0:0:
192,192,120982,1,0,0:0:0:70:cymbol 2.wav
192,192,121263,1,0,0:0:0:40:drum-hitfinish.wav
192,192,121544,1,0,0:0:0:40:drum-hitfinish.wav
64,192,121732,1,4,0:0:0:0:
320,192,121732,1,2,0:0:0:0:
320,192,122013,1,0,0:0:0:40:drum-hitfinish.wav
320,192,122294,1,0,0:0:0:40:drum-hitfinish.wav
64,192,122482,1,0,0:0:0:70:cymbol 2.wav
64,192,122763,1,0,0:0:0:40:drum-hitfinish.wav
64,192,123044,1,0,0:0:0:40:drum-hitfinish.wav
192,192,123232,1,4,0:0:0:0:
448,192,123232,1,2,0:0:0:0:
448,192,123513,1,4,0:0:0:0:
192,192,123794,1,4,0:0:0:0:
