osu file format v14

[General]
AudioFilename: audio.mp3
AudioLeadIn: 0
PreviewTime: 21969
Countdown: 0
SampleSet: Normal
StackLeniency: 0.7
Mode: 1
LetterboxInBreaks: 0
WidescreenStoryboard: 0

[Editor]
DistanceSpacing: 2
BeatDivisor: 4
GridSize: 32
TimelineZoom: 1.7

[Metadata]
Title:Cross Time !!
TitleUnicode:Cross Time !!
Artist:Brandy
ArtistUnicode:Brandy
Creator:Konpaku Sariel
Version:Oni
Source:O2Jam
Tags:U PIU HIGH5 EZ2AC Pump It Up 2017 Prime 2 Patch 1.10 XROSS TAPSONIC WORLD CHAMPION EuNyack Nanako*Syndrome ECON
BeatmapID:1949350
BeatmapSetID:933765

[Difficulty]
HPDrainRate:6
CircleSize:4
OverallDifficulty:5
ApproachRate:5
SliderMultiplier:1.4
SliderTickRate:1

[Events]
//Background and Video events
0,0,"Cross Time4.jpg",0,0
Video,750,"crosstimetaikovideo.mp4"
//Break Periods
//Storyboard Layer 0 (Background)
//Storyboard Layer 1 (Fail)
//Storyboard Layer 2 (Pass)
//Storyboard Layer 3 (Foreground)
//Storyboard Sound Samples

[TimingPoints]
979,375,4,1,0,60,1,0
979,-133.333333333333,4,1,0,60,0,0
6979,-100,4,1,0,70,0,0
12979,-100,4,1,0,80,0,0
21979,375,4,1,0,80,1,1
45979,-100,4,1,0,80,0,0
71479,750,4,1,0,80,1,0
71479,-52.6315789473684,4,1,0,80,0,0
72229,-55.5555555555556,4,1,0,80,0,0
72979,-58.8235294117647,4,1,0,80,0,0
73729,-62.5,4,1,0,80,0,0
74479,375,4,1,0,80,1,0
74479,-133.333333333333,4,1,0,60,0,0
86479,-100,4,1,0,80,0,0
98479,-100,4,1,0,80,0,1
110479,-100,4,1,0,80,0,0

[HitObjects]
256,192,979,5,12,0:0:0:0:
256,192,1166,1,0,0:0:0:0:
256,192,1354,1,0,0:0:0:0:
256,192,1541,1,0,0:0:0:0:
256,192,1729,1,8,0:0:0:0:
256,192,1916,1,8,0:0:0:0:
256,192,2104,1,0,0:0:0:0:
256,192,2291,1,0,0:0:0:0:
256,192,2479,1,8,0:0:0:0:
256,192,2666,1,0,0:0:0:0:
256,192,2854,1,0,0:0:0:0:
256,192,3041,1,0,0:0:0:0:
256,192,3229,1,8,0:0:0:0:
256,192,3416,1,8,0:0:0:0:
256,192,3604,1,0,0:0:0:0:
256,192,3791,1,0,0:0:0:0:
256,192,3979,1,8,0:0:0:0:
256,192,4166,1,0,0:0:0:0:
256,192,4354,1,0,0:0:0:0:
256,192,4541,1,0,0:0:0:0:
256,192,4729,1,8,0:0:0:0:
256,192,4916,1,8,0:0:0:0:
256,192,5104,1,0,0:0:0:0:
256,192,5291,1,8,0:0:0:0:
256,192,5479,1,8,0:0:0:0:
256,192,5666,1,0,0:0:0:0:
256,192,5854,1,0,0:0:0:0:
256,192,6041,1,0,0:0:0:0:
256,192,6229,1,8,0:0:0:0:
256,192,6416,1,8,0:0:0:0:
256,192,6604,1,0,0:0:0:0:
256,192,6791,1,8,0:0:0:0:
256,192,6979,1,12,0:0:0:0:
256,192,7354,1,0,0:0:0:0:
256,192,7447,1,0,0:0:0:0:
256,192,7541,1,0,0:0:0:0:
256,192,7635,1,0,0:0:0:0:
256,192,7729,1,8,0:0:0:0:
256,192,8104,1,0,0:0:0:0:
256,192,8479,1,8,0:0:0:0:
256,192,8854,1,0,0:0:0:0:
256,192,9041,1,8,0:0:0:0:
256,192,9416,1,8,0:0:0:0:
256,192,9604,1,0,0:0:0:0:
256,192,9979,1,8,0:0:0:0:
256,192,10166,1,8,0:0:0:0:
256,192,10541,1,0,0:0:0:0:
256,192,10729,1,8,0:0:0:0:
256,192,10916,1,8,0:0:0:0:
256,192,11291,1,0,0:0:0:0:
256,192,11479,1,8,0:0:0:0:
256,192,11666,1,8,0:0:0:0:
256,192,12041,1,8,0:0:0:0:
256,192,12229,1,8,0:0:0:0:
256,192,12416,1,8,0:0:0:0:
256,192,12604,1,0,0:0:0:0:
256,192,12791,1,0,0:0:0:0:
256,192,12979,1,0,0:0:0:0:
256,192,13354,1,8,0:0:0:0:
256,192,13541,1,0,0:0:0:0:
256,192,13635,1,0,0:0:0:0:
256,192,13916,1,0,0:0:0:0:
256,192,14104,1,8,0:0:0:0:
256,192,14479,1,0,0:0:0:0:
256,192,14666,1,0,0:0:0:0:
256,192,14854,1,8,0:0:0:0:
256,192,15041,1,0,0:0:0:0:
256,192,15229,1,8,0:0:0:0:
256,192,15416,1,0,0:0:0:0:
256,192,15510,1,8,0:0:0:0:
256,192,15697,1,0,0:0:0:0:
256,192,15791,1,8,0:0:0:0:
256,192,15979,1,8,0:0:0:0:
256,192,16166,1,0,0:0:0:0:
256,192,16260,1,0,0:0:0:0:
256,192,16354,1,8,0:0:0:0:
256,192,16447,1,8,0:0:0:0:
256,192,16541,1,0,0:0:0:0:
256,192,16729,1,0,0:0:0:0:
256,192,16916,1,8,0:0:0:0:
256,192,17010,1,0,0:0:0:0:
256,192,17104,1,8,0:0:0:0:
256,192,17197,1,8,0:0:0:0:
256,192,17291,1,0,0:0:0:0:
256,192,17479,1,4,0:0:0:0:
256,192,18229,1,8,0:0:0:0:
256,192,18510,1,8,0:0:0:0:
256,192,18791,1,8,0:0:0:0:
256,192,18979,1,0,0:0:0:0:
256,192,19260,1,8,0:0:0:0:
256,192,19354,1,0,0:0:0:0:
256,192,19541,1,8,0:0:0:0:
256,192,19729,1,0,0:0:0:0:
256,192,20010,1,8,0:0:0:0:
256,192,20104,1,0,0:0:0:0:
256,192,20291,1,8,0:0:0:0:
256,192,20479,1,0,0:0:0:0:
256,192,20666,1,8,0:0:0:0:
256,192,20760,1,0,0:0:0:0:
256,192,20947,1,0,0:0:0:0:
256,192,21041,1,8,0:0:0:0:
256,192,21229,1,12,0:0:0:0:
256,192,21510,1,12,0:0:0:0:
256,192,21791,1,12,0:0:0:0:
256,192,21979,1,4,0:0:0:0:
256,192,22166,1,0,0:0:0:0:
256,192,22354,1,0,0:0:0:0:
256,192,22541,1,8,0:0:0:0:
256,192,22729,1,8,0:0:0:0:
256,192,22916,1,8,0:0:0:0:
256,192,23104,1,0,0:0:0:0:
256,192,23479,1,0,0:0:0:0:
256,192,23666,1,0,0:0:0:0:
256,192,23854,1,8,0:0:0:0:
256,192,24041,1,0,0:0:0:0:
256,192,24229,1,8,0:0:0:0:
256,192,24416,1,8,0:0:0:0:
256,192,24604,1,0,0:0:0:0:
256,192,24979,1,0,0:0:0:0:
256,192,25166,1,0,0:0:0:0:
256,192,25354,1,8,0:0:0:0:
256,192,25541,1,8,0:0:0:0:
256,192,25729,1,0,0:0:0:0:
256,192,25916,1,8,0:0:0:0:
256,192,26104,1,0,0:0:0:0:
256,192,26479,1,0,0:0:0:0:
256,192,26572,1,0,0:0:0:0:
256,192,26666,1,8,0:0:0:0:
256,192,26760,1,0,0:0:0:0:
256,192,26854,1,8,0:0:0:0:
256,192,27041,1,0,0:0:0:0:
256,192,27229,1,0,0:0:0:0:
256,192,27322,1,0,0:0:0:0:
256,192,27416,1,8,0:0:0:0:
256,192,27510,1,8,0:0:0:0:
256,192,27604,1,0,0:0:0:0:
256,192,27791,1,8,0:0:0:0:
256,192,27979,1,4,0:0:0:0:
256,192,28166,1,0,0:0:0:0:
256,192,28354,1,0,0:0:0:0:
256,192,28541,1,8,0:0:0:0:
256,192,28729,1,8,0:0:0:0:
256,192,28916,1,8,0:0:0:0:
256,192,29104,1,0,0:0:0:0:
256,192,29479,1,0,0:0:0:0:
256,192,29666,1,0,0:0:0:0:
256,192,29854,1,8,0:0:0:0:
256,192,30041,1,8,0:0:0:0:
256,192,30229,1,0,0:0:0:0:
256,192,30416,1,8,0:0:0:0:
256,192,30604,1,0,0:0:0:0:
256,192,30979,1,0,0:0:0:0:
256,192,31166,1,0,0:0:0:0:
256,192,31354,1,8,0:0:0:0:
256,192,31541,1,0,0:0:0:0:
256,192,31635,1,8,0:0:0:0:
256,192,31729,1,0,0:0:0:0:
256,192,31916,1,8,0:0:0:0:
256,192,32104,1,0,0:0:0:0:
256,192,32291,1,8,0:0:0:0:
254,186,32385,1,8,0:0:0:0:
254,186,32479,1,0,0:0:0:0:
256,192,32666,1,8,0:0:0:0:
256,192,32854,1,0,0:0:0:0:
256,192,32947,1,0,0:0:0:0:
256,192,33041,1,8,0:0:0:0:
256,192,33229,1,0,0:0:0:0:
256,192,33604,1,0,0:0:0:0:
256,192,33979,1,4,0:0:0:0:
256,192,34166,1,0,0:0:0:0:
256,192,34354,1,8,0:0:0:0:
256,192,34541,1,8,0:0:0:0:
256,192,34635,1,8,0:0:0:0:
256,192,34729,1,0,0:0:0:0:
256,192,34916,1,8,0:0:0:0:
256,192,35104,1,0,0:0:0:0:
256,192,35291,1,8,0:0:0:0:
256,192,35479,1,0,0:0:0:0:
256,192,35666,1,0,0:0:0:0:
256,192,35854,1,8,0:0:0:0:
256,192,36041,1,0,0:0:0:0:
256,192,36135,1,8,0:0:0:0:
256,192,36229,1,0,0:0:0:0:
256,192,36416,1,8,0:0:0:0:
256,192,36604,1,0,0:0:0:0:
256,192,36791,1,8,0:0:0:0:
256,192,36979,1,4,0:0:0:0:
256,192,37166,1,0,0:0:0:0:
256,192,37354,1,8,0:0:0:0:
256,192,37541,1,8,0:0:0:0:
256,192,37729,1,0,0:0:0:0:
256,192,37916,1,8,0:0:0:0:
256,192,38104,1,0,0:0:0:0:
256,192,38291,1,8,0:0:0:0:
256,192,38479,1,0,0:0:0:0:
256,192,38572,1,0,0:0:0:0:
256,192,38666,1,0,0:0:0:0:
256,192,38854,1,8,0:0:0:0:
256,192,39041,1,8,0:0:0:0:
256,192,39229,1,0,0:0:0:0:
256,192,39322,1,0,0:0:0:0:
256,192,39416,1,0,0:0:0:0:
256,192,39604,1,8,0:0:0:0:
256,192,39979,1,4,0:0:0:0:
256,192,40166,1,0,0:0:0:0:
256,192,40354,1,8,0:0:0:0:
256,192,40541,1,8,0:0:0:0:
256,192,40635,1,8,0:0:0:0:
256,192,40729,1,0,0:0:0:0:
256,192,40916,1,8,0:0:0:0:
256,192,41104,1,0,0:0:0:0:
256,192,41291,1,8,0:0:0:0:
256,192,41479,1,0,0:0:0:0:
256,192,41666,1,0,0:0:0:0:
256,192,41854,1,8,0:0:0:0:
256,192,42041,1,0,0:0:0:0:
256,192,42135,1,8,0:0:0:0:
256,192,42229,1,0,0:0:0:0:
256,192,42416,1,8,0:0:0:0:
256,192,42604,1,0,0:0:0:0:
256,192,42791,1,8,0:0:0:0:
256,192,42979,1,4,0:0:0:0:
256,192,43354,1,8,0:0:0:0:
256,192,43541,1,0,0:0:0:0:
256,192,43635,1,8,0:0:0:0:
256,192,43729,1,0,0:0:0:0:
256,192,43916,1,8,0:0:0:0:
256,192,44104,1,0,0:0:0:0:
256,192,44291,1,8,0:0:0:0:
256,192,44666,1,8,0:0:0:0:
256,192,44854,1,0,0:0:0:0:
256,192,44947,1,0,0:0:0:0:
256,192,45041,1,8,0:0:0:0:
256,192,45229,1,0,0:0:0:0:
256,192,45604,1,0,0:0:0:0:
256,192,45979,1,4,0:0:0:0:
256,192,46354,1,0,0:0:0:0:
256,192,46541,1,8,0:0:0:0:
256,192,46729,1,0,0:0:0:0:
256,192,46822,1,8,0:0:0:0:
256,192,46916,1,8,0:0:0:0:
256,192,47104,1,0,0:0:0:0:
256,192,47291,1,8,0:0:0:0:
256,192,47385,1,8,0:0:0:0:
256,192,47479,1,0,0:0:0:0:
256,192,47854,1,0,0:0:0:0:
256,192,48229,1,0,0:0:0:0:
256,192,48604,1,0,0:0:0:0:
256,192,48791,1,0,0:0:0:0:
256,192,48979,1,4,0:0:0:0:
256,192,49354,1,0,0:0:0:0:
256,192,49541,1,8,0:0:0:0:
256,192,49729,1,0,0:0:0:0:
256,192,49822,1,8,0:0:0:0:
256,192,49916,1,8,0:0:0:0:
256,192,50104,1,0,0:0:0:0:
256,192,50291,1,8,0:0:0:0:
256,192,50385,1,8,0:0:0:0:
256,192,50479,1,0,0:0:0:0:
256,192,50666,1,0,0:0:0:0:
256,192,51041,1,0,0:0:0:0:
256,192,51229,1,8,0:0:0:0:
256,192,51416,1,8,0:0:0:0:
256,192,51791,1,8,0:0:0:0:
256,192,51979,1,4,0:0:0:0:
256,192,52166,1,0,0:0:0:0:
256,192,52354,1,8,0:0:0:0:
256,192,52541,1,0,0:0:0:0:
256,192,52729,1,0,0:0:0:0:
256,192,52822,1,8,0:0:0:0:
256,192,52916,1,0,0:0:0:0:
256,192,53104,1,8,0:0:0:0:
256,192,53291,1,0,0:0:0:0:
256,192,53479,1,0,0:0:0:0:
256,192,53572,1,8,0:0:0:0:
256,192,53666,1,0,0:0:0:0:
256,192,53854,1,8,0:0:0:0:
256,192,54041,1,0,0:0:0:0:
256,192,54229,1,0,0:0:0:0:
256,192,54416,1,0,0:0:0:0:
256,192,54510,1,0,0:0:0:0:
256,192,54604,1,8,0:0:0:0:
256,192,54791,1,0,0:0:0:0:
256,192,54979,1,4,0:0:0:0:
256,192,55166,1,8,0:0:0:0:
256,192,55260,1,0,0:0:0:0:
256,192,55354,1,8,0:0:0:0:
256,192,55447,1,8,0:0:0:0:
256,192,55541,1,0,0:0:0:0:
256,192,55729,1,0,0:0:0:0:
256,192,55916,1,0,0:0:0:0:
256,192,56010,1,0,0:0:0:0:
256,192,56104,1,8,0:0:0:0:
256,192,56197,1,8,0:0:0:0:
256,192,56291,1,0,0:0:0:0:
256,192,56479,1,4,0:0:0:0:
256,192,57229,1,8,0:0:0:0:
256,192,57510,1,8,0:0:0:0:
256,192,57791,1,8,0:0:0:0:
256,192,57979,1,0,0:0:0:0:
256,192,58072,1,0,0:0:0:0:
256,192,58260,1,0,0:0:0:0:
256,192,58447,1,0,0:0:0:0:
256,192,58541,1,0,0:0:0:0:
256,192,58729,1,8,0:0:0:0:
256,192,58916,1,0,0:0:0:0:
256,192,59010,1,0,0:0:0:0:
256,192,59197,1,0,0:0:0:0:
256,192,59291,1,0,0:0:0:0:
256,192,59479,1,8,0:0:0:0:
256,192,59854,1,0,0:0:0:0:
256,192,60041,1,0,0:0:0:0:
256,192,60229,1,8,0:0:0:0:
256,192,60416,1,0,0:0:0:0:
256,192,60510,1,0,0:0:0:0:
256,192,60604,1,8,0:0:0:0:
256,192,60979,1,0,0:0:0:0:
256,192,61072,1,0,0:0:0:0:
256,192,61260,1,0,0:0:0:0:
256,192,61447,1,0,0:0:0:0:
256,192,61541,1,0,0:0:0:0:
256,192,61729,1,8,0:0:0:0:
256,192,61916,1,0,0:0:0:0:
256,192,62010,1,0,0:0:0:0:
256,192,62197,1,0,0:0:0:0:
256,192,62291,1,0,0:0:0:0:
256,192,62479,1,8,0:0:0:0:
256,192,62666,1,8,0:0:0:0:
256,192,63041,1,0,0:0:0:0:
256,192,63229,1,8,0:0:0:0:
256,192,63604,1,8,0:0:0:0:
256,192,63791,1,8,0:0:0:0:
256,192,63885,1,8,0:0:0:0:
256,192,63979,1,0,0:0:0:0:
256,192,64166,1,8,0:0:0:0:
256,192,64260,1,0,0:0:0:0:
256,192,64447,1,8,0:0:0:0:
256,192,64635,1,0,0:0:0:0:
256,192,64729,1,8,0:0:0:0:
256,192,64916,1,0,0:0:0:0:
256,192,65104,1,8,0:0:0:0:
256,192,65197,1,0,0:0:0:0:
256,192,65385,1,8,0:0:0:0:
256,192,65479,1,0,0:0:0:0:
256,192,65666,1,8,0:0:0:0:
256,192,65760,1,0,0:0:0:0:
256,192,65947,1,8,0:0:0:0:
256,192,66135,1,0,0:0:0:0:
256,192,66229,1,8,0:0:0:0:
256,192,66416,1,0,0:0:0:0:
256,192,66604,1,8,0:0:0:0:
256,192,66697,1,0,0:0:0:0:
256,192,66885,1,8,0:0:0:0:
256,192,66979,1,0,0:0:0:0:
256,192,67166,1,8,0:0:0:0:
256,192,67260,1,0,0:0:0:0:
256,192,67447,1,8,0:0:0:0:
256,192,67635,1,0,0:0:0:0:
256,192,67729,1,8,0:0:0:0:
256,192,67916,1,0,0:0:0:0:
256,192,68104,1,8,0:0:0:0:
256,192,68197,1,0,0:0:0:0:
256,192,68291,1,8,0:0:0:0:
256,192,68385,1,0,0:0:0:0:
256,192,68479,1,8,0:0:0:0:
256,192,68666,1,0,0:0:0:0:
256,192,68760,1,8,0:0:0:0:
256,192,69041,1,0,0:0:0:0:
256,192,69135,1,0,0:0:0:0:
256,192,69229,1,8,0:0:0:0:
256,192,69416,1,0,0:0:0:0:
256,192,69510,1,8,0:0:0:0:
256,192,69697,1,0,0:0:0:0:
256,192,69791,1,8,0:0:0:0:
256,192,69979,1,0,0:0:0:0:
256,192,70166,1,0,0:0:0:0:
256,192,70541,1,0,0:0:0:0:
256,192,70729,1,8,0:0:0:0:
256,192,70916,1,0,0:0:0:0:
256,192,71010,1,8,0:0:0:0:
256,192,71197,1,0,0:0:0:0:
256,192,71291,1,8,0:0:0:0:
256,192,71479,1,0,0:0:0:0:
256,192,72229,1,0,0:0:0:0:
256,192,72979,1,0,0:0:0:0:
256,192,73729,1,0,0:0:0:0:
256,192,74479,1,8,0:0:0:0:
256,192,74666,1,0,0:0:0:0:
256,192,74854,1,0,0:0:0:0:
256,192,75041,1,8,0:0:0:0:
256,192,75229,1,0,0:0:0:0:
256,192,75416,1,0,0:0:0:0:
256,192,75604,1,8,0:0:0:0:
256,192,75791,1,0,0:0:0:0:
256,192,75979,1,0,0:0:0:0:
256,192,76166,1,8,0:0:0:0:
256,192,76354,1,0,0:0:0:0:
256,192,76541,1,0,0:0:0:0:
256,192,76729,1,8,0:0:0:0:
256,192,76916,1,0,0:0:0:0:
256,192,77104,1,0,0:0:0:0:
256,192,77291,1,8,0:0:0:0:
256,192,77479,1,0,0:0:0:0:
256,192,77666,1,0,0:0:0:0:
256,192,77854,1,8,0:0:0:0:
256,192,78041,1,0,0:0:0:0:
256,192,78229,1,8,0:0:0:0:
256,192,78416,1,0,0:0:0:0:
256,192,78510,1,8,0:0:0:0:
256,192,78791,1,8,0:0:0:0:
256,192,79166,1,0,0:0:0:0:
256,192,79354,1,0,0:0:0:0:
256,192,79541,1,8,0:0:0:0:
256,192,79916,1,0,0:0:0:0:
256,192,80104,1,0,0:0:0:0:
256,192,80291,1,8,0:0:0:0:
256,192,80479,1,8,0:0:0:0:
256,192,80666,1,0,0:0:0:0:
256,192,80854,1,0,0:0:0:0:
256,192,81041,1,8,0:0:0:0:
256,192,81229,1,0,0:0:0:0:
256,192,81416,1,0,0:0:0:0:
256,192,81604,1,8,0:0:0:0:
256,192,81791,1,0,0:0:0:0:
256,192,81979,1,0,0:0:0:0:
256,192,82166,1,8,0:0:0:0:
256,192,82354,1,0,0:0:0:0:
256,192,82541,1,0,0:0:0:0:
256,192,82729,1,8,0:0:0:0:
256,192,82916,1,0,0:0:0:0:
256,192,83104,1,0,0:0:0:0:
256,192,83291,1,8,0:0:0:0:
256,192,83479,1,0,0:0:0:0:
256,192,83666,1,0,0:0:0:0:
256,192,83854,1,8,0:0:0:0:
256,192,84041,1,0,0:0:0:0:
256,192,84229,1,8,0:0:0:0:
256,192,84416,1,0,0:0:0:0:
256,192,84510,1,8,0:0:0:0:
256,192,84791,1,8,0:0:0:0:
256,192,85166,1,0,0:0:0:0:
256,192,85354,1,0,0:0:0:0:
256,192,85541,1,8,0:0:0:0:
256,192,85916,1,0,0:0:0:0:
256,192,86104,1,0,0:0:0:0:
256,192,86291,1,8,0:0:0:0:
256,192,86479,1,4,0:0:0:0:
256,192,86666,1,8,0:0:0:0:
256,192,87041,1,8,0:0:0:0:
256,192,87416,1,8,0:0:0:0:
256,192,87791,1,8,0:0:0:0:
256,192,88166,1,8,0:0:0:0:
256,192,88541,1,8,0:0:0:0:
256,192,88916,1,8,0:0:0:0:
256,192,89291,1,4,0:0:0:0:
256,192,89479,1,4,0:0:0:0:
256,192,89666,1,8,0:0:0:0:
256,192,90041,1,8,0:0:0:0:
256,192,90416,1,8,0:0:0:0:
256,192,90791,1,8,0:0:0:0:
256,192,90979,1,0,0:0:0:0:
256,192,91072,1,0,0:0:0:0:
256,192,91166,1,8,0:0:0:0:
256,192,91260,1,0,0:0:0:0:
256,192,91354,1,8,0:0:0:0:
256,192,91541,1,0,0:0:0:0:
256,192,91729,1,0,0:0:0:0:
256,192,91822,1,0,0:0:0:0:
256,192,91916,1,8,0:0:0:0:
256,192,92010,1,8,0:0:0:0:
256,192,92104,1,0,0:0:0:0:
256,192,92291,1,8,0:0:0:0:
256,192,92479,1,4,0:0:0:0:
256,192,93041,1,0,0:0:0:0:
256,192,93229,1,0,0:0:0:0:
256,192,93979,1,4,0:0:0:0:
256,192,94541,1,0,0:0:0:0:
256,192,94916,1,0,0:0:0:0:
256,192,95479,1,4,0:0:0:0:
256,192,95854,1,4,0:0:0:0:
256,192,96041,1,0,0:0:0:0:
256,192,96416,1,4,0:0:0:0:
256,192,96791,1,4,0:0:0:0:
256,192,96979,1,8,0:0:0:0:
256,192,97166,1,0,0:0:0:0:
256,192,97260,1,0,0:0:0:0:
256,192,97354,1,8,0:0:0:0:
256,192,97541,1,0,0:0:0:0:
256,192,97635,1,0,0:0:0:0:
256,192,97729,1,8,0:0:0:0:
256,192,97916,1,0,0:0:0:0:
256,192,98010,1,0,0:0:0:0:
256,192,98104,1,8,0:0:0:0:
256,192,98291,1,0,0:0:0:0:
256,192,98385,1,0,0:0:0:0:
256,192,98479,1,8,0:0:0:0:
256,192,98666,1,8,0:0:0:0:
256,192,98854,1,0,0:0:0:0:
256,192,99041,1,0,0:0:0:0:
256,192,99229,1,8,0:0:0:0:
256,192,99322,1,0,0:0:0:0:
256,192,99416,1,8,0:0:0:0:
256,192,99604,1,0,0:0:0:0:
256,192,99791,1,0,0:0:0:0:
256,192,99979,1,8,0:0:0:0:
256,192,100072,1,8,0:0:0:0:
256,192,100166,1,8,0:0:0:0:
256,192,100354,1,0,0:0:0:0:
256,192,100541,1,0,0:0:0:0:
256,192,100729,1,8,0:0:0:0:
256,192,100822,1,0,0:0:0:0:
256,192,100916,1,8,0:0:0:0:
256,192,101010,1,8,0:0:0:0:
256,192,101104,1,0,0:0:0:0:
256,192,101291,1,0,0:0:0:0:
256,192,101479,1,12,0:0:0:0:
256,192,101666,1,8,0:0:0:0:
256,192,101854,1,0,0:0:0:0:
256,192,102041,1,0,0:0:0:0:
256,192,102229,1,8,0:0:0:0:
256,192,102322,1,0,0:0:0:0:
256,192,102416,1,8,0:0:0:0:
256,192,102604,1,0,0:0:0:0:
256,192,102791,1,8,0:0:0:0:
256,192,103166,1,8,0:0:0:0:
256,192,103354,1,0,0:0:0:0:
256,192,103447,1,0,0:0:0:0:
256,192,103541,1,8,0:0:0:0:
256,192,103729,1,0,0:0:0:0:
256,192,103916,1,8,0:0:0:0:
256,192,104010,1,8,0:0:0:0:
256,192,104104,1,0,0:0:0:0:
256,192,104291,1,8,0:0:0:0:
256,192,104479,1,12,0:0:0:0:
256,192,104666,1,8,0:0:0:0:
256,192,104760,1,8,0:0:0:0:
256,192,104854,1,0,0:0:0:0:
256,192,105041,1,8,0:0:0:0:
256,192,105229,1,8,0:0:0:0:
256,192,105322,1,0,0:0:0:0:
256,192,105416,1,8,0:0:0:0:
256,192,105604,1,0,0:0:0:0:
256,192,105791,1,8,0:0:0:0:
256,192,105979,1,8,0:0:0:0:
256,192,106072,1,0,0:0:0:0:
256,192,106166,1,8,0:0:0:0:
256,192,106260,1,8,0:0:0:0:
256,192,106354,1,0,0:0:0:0:
256,192,106541,1,8,0:0:0:0:
256,192,106729,1,0,0:0:0:0:
256,192,106822,1,0,0:0:0:0:
256,192,106916,1,8,0:0:0:0:
256,192,107010,1,8,0:0:0:0:
256,192,107104,1,0,0:0:0:0:
256,192,107291,1,8,0:0:0:0:
256,192,107479,1,0,0:0:0:0:
256,192,107572,1,8,0:0:0:0:
256,192,107666,1,0,0:0:0:0:
256,192,107760,1,8,0:0:0:0:
256,192,107854,1,0,0:0:0:0:
256,192,108041,1,8,0:0:0:0:
256,192,108229,1,0,0:0:0:0:
256,192,108322,1,8,0:0:0:0:
256,192,108416,1,0,0:0:0:0:
256,192,108510,1,8,0:0:0:0:
256,192,108604,1,0,0:0:0:0:
256,192,108791,1,12,0:0:0:0:
256,192,109166,1,12,0:0:0:0:
256,192,109354,1,0,0:0:0:0:
256,192,109541,1,12,0:0:0:0:
256,192,109916,1,12,0:0:0:0:
256,192,110104,1,0,0:0:0:0:
256,192,110479,1,12,0:0:0:0:
256,192,110760,1,8,0:0:0:0:
256,192,111041,1,8,0:0:0:0:
256,192,111229,1,0,0:0:0:0:
256,192,111322,1,0,0:0:0:0:
256,192,111416,1,0,0:0:0:0:
256,192,111510,1,0,0:0:0:0:
256,192,111604,1,8,0:0:0:0:
256,192,111979,1,8,0:0:0:0:
256,192,112072,1,0,0:0:0:0:
256,192,112166,1,8,0:0:0:0:
256,192,112260,1,8,0:0:0:0:
256,192,112354,1,0,0:0:0:0:
256,192,112541,1,8,0:0:0:0:
256,192,112729,1,0,0:0:0:0:
256,192,113010,1,0,0:0:0:0:
256,192,113291,1,0,0:0:0:0:
256,192,113479,1,12,0:0:0:0:
256,192,113760,1,8,0:0:0:0:
256,192,114041,1,8,0:0:0:0:
256,192,114229,1,0,0:0:0:0:
256,192,114322,1,0,0:0:0:0:
256,192,114416,1,0,0:0:0:0:
256,192,114510,1,0,0:0:0:0:
256,192,114604,1,8,0:0:0:0:
256,192,114979,1,8,0:0:0:0:
256,192,115072,1,0,0:0:0:0:
256,192,115166,1,8,0:0:0:0:
256,192,115260,1,8,0:0:0:0:
256,192,115354,1,0,0:0:0:0:
256,192,115541,1,0,0:0:0:0:
256,192,115729,1,8,0:0:0:0:
256,192,116010,1,8,0:0:0:0:
256,192,116291,1,8,0:0:0:0:
256,192,116479,1,8,0:0:0:0:
256,192,116572,1,0,0:0:0:0:
256,192,116666,1,8,0:0:0:0:
256,192,116760,1,8,0:0:0:0:
256,192,116854,1,0,0:0:0:0:
256,192,117041,1,8,0:0:0:0:
256,192,117229,1,0,0:0:0:0:
256,192,117322,1,0,0:0:0:0:
256,192,117416,1,0,0:0:0:0:
256,192,117510,1,0,0:0:0:0:
256,192,117604,1,8,0:0:0:0:
256,192,117979,1,8,0:0:0:0:
256,192,118072,1,0,0:0:0:0:
256,192,118260,1,8,0:0:0:0:
256,192,118354,1,0,0:0:0:0:
256,192,118541,1,8,0:0:0:0:
256,192,118729,1,0,0:0:0:0:
256,192,118916,1,8,0:0:0:0:
256,192,119010,1,8,0:0:0:0:
256,192,119104,1,0,0:0:0:0:
256,192,119197,1,8,0:0:0:0:
256,192,119291,1,8,0:0:0:0:
256,192,119479,1,8,0:0:0:0:
256,192,119572,1,0,0:0:0:0:
256,192,119760,1,8,0:0:0:0:
256,192,119854,1,0,0:0:0:0:
256,192,120041,1,8,0:0:0:0:
256,192,120229,1,0,0:0:0:0:
256,192,120322,1,0,0:0:0:0:
256,192,120416,1,0,0:0:0:0:
256,192,120510,1,0,0:0:0:0:
256,192,120604,1,8,0:0:0:0:
256,192,120979,1,12,0:0:0:0:
256,192,121260,1,0,0:0:0:0:
256,192,121541,1,0,0:0:0:0:
256,192,121729,1,12,0:0:0:0:
256,192,122010,1,0,0:0:0:0:
256,192,122291,1,0,0:0:0:0:
256,192,122479,1,12,0:0:0:0:
256,192,122760,1,0,0:0:0:0:
256,192,123041,1,0,0:0:0:0:
256,192,123229,1,12,0:0:0:0:
256,192,123510,1,0,0:0:0:0:
256,192,123697,1,0,0:0:0:0:
256,192,123791,1,8,0:0:0:0:
