osu file format v14

[General]
AudioFilename: audio.mp3
AudioLeadIn: 0
PreviewTime: 21969
Countdown: 0
SampleSet: Normal
StackLeniency: 0.7
Mode: 1
LetterboxInBreaks: 0
WidescreenStoryboard: 0

[Editor]
DistanceSpacing: 2
BeatDivisor: 2
GridSize: 32
TimelineZoom: 1.1

[Metadata]
Title:Cross Time !!
TitleUnicode:Cross Time !!
Artist:Brandy
ArtistUnicode:Brandy
Creator:Konpaku Sariel
Version:Kantan
Source:O2Jam
Tags:U PIU HIGH5 EZ2AC Pump It Up 2017 Prime 2 Patch 1.10 XROSS TAPSONIC WORLD CHAMPION EuNyack Nanako*Syndrome ECON
BeatmapID:1949347
BeatmapSetID:933765

[Difficulty]
HPDrainRate:7
CircleSize:4
OverallDifficulty:3
ApproachRate:5
SliderMultiplier:1.4
SliderTickRate:1

[Events]
//Background and Video events
0,0,"Cross Time.jpg",0,0
Video,750,"crosstimetaikovideo.mp4"
//Break Periods
//Storyboard Layer 0 (Background)
//Storyboard Layer 1 (Fail)
//Storyboard Layer 2 (Pass)
//Storyboard Layer 3 (Foreground)
//Storyboard Sound Samples

[TimingPoints]
979,375,4,1,0,80,1,0
21979,375,4,1,0,80,1,1
45979,-100,4,1,0,80,0,0
71479,750,4,1,0,80,1,0
71479,-50,4,1,0,80,0,0
74479,375,4,1,0,80,1,0
98479,-100,4,1,0,80,0,1
110479,-100,4,1,0,80,0,0

[HitObjects]
256,192,979,5,12,0:0:0:0:
256,192,1729,1,8,0:0:0:0:
256,192,2479,1,8,0:0:0:0:
256,192,3979,1,0,0:0:0:0:
256,192,4729,1,0,0:0:0:0:
256,192,5479,1,0,0:0:0:0:
256,192,6979,1,12,0:0:0:0:
256,192,7354,1,0,0:0:0:0:
256,192,7729,1,8,0:0:0:0:
256,192,8479,1,8,0:0:0:0:
256,192,9979,1,0,0:0:0:0:
256,192,10729,1,0,0:0:0:0:
256,192,11479,1,0,0:0:0:0:
256,192,12604,1,8,0:0:0:0:
256,192,12979,1,0,0:0:0:0:
256,192,13729,1,8,0:0:0:0:
256,192,14479,1,0,0:0:0:0:
256,192,14854,1,0,0:0:0:0:
256,192,15229,1,8,0:0:0:0:
256,192,15979,1,0,0:0:0:0:
256,192,16354,1,0,0:0:0:0:
256,192,16729,1,8,0:0:0:0:
256,192,17104,1,8,0:0:0:0:
256,192,17479,1,4,0:0:0:0:
256,192,18979,1,0,0:0:0:0:
256,192,19729,1,0,0:0:0:0:
256,192,20479,1,0,0:0:0:0:
256,192,21229,1,12,0:0:0:0:
256,192,21979,1,4,0:0:0:0:
256,192,23104,1,0,0:0:0:0:
256,192,23479,1,0,0:0:0:0:
256,192,24229,1,8,0:0:0:0:
256,192,24979,1,0,0:0:0:0:
256,192,25729,1,0,0:0:0:0:
64,208,26479,2,0,L|368:208,1,280
256,192,27979,1,4,0:0:0:0:
256,192,29104,1,0,0:0:0:0:
256,192,29479,1,0,0:0:0:0:
256,192,30229,1,8,0:0:0:0:
256,192,30979,1,0,0:0:0:0:
256,192,31354,1,8,0:0:0:0:
256,192,31729,1,0,0:0:0:0:
256,192,32479,12,0,33604,0:0:0:0:
256,192,33979,5,4,0:0:0:0:
256,192,34729,1,8,0:0:0:0:
256,192,35104,1,8,0:0:0:0:
256,192,35479,1,0,0:0:0:0:
256,192,36229,1,8,0:0:0:0:
256,192,36979,1,4,0:0:0:0:
256,192,37729,1,0,0:0:0:0:
256,192,38104,1,0,0:0:0:0:
256,192,38479,1,8,0:0:0:0:
256,192,39604,1,0,0:0:0:0:
256,192,39979,1,4,0:0:0:0:
256,192,40729,1,8,0:0:0:0:
256,192,41104,1,8,0:0:0:0:
256,192,41479,1,0,0:0:0:0:
256,192,42229,1,8,0:0:0:0:
256,192,42979,1,4,0:0:0:0:
256,192,44104,1,8,0:0:0:0:
256,192,44479,1,4,0:0:0:0:
256,192,45229,1,4,0:0:0:0:
256,192,45979,1,4,0:0:0:0:
256,192,46729,1,8,0:0:0:0:
256,192,47479,1,0,0:0:0:0:
256,192,48229,1,8,0:0:0:0:
256,192,48979,1,0,0:0:0:0:
256,192,49729,1,8,0:0:0:0:
256,192,50479,1,0,0:0:0:0:
256,192,51979,1,4,0:0:0:0:
256,192,52729,1,0,0:0:0:0:
256,192,53479,1,0,0:0:0:0:
256,192,53854,1,8,0:0:0:0:
256,192,54229,1,0,0:0:0:0:
256,192,54979,1,4,0:0:0:0:
256,192,55729,1,0,0:0:0:0:
256,192,56479,1,4,0:0:0:0:
256,192,57979,1,0,0:0:0:0:
256,192,58729,1,8,0:0:0:0:
256,192,59479,1,0,0:0:0:0:
256,192,60229,1,8,0:0:0:0:
256,192,60604,1,8,0:0:0:0:
256,192,60979,1,0,0:0:0:0:
256,192,61729,1,8,0:0:0:0:
256,192,62479,1,0,0:0:0:0:
256,192,63604,1,8,0:0:0:0:
256,192,63979,1,0,0:0:0:0:
256,192,64354,1,0,0:0:0:0:
256,192,64729,1,8,0:0:0:0:
256,192,65479,1,8,0:0:0:0:
256,192,65854,1,0,0:0:0:0:
256,192,66229,1,8,0:0:0:0:
256,192,66979,1,0,0:0:0:0:
256,192,67354,1,0,0:0:0:0:
256,192,67729,1,8,0:0:0:0:
256,192,68479,1,0,0:0:0:0:
256,192,69229,1,8,0:0:0:0:
256,192,69979,1,0,0:0:0:0:
256,192,70729,1,8,0:0:0:0:
256,192,71479,1,0,0:0:0:0:
256,192,74479,1,8,0:0:0:0:
256,192,75229,1,8,0:0:0:0:
256,192,75979,1,8,0:0:0:0:
256,192,76729,1,8,0:0:0:0:
256,192,77479,1,8,0:0:0:0:
256,192,77854,1,0,0:0:0:0:
256,192,78229,1,8,0:0:0:0:
256,192,78604,1,8,0:0:0:0:
256,192,78979,1,8,0:0:0:0:
256,192,80479,1,8,0:0:0:0:
256,192,81229,1,8,0:0:0:0:
256,192,81979,1,8,0:0:0:0:
256,192,82729,1,8,0:0:0:0:
256,192,83479,1,8,0:0:0:0:
256,192,83854,1,0,0:0:0:0:
256,192,84229,1,8,0:0:0:0:
256,192,84604,1,8,0:0:0:0:
256,192,84979,1,8,0:0:0:0:
256,192,86479,1,4,0:0:0:0:
256,192,86854,12,0,87979,0:0:0:0:
256,192,89479,5,4,0:0:0:0:
160,176,90979,2,0,L|448:176,1,280
256,192,92479,1,4,0:0:0:0:
256,192,93229,1,0,0:0:0:0:
256,192,93979,1,4,0:0:0:0:
256,192,94729,1,0,0:0:0:0:
256,192,95479,1,4,0:0:0:0:
256,192,95854,12,0,97729,0:0:0:0:
256,192,98479,5,4,0:0:0:0:
256,192,99229,1,8,0:0:0:0:
256,192,99979,1,0,0:0:0:0:
256,192,100354,1,0,0:0:0:0:
256,192,100729,1,8,0:0:0:0:
256,192,101479,1,4,0:0:0:0:
256,192,102229,1,8,0:0:0:0:
256,192,102979,1,0,0:0:0:0:
256,192,104479,1,4,0:0:0:0:
256,192,105229,1,8,0:0:0:0:
256,192,105979,1,0,0:0:0:0:
256,192,106354,1,0,0:0:0:0:
256,192,106729,1,8,0:0:0:0:
256,192,107104,1,8,0:0:0:0:
68,199,107479,2,0,L|365:196,2,280
256,192,110479,5,4,0:0:0:0:
256,192,111229,1,0,0:0:0:0:
256,192,111604,1,0,0:0:0:0:
256,192,111979,1,0,0:0:0:0:
256,192,112354,1,0,0:0:0:0:
256,192,112729,1,0,0:0:0:0:
256,192,113479,1,12,0:0:0:0:
256,192,114229,1,8,0:0:0:0:
256,192,114604,1,8,0:0:0:0:
256,192,114979,1,8,0:0:0:0:
256,192,116479,1,4,0:0:0:0:
256,192,117229,1,8,0:0:0:0:
256,192,117604,1,8,0:0:0:0:
256,192,117979,1,0,0:0:0:0:
256,192,118354,1,0,0:0:0:0:
256,192,118729,1,8,0:0:0:0:
256,192,119479,1,4,0:0:0:0:
256,192,120229,1,8,0:0:0:0:
256,192,120604,1,8,0:0:0:0:
256,192,120979,1,4,0:0:0:0:
256,192,121729,1,4,0:0:0:0:
256,192,122479,1,4,0:0:0:0:
256,192,123229,1,4,0:0:0:0:
