osu file format v14

[General]
AudioFilename: audio.mp3
AudioLeadIn: 0
PreviewTime: 260664
Countdown: 0
SampleSet: Normal
StackLeniency: 0.7
Mode: 2
LetterboxInBreaks: 0
StoryFireInFront: 0
EpilepsyWarning: 1
WidescreenStoryboard: 1

[Editor]
Bookmarks: 300778
DistanceSpacing: 1
BeatDivisor: 4
GridSize: 8
TimelineZoom: 2.1

[Metadata]
Title:Legacy of Grabbag
TitleUnicode:Legacy of Grabbag
Artist:Brandon Blume
ArtistUnicode:Brandon Blume
Creator:Astreachan
Version:It's time to kick ass and chew bubble-gum!
Source:Duke Nukem
Tags:3D PC Megadeth Gigadeth Lee Jackson Atomic Edition Forever 2007 Teaser Theme Zero Hour Bonus Duke3D Metal Cover Medley Nintendo 64 Playstation 3D Realms Gearbox Jon St. John DOS MAC OS Saturn Xbox 360 Apogee Software FormGen GT Interactive Android IPhone Linux Mega Drive Genesis Game.com Vita PS3
BeatmapID:1586832
BeatmapSetID:668451

[Difficulty]
HPDrainRate:7
CircleSize:4
OverallDifficulty:9.3
ApproachRate:9.3
SliderMultiplier:1.7
SliderTickRate:1

[Events]
//Background and Video events
0,0,"Duke Nukem.jpg",0,0
//Break Periods
//Storyboard Layer 0 (Background)
//Storyboard Layer 1 (Fail)
//Storyboard Layer 2 (Pass)
//Storyboard Layer 3 (Foreground)
//Storyboard Layer 4 (Overlay)
//Storyboard Sound Samples
Sample,92,0,"out_of_gum_x.wav",100
Sample,12435,0,"readyaction.wav",100
Sample,28892,0,"ugly.wav",100
Sample,45349,0,"public.wav",50
Sample,66092,0,"lets_rock.wav",100
Sample,96092,0,"hail.wav",100
Sample,118035,0,"hell.wav",100
Sample,129349,0,"hurt.wav",100
Sample,145463,0,"public.wav",50
Sample,145464,0,"lets_rock.wav",100
Sample,156435,0,"annoying.wav",100
Sample,161921,0,"dukenukem.wav",100
Sample,183864,0,"public.wav",50
Sample,211292,0,"hail.wav",70
Sample,222264,0,"out_of_gum_x.wav",70
Sample,227749,0,"public.wac",50
Sample,227749,0,"public.wav",50
Sample,238721,0,"readyaction.wav",100
Sample,260664,0,"hail.wav",100
Sample,260664,0,"public.wav",50
Sample,276949,0,"public.wav",50
Sample,282606,0,"public.wav",70
Sample,282606,0,"lets_rock.wav",100
Sample,288092,0,"hail.wav",100
Sample,290149,0,"holyshit.wav",100
Sample,305235,0,"gameover.wav",100

[TimingPoints]
1464,342.857142857143,4,1,1,60,1,0
12435,-100,4,1,2,60,0,1
28892,-100,4,1,2,60,0,0
34378,-100,4,1,2,60,0,1
56321,-100,4,1,2,60,0,0
78264,-100,4,1,2,60,0,1
90606,-120.481927710843,4,1,2,60,0,0
93092,-120.481927710843,4,1,2,5,0,0
93264,-120.481927710843,4,1,2,60,0,0
95835,-120.481927710843,4,1,2,5,0,0
96006,-120.481927710843,4,1,2,60,0,0
107064,-100,4,1,2,60,0,0
145121,171.428571428571,4,1,2,60,1,0
145121,-100,4,1,2,60,0,0
145464,342.857142857143,4,1,2,60,1,1
156435,-72.992700729927,4,1,2,60,0,0
160549,-100,4,1,2,60,0,0
161921,-133.333333333333,4,1,2,60,0,0
206492,-72.992700729927,4,1,0,60,0,0
208549,-100,4,1,2,60,0,0
208635,-72.992700729927,4,1,0,60,0,0
209749,-100,4,1,2,60,0,0
260664,-100,4,1,2,60,0,1
275578,-100,4,1,2,60,0,0
277464,-100,4,1,2,60,0,1
282606,-66.6666666666667,4,1,2,60,0,1
288092,-50,4,1,2,60,0,1
293578,-100,4,1,2,60,0,0
303092,-100,4,1,2,10,0,0

[Colours]
Combo1 : 0,128,192
Combo2 : 255,0,0
Combo3 : 255,255,0

[HitObjects]
320,192,92,5,0,0:0:0:0:
208,192,435,5,0,0:0:0:0:
96,184,778,5,0,0:0:0:90:bubblegum.wav
469,212,949,5,8,0:0:0:0:
424,208,1006,1,8,0:0:0:0:
368,208,1063,1,8,0:0:0:0:
308,208,1121,2,0,L|156:208,1,127.5,8|0,0:0|0:0,0:0:0:0:
392,160,1464,2,0,L|480:160,2,85,4|0|8,0:0|0:0|0:0,0:0:0:0:
136,192,1978,1,0,0:0:0:0:
64,160,2149,1,0,0:0:0:0:
136,192,2321,1,0,0:0:0:0:
368,192,2492,6,0,L|464:192,1,85,8|0,0:0|0:0,0:0:0:0:
368,152,2835,1,0,0:0:0:0:
104,176,3006,2,0,L|16:176,1,85,0|8,0:0|0:0,0:0:0:0:
144,176,3349,1,0,0:0:0:0:
400,184,3521,2,0,L|496:184,1,85
376,184,3863,1,8,0:0:0:0:
112,176,4035,2,0,L|24:176,1,85
328,192,4378,5,0,0:0:0:0:
440,192,4549,1,8,0:0:0:0:
128,192,4721,2,0,L|240:192,1,85
328,184,5064,1,0,0:0:0:0:
413,184,5235,1,8,0:0:0:0:
136,184,5406,2,0,L|48:184,1,85
360,208,5749,1,4,0:0:0:0:
432,192,5921,1,8,0:0:0:0:
368,184,6092,1,0,0:0:0:0:
112,176,6264,2,0,L|208:176,1,85,12|0,0:0|0:0,0:0:0:0:
104,240,6606,5,8,0:0:0:0:
32,216,6692,1,8,0:0:0:0:
32,160,6778,1,8,0:0:0:0:
104,120,6863,1,8,0:0:0:0:
288,120,6949,5,12,0:0:0:0:
384,128,7121,2,0,L|472:128,1,85,0|8,0:0|0:0,0:0:0:0:
152,144,7464,1,0,0:0:0:0:
64,144,7635,1,0,0:0:0:0:
152,144,7806,1,0,0:0:0:0:
384,128,7978,6,0,L|480:128,2,85,8|0|0,0:0|0:0|0:0,0:0:0:0:
112,144,8492,2,0,B|72:128|48:128|48:128|96:128,1,85,0|8,0:0|0:0,0:0:0:0:
160,136,8835,1,0,0:0:0:0:
400,136,9006,2,0,B|464:144|464:144|464:120,1,85
320,128,9349,1,8,0:0:0:0:
48,144,9521,2,0,B|8:128|64:128|64:128|80:96,1,85
336,144,9864,6,0,L|424:144,1,85,0|8,0:0|0:0,0:0:0:0:
144,152,10206,2,0,L|48:152,1,85
368,136,10549,2,0,L|456:136,2,85,0|8|0,0:0|0:0|0:0,0:0:0:0:
88,168,11064,6,8,B|40:120|40:120|96:112,1,85,12|8,0:0|0:0,0:0:0:0:
128,128,11321,1,8,0:0:0:0:
384,192,11406,2,8,B|448:168|448:168|392:160,1,85,12|8,0:0|0:0,0:0:0:0:
352,160,11664,1,8,0:0:0:0:
72,176,11749,2,8,B|40:144|40:144|96:144,1,85,12|8,0:0|0:0,0:0:0:0:
328,224,12006,1,12,0:0:0:0:
400,200,12092,1,8,0:0:0:0:
456,152,12178,1,8,0:0:0:0:
464,104,12264,1,8,0:0:0:0:
416,80,12349,1,8,0:0:0:0:
88,80,12435,6,0,B|48:96|48:96|112:104,1,85,4|0,0:0|0:0,0:0:0:100:readyaction.wav
424,136,12778,2,0,L|320:136,3,85,8|0|0|0,0:0|0:0|0:0|0:0,0:0:0:0:
59,144,13464,2,0,L|144:144,1,85,8|0,0:0|0:0,0:0:0:0:
59,144,13806,1,0,0:0:0:0:
384,136,13978,2,0,L|472:136,2,85,0|8|0,0:0|0:0|0:0,0:0:0:0:
152,136,14492,6,0,L|246:136,1,85
360,136,14835,1,8,0:0:0:0:
128,136,15006,2,0,L|24:136,2,85
424,152,15521,2,0,L|336:152,1,85,8|0,0:0|0:0,0:0:0:0:
240,152,15864,1,0,0:0:0:0:
424,152,16035,1,0,0:0:0:0:
43,168,16206,6,0,L|128:168,2,85,8|0|0,0:0|0:0|0:0,0:0:0:0:
384,184,16721,2,0,L|480:184,1,85,0|8,0:0|0:0,0:0:0:0:
144,176,17064,2,0,L|40:176,1,85
384,184,17406,2,0,L|472:184,2,85,0|8|0,0:0|0:0|0:0,0:0:0:0:
128,184,17921,2,0,L|32:184,1,85,4|0,0:0|0:0,0:0:0:0:
320,216,18264,6,0,L|384:216,2,42.5,8|0|0,0:0|0:0|0:0,0:0:0:0:
88,168,18606,1,0,0:0:0:0:
365,160,18778,2,0,L|469:160,1,85,0|8,0:0|0:0,0:0:0:0:
43,160,19121,2,0,L|128:160,1,85
432,144,19464,6,0,L|347:144,1,85,0|8,0:0|0:0,0:0:0:0:
80,144,19806,2,0,L|165:144,1,85
464,176,20149,2,0,L|376:176,1,85,0|8,0:0|0:0,0:0:0:0:
464,176,20492,1,0,0:0:0:0:
152,136,20664,6,0,L|64:136,2,85,4|0|8,0:0|0:0|0:0,0:0:0:0:
456,160,21178,2,0,L|371:160,1,85
80,152,21521,2,0,L|165:152,1,85,0|8,0:0|0:0,0:0:0:0:
421,144,21864,2,0,L|336:144,1,85
75,144,22206,6,0,L|160:144,1,85,4|8,0:0|0:0,0:0:0:0:
405,144,22549,2,0,L|320:144,1,85
40,144,22892,2,0,L|125:144,1,85,0|8,0:0|0:0,0:0:0:0:
24,144,23235,1,0,0:0:0:0:
432,152,23406,5,8,0:0:0:0:
48,144,23578,1,8,0:0:0:0:
128,136,23749,1,0,0:0:0:0:
400,176,23921,1,8,0:0:0:0:
470,176,24092,2,0,L|360:176,1,85
40,168,24435,5,8,0:0:0:0:
472,160,24606,1,8,0:0:0:0:
384,120,24778,1,0,0:0:0:0:
40,136,24949,1,8,0:0:0:0:
336,264,25121,5,8,0:0:0:0:
384,264,25206,1,0,0:0:0:0:
432,256,25292,1,8,0:0:0:0:
384,216,25378,1,0,0:0:0:0:
176,216,25464,6,0,L|80:216,1,85,8|8,0:0|0:0,0:0:0:0:
368,272,25721,1,0,0:0:0:0:
432,192,25806,1,8,0:0:0:0:
480,80,25892,1,0,0:0:0:0:
400,24,25978,1,8,0:0:0:0:
40,176,26149,5,8,0:0:0:0:
472,176,26321,1,8,0:0:0:0:
416,160,26492,1,0,0:0:0:0:
40,168,26664,1,8,0:0:0:0:
128,168,26835,2,0,L|216:168,1,85
472,168,27178,5,8,0:0:0:0:
40,144,27349,1,8,0:0:0:0:
128,152,27521,1,0,0:0:0:0:
472,144,27692,1,8,0:0:0:0:
136,208,27864,5,8,0:0:0:0:
96,208,27949,1,0,0:0:0:0:
48,208,28035,1,8,0:0:0:0:
96,208,28121,1,0,0:0:0:0:
392,224,28206,5,8,0:0:0:0:
448,224,28292,1,0,0:0:0:0:
304,208,28378,1,8,0:0:0:0:
248,208,28464,1,0,0:0:0:0:
96,208,28549,5,8,0:0:0:0:
64,184,28635,1,0,0:0:0:0:
56,144,28721,1,8,0:0:0:0:
104,112,28806,1,0,0:0:0:0:
248,120,28892,6,0,L|344:120,1,85,12|0,0:0|0:0,0:0:0:100:ugly.wav
400,128,29235,1,8,0:0:0:0:
136,128,29406,2,0,L|40:128,2,85
240,136,29921,1,8,0:0:0:0:
480,144,30092,2,0,L|395:144,1,85
136,160,30435,2,0,L|48:160,1,85,0|8,0:0|0:0,0:0:0:0:
136,160,30778,1,0,0:0:0:0:
392,152,30949,2,0,L|496:152,1,85
360,152,31292,5,8,0:0:0:0:
112,176,31464,2,0,L|8:176,1,85
352,176,31806,1,0,0:0:0:0:
488,168,31978,1,8,0:0:0:0:
128,176,32149,2,0,B|93:205|93:205|53:205,2,85
384,176,32664,6,0,L|488:176,1,85,8|0,0:0|0:0,0:0:0:0:
184,168,33006,2,0,L|96:168,1,85,12|0,0:0|0:0,0:0:0:0:
240,160,33349,1,8,0:0:0:0:
392,160,33521,1,0,0:0:0:0:
144,160,33692,1,12,0:0:0:0:
376,216,33864,5,8,0:0:0:0:
416,208,33949,1,8,0:0:0:0:
464,184,34035,1,8,0:0:0:0:
304,216,34121,1,8,0:0:0:0:
256,200,34206,1,8,0:0:0:0:
216,176,34292,1,8,0:0:0:0:
72,136,34378,6,0,B|40:120|40:120|96:120,1,85,4|0,0:0|0:0,0:0:0:0:
192,128,34721,1,8,0:0:0:0:
472,176,34892,2,0,B|436:181|436:181|388:189,2,85
72,192,35406,2,0,B|32:176|32:176|96:168,1,85,8|0,0:0|0:0,0:0:0:0:
144,168,35749,1,0,0:0:0:0:
388,189,35921,2,0,B|436:181|436:181|472:176,2,85,0|8|0,0:0|0:0|0:0,0:0:0:0:
128,176,36435,6,0,L|40:176,1,85
43,176,36777,1,8,0:0:0:0:
384,176,36949,2,0,L|488:176,2,85
224,160,37464,2,0,L|309:160,2,85,8|0|0,0:0|0:0|0:0,0:0:0:0:
35,184,37978,2,0,L|120:184,1,85,0|8,0:0|0:0,0:0:0:0:
392,184,38321,6,0,L|480:184,1,85
312,184,38664,1,0,0:0:0:0:
112,184,38835,1,12,0:0:0:0:
56,160,39006,1,0,0:0:0:0:
400,184,39178,2,0,L|496:184,1,85
368,184,39521,1,8,0:0:0:0:
464,192,39692,1,0,0:0:0:0:
160,184,39864,1,4,0:0:0:0:
272,176,40035,1,0,0:0:0:0:
120,176,40206,6,0,L|32:176,2,85,8|0|0,0:0|0:0|0:0,0:0:0:0:
392,192,40721,2,0,L|480:192,1,85,0|8,0:0|0:0,0:0:0:0:
128,216,41064,2,0,L|128:128,1,85
416,232,41406,2,0,L|456:136,1,85,0|8,0:0|0:0,0:0:0:0:
120,216,41749,2,0,L|32:152,1,85
416,224,42092,2,0,L|312:224,2,85,0|8|0,0:0|0:0|0:0,0:0:0:0:
56,192,42606,5,0,0:0:0:0:
320,192,42778,1,0,0:0:0:0:
416,184,42949,1,8,0:0:0:0:
160,192,43121,1,0,0:0:0:0:
104,144,43292,1,0,0:0:0:0:
248,200,43463,1,0,0:0:0:0:
160,192,43634,1,8,0:0:0:0:
64,208,43806,1,0,0:0:0:0:
304,216,43977,1,4,0:0:0:0:
384,216,44149,5,0,0:0:0:0:
456,216,44321,1,8,0:0:0:0:
296,216,44492,1,0,0:0:0:0:
456,216,44664,1,8,0:0:0:0:
200,216,44835,1,0,0:0:0:0:
456,216,45006,1,8,0:0:0:0:
72,216,45178,1,0,0:0:0:0:
304,192,45349,6,0,L|389:192,1,85,4|0,0:0|0:0,0:0:0:50:public.mp3
251,192,45692,1,8,0:0:0:0:
387,200,45864,2,0,L|475:200,2,85
43,200,46378,1,8,0:0:0:0:
128,200,46549,2,0,L|32:200,1,85
437,208,46892,2,0,L|352:208,2,85,0|8|0,0:0|0:0|0:0,0:0:0:0:
144,208,47406,5,0,0:0:0:0:
312,216,47578,1,0,0:0:0:0:
437,208,47749,1,8,0:0:0:0:
264,192,47921,2,0,L|168:192,2,85
144,192,48435,1,8,0:0:0:0:
40,176,48606,1,0,0:0:0:0:
227,192,48778,1,0,0:0:0:0:
40,176,48949,1,0,0:0:0:0:
144,192,49121,1,8,0:0:0:0:
392,208,49292,6,0,L|488:208,1,85,4|0,0:0|0:0,0:0:0:0:
120,200,49635,2,0,L|32:200,1,85,0|8,0:0|0:0,0:0:0:0:
392,208,49978,2,0,L|480:208,1,85,4|0,0:0|0:0,0:0:0:0:
136,192,50321,2,0,L|32:192,1,85,0|8,0:0|0:0,0:0:0:0:
344,232,50663,2,0,P|400:200|432:96,1,170,4|0,0:0|0:0,0:0:0:0:
144,200,51178,6,0,L|48:200,2,85,8|0|0,0:0|0:0|0:0,0:0:0:0:
384,216,51692,2,0,L|488:216,1,85,0|8,0:0|0:0,0:0:0:0:
96,208,52035,2,0,L|192:208,1,85
416,208,52378,2,0,L|328:208,1,85,0|8,0:0|0:0,0:0:0:0:
35,184,52721,2,0,L|120:184,2,85
360,200,53235,6,0,L|448:200,1,85,8|0,0:0|0:0,0:0:0:0:
152,184,53578,2,0,L|248:184,1,85
112,184,53921,1,8,0:0:0:0:
472,200,54092,1,0,0:0:0:0:
216,176,54264,1,0,0:0:0:0:
96,176,54435,2,0,L|96:88,1,85,0|8,0:0|0:0,0:0:0:0:
376,152,54778,1,0,0:0:0:0:
32,184,54949,5,0,0:0:0:0:
400,216,55121,1,4,0:0:0:0:
40,240,55292,2,0,L|40:155,1,85,8|0,0:0|0:0,0:0:0:0:
400,248,55635,2,0,L|400:163,1,85
96,248,55978,2,0,L|54:248,2,42.5,8|0|0,0:0|0:0|0:0,0:0:0:0:
472,224,56321,5,8,0:0:0:0:
40,200,56492,1,8,0:0:0:0:
472,200,56835,1,8,0:0:0:0:
40,184,57349,5,8,0:0:0:0:
472,200,57521,1,8,0:0:0:0:
40,184,57864,1,8,0:0:0:0:
40,216,58206,5,8,0:0:0:0:
272,208,58378,2,8,L|357:208,1,85
112,240,58721,1,8,0:0:0:0:
96,224,58806,1,8,0:0:0:0:
88,192,58892,1,8,0:0:0:0:
96,152,58978,1,8,0:0:0:0:
112,128,59064,1,8,0:0:0:0:
472,176,59235,1,8,0:0:0:0:
40,184,59578,1,8,0:0:0:0:
472,168,60092,5,8,0:0:0:0:
40,168,60264,1,8,0:0:0:0:
472,168,60606,1,12,0:0:0:0:
176,192,61464,5,8,0:0:0:0:
56,192,61806,1,8,0:0:0:0:
176,192,62149,1,8,0:0:0:0:
56,192,62492,1,8,0:0:0:0:
336,208,62835,5,8,0:0:0:0:
448,216,63178,1,8,0:0:0:0:
336,208,63521,1,8,0:0:0:0:
392,216,63692,1,8,0:0:0:0:
448,216,63864,1,8,0:0:0:0:
296,216,63949,1,8,0:0:0:0:
280,200,64035,1,8,0:0:0:0:
248,184,64121,1,8,0:0:0:0:
88,208,64206,5,8,0:0:0:0:
48,184,64292,1,8,0:0:0:0:
72,160,64378,1,8,0:0:0:0:
112,144,64464,1,8,0:0:0:0:
256,208,64549,2,8,L|352:208,1,85
400,200,64892,1,8,0:0:0:0:
480,176,65064,2,8,L|368:176,1,85
160,176,65406,1,8,0:0:0:0:
40,168,65578,5,12,0:0:0:0:
472,184,65749,1,12,0:0:0:0:
40,224,66092,2,8,B|40:144|40:144|48:128|64:128|296:128,1,340,12|8,0:0|0:0,0:0:0:0:
320,128,66864,1,8,0:0:0:0:
472,120,66949,2,0,L|296:120,1,170,12|0,0:0|0:0,0:0:0:0:
40,152,67464,5,0,0:0:0:0:
144,152,67635,1,8,0:0:0:0:
376,160,67806,2,0,L|464:160,2,85
144,168,68321,2,0,L|56:176,1,85,8|0,0:0|0:0,0:0:0:0:
160,168,68664,1,0,0:0:0:0:
392,184,68835,2,0,L|496:184,1,85,0|8,0:0|0:0,0:0:0:0:
360,184,69178,6,0,L|448:184,2,85
88,184,69692,1,8,0:0:0:0:
336,184,69864,2,0,L|424:184,1,85
128,184,70206,1,0,0:0:0:0:
80,152,70378,1,8,0:0:0:0:
336,192,70549,2,0,L|432:192,4,85,0|0|0|8|0,0:0|0:0|0:0|0:0|0:0,0:0:0:0:
64,192,71406,6,0,B|56:144|48:136|216:144,1,170,4|8,0:0|0:0,0:0:0:0:
64,184,71921,1,8,0:0:0:0:
400,264,72092,5,0,0:0:0:0:
432,248,72177,1,0,0:0:0:0:
384,224,72263,1,0,0:0:0:0:
328,208,72349,1,8,0:0:0:0:
104,208,72435,1,8,0:0:0:0:
104,176,72521,1,8,0:0:0:0:
144,136,72606,1,8,0:0:0:0:
192,120,72692,1,8,0:0:0:0:
392,144,72778,6,0,L|488:144,1,85,4|0,0:0|0:0,0:0:0:0:
352,152,73121,1,8,0:0:0:0:
120,144,73292,2,0,L|16:144,1,85
160,144,73635,1,0,0:0:0:0:
392,152,73806,2,0,L|480:152,1,85,8|0,0:0|0:0,0:0:0:0:
360,152,74149,1,0,0:0:0:0:
120,152,74321,2,0,L|32:152,1,85,0|8,0:0|0:0,0:0:0:0:
160,152,74664,5,0,0:0:0:0:
461,176,74835,2,0,L|376:176,2,85,0|0|8,0:0|0:0|0:0,0:0:0:0:
152,184,75349,2,0,L|56:184,1,85
304,184,75692,2,0,L|392:184,1,85,0|8,0:0|0:0,0:0:0:0:
144,192,76035,2,0,L|80:192,3,42.5
344,176,76378,2,0,L|440:176,2,85,0|8|0,0:0|0:0|0:0,0:0:0:0:
112,232,76892,6,0,B|72:216|72:216|48:80,1,170,4|8,0:0|0:0,0:0:0:0:
360,216,77406,2,0,B|408:208|408:208|408:192|432:80,1,170,4|8,0:0|0:0,0:0:0:0:
136,240,77835,1,8,0:0:0:0:
104,232,77921,1,8,0:0:0:0:
80,200,78006,1,8,0:0:0:0:
80,160,78092,1,8,0:0:0:0:
120,128,78178,1,8,0:0:0:0:
328,120,78264,6,0,L|432:120,1,85,12|0,0:0|0:0,0:0:0:0:
64,112,78606,2,8,B|40:72|40:72|88:72,1,85
216,80,78864,1,8,0:0:0:0:
328,144,78949,2,8,B|368:176|368:176|328:184,1,85
216,80,79206,1,8,0:0:0:0:
96,88,79292,2,8,B|56:104|56:104|96:128,1,85
216,80,79549,1,8,0:0:0:0:
328,144,79635,2,8,B|368:176|368:176|328:184,1,85
216,80,79892,1,8,0:0:0:0:
96,88,79978,6,8,B|56:104|56:104|96:128,1,85
216,80,80235,1,8,0:0:0:0:
328,128,80321,2,8,B|392:128|392:128|416:160,1,85
328,176,80578,1,8,0:0:0:0:
128,152,80664,2,8,B|88:168|88:168|40:200,1,85
128,176,80921,1,8,0:0:0:0:
272,192,81006,2,8,B|216:208|216:208|184:240,1,85
272,216,81264,1,8,0:0:0:0:
416,216,81349,6,8,B|464:232|464:232|424:256,1,85
312,80,81606,1,8,0:0:0:0:
72,112,81692,2,8,B|32:144|32:144|72:152,1,85
176,192,81949,1,8,0:0:0:0:
384,280,82035,1,0,0:0:0:0:
416,264,82121,1,8,0:0:0:0:
400,232,82206,1,8,0:0:0:0:
336,208,82292,1,8,0:0:0:0:
51,136,82378,5,8,0:0:0:0:
136,136,82549,2,0,L|48:136,1,85,0|8,0:0|0:0,0:0:0:0:
352,136,82892,2,0,L|448:136,1,85
80,128,83235,1,12,0:0:0:0:
368,120,83406,1,12,0:0:0:0:
120,120,83578,1,0,0:0:0:0:
392,216,83749,6,0,L|392:128,1,85,4|0,0:0|0:0,0:0:0:0:
256,96,84092,2,0,L|352:96,2,85,8|0|0,0:0|0:0|0:0,0:0:0:0:
120,120,84606,1,0,0:0:0:0:
192,80,84778,1,8,0:0:0:0:
352,96,84949,2,0,L|456:96,1,85
144,96,85292,2,0,L|56:96,1,85,0|8,0:0|0:0,0:0:0:0:
352,96,85635,2,0,L|440:96,1,85
184,168,85978,6,0,L|96:168,1,85,0|8,0:0|0:0,0:0:0:0:
368,184,86321,2,0,L|472:184,1,85
112,184,86664,2,0,L|216:184,1,85,0|8,0:0|0:0,0:0:0:0:
152,184,87006,1,0,0:0:0:0:
448,176,87178,2,0,L|352:176,1,85
192,192,87435,1,0,0:0:0:0:
144,168,87521,1,0,0:0:0:0:
392,216,87606,1,0,0:0:0:0:
440,192,87692,1,0,0:0:0:0:
408,144,87778,1,0,0:0:0:0:
192,144,87864,5,4,0:0:0:0:
432,168,88206,1,0,0:0:0:0:
136,160,88378,1,12,0:0:0:0:
96,128,88721,5,0,0:0:0:0:
384,152,88892,1,12,0:0:0:0:
424,176,89235,5,0,0:0:0:0:
96,176,89406,1,12,0:0:0:0:
352,232,89749,1,0,0:0:0:0:
392,200,89835,1,0,0:0:0:0:
344,160,89921,1,12,0:0:0:0:
56,136,90264,1,8,0:0:0:0:
472,168,90606,5,12,0:0:0:0:
40,144,90778,1,12,0:0:0:0:
472,168,91121,1,12,0:0:0:0:
40,160,91635,5,12,0:0:0:0:
472,160,91806,1,12,0:0:0:0:
40,144,92149,1,12,0:0:0:0:
256,192,92321,12,0,93178,0:0:0:0:
472,168,93349,5,8,0:0:0:0:
40,160,93521,1,8,0:0:0:0:
472,168,93864,1,8,0:0:0:0:
40,160,94378,5,8,0:0:0:0:
472,176,94549,1,8,0:0:0:0:
40,144,94892,1,8,0:0:0:0:
256,192,95064,12,0,95921,0:0:0:0:
376,224,96092,6,0,L|288:232,1,70.5500010226822
144,200,96606,2,0,P|88:184|64:160,2,70.5500010226822,0|8|0,0:0|0:0|0:0,0:0:0:0:
248,208,97121,1,0,0:0:0:0:
344,216,97292,1,0,0:0:0:0:
432,200,97464,2,0,B|392:160|376:160|280:144,3,141.100002045364,0|0|8|0,0:0|0:0|0:0|0:0,0:0:0:0:
160,176,98835,6,0,L|64:176,2,70.5500010226822
304,176,99349,2,0,L|392:176,1,70.5500010226822,0|8,0:0|0:0,0:0:0:0:
248,168,99692,2,0,L|168:168,1,70.5500010226822
80,224,99977,2,0,B|40:168|40:168|40:72|40:72|40:144,1,235.166670075607
424,192,100892,2,0,B|464:184|464:176|480:152|472:112|472:112|432:112,1,141.100002045364,8|0,0:0|0:0,0:0:0:0:
368,216,101406,1,0,0:0:0:0:
136,240,101578,6,0,B|88:208|88:200|72:160|40:104,2,141.100002045364,4|0|8,0:0|0:0|0:0,0:0:0:0:
264,264,102435,2,0,B|312:256|320:256|400:200,1,141.100002045364
280,112,102949,2,0,B|248:96|240:104|64:176|72:176|72:264,1,282.200004090729,0|8,0:0|0:0,0:0:0:0:
248,248,103978,1,0,0:0:0:0:
360,192,104321,6,0,L|288:192,1,70.5500010226822
200,184,104664,1,0,0:0:0:0:
104,176,104835,2,0,L|208:176,1,70.5500010226822,0|8,0:0|0:0,0:0:0:0:
280,200,105178,2,0,L|360:200,1,70.5500010226822
448,208,105521,1,0,0:0:0:0:
208,240,105692,6,0,B|160:224|152:224|144:224|136:216|144:192|152:176|168:160|216:152|408:160,1,352.750005113411,4|0,0:0|0:0,0:0:0:0:
320,176,106721,2,0,L|400:176,1,70.5500010226822
128,192,107064,6,0,L|40:192,1,85,4|0,0:0|0:0,0:0:0:0:
304,184,107406,2,0,L|392:184,2,85,8|0|0,0:0|0:0|0:0,0:0:0:0:
152,184,107921,1,0,0:0:0:0:
96,144,108092,1,8,0:0:0:0:
176,160,108264,1,0,0:0:0:0:
368,208,108435,6,0,L|456:208,3,85,0|0|8|0,0:0|0:0|0:0|0:0,0:0:0:0:
344,208,109121,2,0,L|232:208,1,85
83,272,109464,1,8,0:0:0:0:
51,240,109549,1,8,0:0:0:0:
83,200,109635,1,8,0:0:0:0:
259,208,109806,6,0,L|171:208,1,85
264,192,110149,1,8,0:0:0:0:
456,216,110321,2,0,L|352:216,1,85
88,208,110664,2,0,L|176:208,1,85,0|8,0:0|0:0,0:0:0:0:
352,224,111006,2,0,B|400:224|400:216|400:216|424:192,2,85
152,208,111521,6,0,L|64:208,1,85,8|0,0:0|0:0,0:0:0:0:
344,200,111864,2,0,L|432:200,1,85,4|0,0:0|0:0,0:0:0:0:
168,192,112206,2,0,L|64:192,1,85,12|0,0:0|0:0,0:0:0:0:
360,192,112549,6,0,L|448:192,2,85,0|0|8,0:0|0:0|0:0,0:0:0:0:
184,168,113064,2,0,L|99:168,2,85
272,176,113578,1,8,0:0:0:0:
360,160,113749,2,0,L|456:160,1,85
152,176,114092,2,0,L|56:176,2,85,0|8|0,0:0|0:0|0:0,0:0:0:0:
384,160,114606,2,0,L|469:160,2,85,0|0|8,0:0|0:0|0:0,0:0:0:0:
320,160,115035,1,8,0:0:0:0:
272,144,115121,1,8,0:0:0:0:
64,136,115292,6,0,L|32:48,1,85,4|0,0:0|0:0,0:0:0:0:
128,160,115635,1,8,0:0:0:0:
336,176,115806,1,0,0:0:0:0:
432,136,115978,1,0,0:0:0:0:
128,176,116149,2,0,L|24:176,1,85,0|8,0:0|0:0,0:0:0:0:
128,176,116492,1,0,0:0:0:0:
424,184,116664,1,4,0:0:0:0:
264,176,116835,6,0,L|352:176,1,85,0|8,0:0|0:0,0:0:0:0:
152,176,117178,2,0,L|240:176,1,85
48,176,117521,2,0,L|152:176,1,85,0|8,0:0|0:0,0:0:0:0:
48,176,117864,1,0,0:0:0:0:
384,184,118035,2,0,L|472:184,2,85,4|0|8,0:0|0:0|0:0,0:0:0:0:
104,136,118549,2,0,L|32:136,1,42.5
224,128,118721,6,0,L|312:128,2,85,0|0|8,0:0|0:0|0:0,0:0:0:0:
96,128,119235,1,0,0:0:0:0:
344,160,119406,2,0,L|440:160,1,85
152,160,119749,2,0,L|56:160,2,85,8|0|0,0:0|0:0|0:0,0:0:0:0:
304,184,120264,5,0,0:0:0:0:
192,192,120435,2,0,L|96:192,1,85,8|0,0:0|0:0,0:0:0:0:
336,280,120778,1,0,0:0:0:0:
376,264,120864,1,0,0:0:0:0:
392,216,120949,1,0,0:0:0:0:
368,176,121035,1,0,0:0:0:0:
184,160,121121,2,0,L|96:160,2,85,8|0|0,0:0|0:0|0:0,0:0:0:0:
360,168,121635,6,0,L|448:168,1,85,0|8,0:0|0:0,0:0:0:0:
120,240,121978,2,0,L|120:152,1,85
384,256,122321,2,0,L|384:168,1,85,0|8,0:0|0:0,0:0:0:0:
128,240,122664,2,0,L|128:152,1,85
408,216,123006,2,0,L|336:160,1,85,0|8,0:0|0:0,0:0:0:0:
72,192,123349,1,0,0:0:0:0:
320,208,123521,2,0,L|408:208,1,85
472,208,123778,1,0,0:0:0:0:
392,208,123864,6,0,L|304:208,1,85,8|0,0:0|0:0,0:0:0:0:
120,200,124206,1,0,0:0:0:0:
232,192,124378,1,0,0:0:0:0:
112,192,124549,1,8,0:0:0:0:
288,192,124721,2,0,L|376:192,1,85
168,192,125064,2,0,L|72:192,1,85,0|8,0:0|0:0,0:0:0:0:
360,296,125406,1,0,0:0:0:0:
400,264,125492,1,0,0:0:0:0:
408,224,125578,1,0,0:0:0:0:
384,176,125664,1,0,0:0:0:0:
312,152,125749,6,0,L|216:152,1,85,0|8,0:0|0:0,0:0:0:0:
64,176,126092,2,0,L|152:176,1,85
384,184,126435,1,0,0:0:0:0:
128,168,126606,2,0,L|35:168,2,85,8|0|0,0:0|0:0|0:0,0:0:0:0:
312,192,127121,2,0,L|416:192,1,85,0|8,0:0|0:0,0:0:0:0:
240,192,127464,1,0,0:0:0:0:
120,248,127635,1,0,0:0:0:0:
80,208,127721,1,0,0:0:0:0:
64,152,127806,1,0,0:0:0:0:
96,96,127892,1,0,0:0:0:0:
152,96,127978,6,0,L|248:96,1,85,8|0,0:0|0:0,0:0:0:0:
472,120,128321,2,0,L|368:120,1,85,4|0,0:0|0:0,0:0:0:0:
152,168,128664,2,0,L|56:168,2,85,8|0|0,0:0|0:0|0:0,0:0:0:0:
40,168,129178,1,0,0:0:0:0:
360,280,129349,5,8,0:0:0:0:
408,240,129435,1,0,0:0:0:0:
424,192,129521,1,0,0:0:0:0:
416,136,129606,1,0,0:0:0:0:
256,256,129692,1,0,0:0:0:0:
200,272,129778,1,0,0:0:0:0:
160,256,129864,1,0,0:0:0:0:
112,224,129949,1,0,0:0:0:0:
280,224,130035,1,8,0:0:0:0:
336,192,130121,1,0,0:0:0:0:
128,168,130206,6,0,B|80:168|80:168|80:168,2,42.5
352,160,130464,1,0,0:0:0:0:
384,136,130549,1,0,0:0:0:0:
416,112,130635,1,0,0:0:0:0:
184,200,130721,1,8,0:0:0:0:
136,160,130806,1,0,0:0:0:0:
96,120,130892,1,0,0:0:0:0:
64,80,130978,1,0,0:0:0:0:
336,232,131064,5,0,0:0:0:0:
368,192,131149,1,0,0:0:0:0:
344,144,131235,1,0,0:0:0:0:
304,112,131321,1,0,0:0:0:0:
128,216,131406,1,8,0:0:0:0:
96,176,131492,1,0,0:0:0:0:
104,136,131578,1,0,0:0:0:0:
136,104,131664,1,0,0:0:0:0:
376,192,131749,6,0,L|432:192,3,42.5
208,192,132092,2,0,L|136:192,3,42.5,8|0|0|0,0:0|0:0|0:0|0:0,0:0:0:0:
392,192,132435,2,0,L|448:192,3,42.5
176,176,132778,2,0,L|120:176,3,42.5,8|0|0|0,0:0|0:0|0:0|0:0,0:0:0:0:
304,264,133121,5,0,0:0:0:0:
344,240,133206,1,0,0:0:0:0:
384,216,133292,1,0,0:0:0:0:
424,192,133378,1,0,0:0:0:0:
256,224,133464,1,8,0:0:0:0:
216,200,133549,1,0,0:0:0:0:
184,176,133635,1,0,0:0:0:0:
152,152,133721,1,0,0:0:0:0:
352,200,133806,6,0,L|400:192,1,42.5
224,208,133978,2,0,L|168:192,1,42.5
368,192,134149,2,0,L|416:184,1,42.5,8|0,0:0|0:0,0:0:0:0:
240,184,134321,2,0,L|192:168,1,42.5
376,168,134492,6,0,L|472:168,2,85,0|0|8,0:0|0:0|0:0,0:0:0:0:
240,168,135006,1,0,0:0:0:0:
120,160,135178,2,0,L|32:160,1,85
184,168,135435,1,0,0:0:0:0:
264,160,135521,2,0,L|368:160,1,85,8|0,0:0|0:0,0:0:0:0:
184,168,135778,1,0,0:0:0:0:
112,168,135864,6,0,L|16:168,1,85
360,176,136206,2,0,L|448:176,1,85,8|0,0:0|0:0,0:0:0:0:
360,176,136549,1,0,0:0:0:0:
304,184,136635,1,0,0:0:0:0:
160,224,136721,5,0,0:0:0:0:
112,208,136806,1,0,0:0:0:0:
72,184,136892,1,8,0:0:0:0:
144,184,136978,1,0,0:0:0:0:
208,176,137064,1,0,0:0:0:0:
264,168,137149,1,0,0:0:0:0:
432,192,137235,5,4,0:2:0:0:
376,152,137321,1,0,0:0:0:0:
320,120,137406,1,0,0:0:0:0:
280,96,137492,1,0,0:0:0:0:
80,168,137578,1,12,0:0:0:0:
128,144,137664,1,0,0:0:0:0:
184,120,137749,1,0,0:0:0:0:
232,88,137835,1,0,0:0:0:0:
424,96,137921,5,4,0:2:0:0:
448,120,138006,1,0,0:0:0:0:
448,160,138092,1,0,0:0:0:0:
416,192,138178,1,0,0:0:0:0:
224,240,138264,1,12,0:0:0:0:
176,208,138349,1,0,0:0:0:0:
192,144,138435,1,0,0:0:0:0:
240,120,138521,1,0,0:0:0:0:
424,120,138606,5,4,0:2:0:0:
456,160,138692,1,0,0:0:0:0:
456,208,138778,1,0,0:0:0:0:
424,240,138864,1,0,0:0:0:0:
240,256,138949,1,12,0:0:0:0:
152,240,139035,1,0,0:0:0:0:
80,200,139121,1,0,0:0:0:0:
40,128,139206,1,0,0:0:0:0:
136,96,139292,5,4,0:2:0:0:
232,80,139378,1,0,0:0:0:0:
320,64,139464,1,0,0:0:0:0:
400,48,139549,1,0,0:0:0:0:
216,208,139635,2,0,L|168:208,1,42.5,12|0,0:0|0:0,0:0:0:0:
344,208,139806,2,0,L|416:208,1,42.5
216,176,139978,5,4,0:2:0:0:
144,160,140149,1,0,0:0:0:0:
48,128,140321,2,0,B|88:88|88:96|96:96|208:64,1,170,0|8,0:0|0:0,0:0:0:0:
376,80,140835,5,0,0:0:0:0:
440,128,141006,1,0,0:0:0:0:
344,192,141178,2,0,P|280:200|176:176,2,170
440,168,142035,5,8,0:0:0:0:
144,200,142206,2,0,L|48:200,1,85
144,200,142549,2,0,L|248:200,1,85
360,200,142892,1,0,0:0:0:0:
144,200,143064,6,0,L|56:200,2,85,0|0|8,0:0|0:0|0:0,0:0:0:0:
336,296,143578,1,0,0:0:0:0:
408,272,143749,1,0,0:0:0:0:
472,240,143921,1,0,0:0:0:0:
80,200,144092,5,12,0:0:0:0:
288,232,144435,1,0,0:0:0:0:
464,224,144606,1,12,0:0:0:0:
40,224,144949,5,8,0:0:0:0:
80,200,145035,1,8,0:0:0:0:
136,168,145121,2,0,L|512:168,1,340,12|4,0:3|0:0,0:0:0:50:public.mp3
128,168,145635,6,0,L|32:168,3,85,0|8|0|0,0:0|0:0|0:0|0:0,0:0:0:0:
416,184,146321,1,0,0:0:0:0:
64,168,146492,2,0,L|160:168,1,85,8|0,0:0|0:0,0:0:0:0:
64,168,146835,1,0,0:0:0:0:
448,192,147006,2,0,L|352:192,2,85,0|8|0,0:0|0:0|0:0,0:0:0:0:
176,192,147521,2,0,L|264:192,1,85
352,192,147864,1,8,0:0:0:0:
120,184,148035,6,0,L|32:184,1,85
280,184,148378,1,0,0:0:0:0:
192,184,148549,2,0,L|104:184,1,85,8|0,0:0|0:0,0:0:0:0:
360,184,148892,2,0,L|456:184,1,85
256,184,149235,1,8,0:0:0:0:
80,216,149406,5,0,0:0:0:0:
40,184,149578,1,0,0:0:0:0:
104,216,149749,1,0,0:0:0:0:
472,216,149921,1,12,0:0:0:0:
400,224,150092,1,0,0:0:0:0:
472,208,150264,1,0,0:0:0:0:
336,240,150435,1,8,0:0:0:0:
256,224,150606,1,8,0:0:0:0:
128,192,150778,5,0,0:0:0:0:
392,176,150949,2,0,L|480:176,2,85,4|0|8,0:0|0:0|0:0,0:0:0:0:
477,176,151464,1,0,0:0:0:0:
392,176,151635,1,0,0:0:0:0:
152,208,151806,1,0,0:0:0:0:
112,176,151978,1,8,0:0:0:0:
344,208,152149,6,0,L|400:208,2,42.5
104,200,152492,2,0,L|56:200,2,42.5,0|0|8,0:0|0:0|0:0,0:0:0:0:
416,208,152835,2,0,L|464:208,2,42.5
136,200,153178,2,0,B|72:200|72:200|32:200,2,85,0|8|0,0:0|0:0|0:0,0:0:0:0:
384,184,153692,6,0,L|472:184,2,85,0|0|8,0:0|0:0|0:0,0:0:0:0:
144,176,154206,2,0,L|48:176,1,85
288,176,154549,2,0,L|176:176,1,85,0|8,0:0|0:0,0:0:0:0:
96,168,154892,1,0,0:0:0:0:
400,176,155064,6,0,L|288:176,1,85
136,216,155406,2,0,L|48:200,1,85,8|0,0:0|0:0,0:0:0:0:
208,144,155749,1,0,0:0:0:0:
400,200,155921,1,0,0:0:0:0:
208,192,156092,1,0,0:0:0:0:
400,136,156264,1,0,0:0:0:0:
456,384,156435,6,0,B|448:216|448:216|416:192|416:192|392:216|392:216|384:328|384:328|328:328|328:328|328:88|328:88|296:0|296:0|272:96|272:96|272:328|272:328|208:328|208:328|208:208|208:208|184:192|184:192|152:224|152:224|152:328|152:328|104:328|104:328|104:280|80:176|80:176|16:360|48:392|56:408|56:408,1,1863.20005259583,0|4,0:0|2:0,0:0:0:100:annoying.mp3
200,264,159521,5,4,2:2:0:0:
288,224,159864,5,4,2:0:0:0:
392,168,160206,5,4,2:0:0:0:
480,112,160549,5,4,2:0:0:0:
104,160,160721,5,8,0:0:0:0:
48,152,160806,1,8,0:0:0:0:
240,168,160892,1,8,0:0:0:0:
400,208,161064,1,4,0:0:0:0:
280,176,161235,1,0,0:0:0:0:
72,168,161406,2,0,L|160:168,2,85,4|0|0,0:0|0:0|0:0,0:0:0:0:
392,208,161921,6,0,L|480:208,1,63.7500024318696,4|0,0:0|0:0,0:0:0:0:
352,208,162264,2,0,L|208:200,1,127.500004863739,0|8,0:0|0:0,0:0:0:0:
72,168,162778,2,0,L|152:168,1,63.7500024318696
304,240,163121,2,0,P|344:216|424:144,1,127.500004863739
280,112,163635,2,0,B|144:160,1,127.500004863739,0|8,0:0|0:0,0:0:0:0:
48,144,164149,6,0,L|112:144,1,63.7500024318696
208,144,164492,2,0,L|416:152,1,191.250007295609
224,144,165178,2,0,L|176:144,2,31.8750012159348,0|0|8,0:0|0:0|0:0,0:0:0:0:
352,200,165521,2,0,L|432:200,1,63.7500024318696
288,208,165864,2,0,L|208:208,1,63.7500024318696
112,216,166206,1,0,0:0:0:0:
160,216,166292,1,0,0:0:0:0:
200,216,166378,5,8,0:0:0:0:
304,224,166549,1,0,0:0:0:0:
360,200,166721,1,0,0:0:0:0:
144,168,166892,1,12,0:0:0:0:
88,144,167064,1,0,0:0:0:0:
40,112,167235,1,0,0:0:0:0:
280,192,167406,6,0,L|360:192,2,63.7500024318696,4|0|0,0:0|0:0|0:0,0:0:0:0:
104,192,167921,1,0,0:0:0:0:
232,176,168092,1,8,0:0:0:0:
336,176,168264,1,0,0:0:0:0:
216,176,168435,2,0,L|136:176,1,63.7500024318696
312,176,168778,1,0,0:0:0:0:
440,176,168949,2,0,L|352:176,1,63.7500024318696
248,176,169292,1,0,0:0:0:0:
136,176,169464,2,0,L|56:176,1,63.7500024318696,8|0,0:0|0:0,0:0:0:0:
208,184,169806,2,0,L|328:184,1,95.6250036478044
392,184,170149,5,0,0:0:0:0:
192,176,170321,2,0,L|128:176,1,63.7500024318696
328,176,170664,2,0,L|408:176,2,63.7500024318696,0|8|0,0:0|0:0|0:0,0:0:0:0:
128,176,171178,2,0,L|48:176,2,63.7500024318696
248,184,171692,1,8,0:0:0:0:
288,184,171778,1,8,0:0:0:0:
320,176,171864,1,8,0:0:0:0:
440,168,172035,1,0,0:0:0:0:
400,160,172206,1,0,0:0:0:0:
128,160,172378,2,0,L|48:160,2,63.7500024318696,4|0|0,0:0|0:0|0:0,0:0:0:0:
384,176,172892,2,0,L|456:176,1,63.7500024318696,4|0,0:0|0:0,0:0:0:0:
216,168,173235,6,0,L|128:168,1,63.7500024318696
328,160,173578,2,0,L|400:160,1,63.7500024318696,8|0,0:0|0:0,0:0:0:0:
256,144,173921,1,0,0:0:0:0:
368,160,174092,2,0,L|448:160,1,63.7500024318696
240,152,174435,2,0,L|312:152,2,63.7500024318696
120,152,174949,5,8,0:0:0:0:
232,144,175121,1,0,0:0:0:0:
144,136,175292,1,0,0:0:0:0:
264,144,175464,2,0,L|344:144,3,63.7500024318696
400,160,176149,2,0,L|448:160,1,31.8750012159348
368,144,176321,1,8,0:0:0:0:
192,168,176492,2,0,L|144:168,1,31.8750012159348
208,168,176664,1,0,0:0:0:0:
104,144,176835,2,0,B|64:104|64:104|152:104,1,127.500004863739
216,88,177264,1,0,0:0:0:0:
272,96,177349,5,8,0:0:0:0:
400,160,177521,2,0,L|480:160,1,63.7500024318696
136,160,177864,2,0,L|64:160,1,63.7500024318696,12|0,0:0|0:0,0:0:0:0:
136,160,178206,1,0,0:0:0:0:
400,224,178378,6,0,L|456:96,1,127.500004863739,4|0,0:0|0:0,0:0:0:0:
272,96,178892,2,0,L|192:96,1,63.7500024318696,0|8,0:0|0:0,0:0:0:0:
96,104,179235,1,0,0:0:0:0:
208,112,179406,2,0,L|288:112,1,63.7500024318696
368,112,179749,1,0,0:0:0:0:
272,112,179921,2,0,L|184:112,1,63.7500024318696
40,120,180264,1,0,0:0:0:0:
272,120,180435,2,0,L|344:120,1,63.7500024318696,8|0,0:0|0:0,0:0:0:0:
112,144,180778,2,0,B|40:128|40:128|64:96,1,95.6250036478044,4|0,0:0|0:0,0:0:0:0:
128,80,181121,5,0,0:0:0:0:
288,72,181292,1,0,0:0:0:0:
192,64,181464,1,0,0:0:0:0:
120,128,181635,2,0,L|40:112,1,63.7500024318696,0|8,0:0|0:0,0:0:0:0:
392,176,181978,2,0,L|464:152,1,63.7500024318696,0|8,0:0|0:0,0:0:0:0:
168,168,182321,2,0,L|80:136,1,63.7500024318696,0|8,0:0|0:0,0:0:0:0:
384,168,182664,2,8,L|416:168,2,31.8750012159348
184,152,183006,1,0,0:0:0:0:
72,144,183178,1,0,0:0:0:0:
352,224,183349,2,0,B|432:192|432:200|432:200|384:160,1,127.500004863739,4|0,0:0|0:0,0:0:0:50:public.mp3
72,176,183864,5,4,0:0:0:0:
184,176,184206,1,0,0:0:0:0:
104,176,184378,2,0,L|48:136,1,63.7500024318696,0|8,0:0|0:0,0:0:0:0:
344,192,184892,2,0,L|424:192,2,63.7500024318696
144,192,185406,2,0,L|64:192,2,63.7500024318696
320,216,185921,2,0,B|352:216|352:216|256:216|256:216|344:216,1,191.250007295609,8|0,0:0|0:0,0:0:0:0:
112,208,186606,6,0,B|72:184|72:184|72:96,1,127.500004863739
208,144,187121,2,0,L|288:144,2,63.7500024318696,0|8|0,0:0|0:0|0:0,0:0:0:0:
368,144,187635,2,0,L|280:144,2,63.7500024318696
168,208,188149,1,8,0:0:0:0:
128,200,188235,1,8,0:0:0:0:
80,176,188321,2,0,L|32:104,1,63.7500024318696,8|0,0:0|0:0,0:0:0:0:
392,224,188664,2,0,L|456:160,1,63.7500024318696,8|0,0:0|0:0,0:0:0:0:
128,256,189006,2,0,P|96:224|80:192,1,63.7500024318696,8|0,0:0|0:0,0:0:0:0:
392,184,189349,6,0,P|432:144|384:96,1,127.500004863739,4|0,0:0|0:0,0:0:0:0:
128,160,189864,2,0,L|56:160,2,63.7500024318696,0|8|0,0:0|0:0|0:0,0:0:0:0:
256,176,190378,2,0,L|336:176,2,63.7500024318696
368,176,190892,2,0,L|448:176,2,63.7500024318696
176,200,191406,2,0,B|136:184|136:184|232:128,1,127.500004863739,8|0,0:0|0:0,0:0:0:0:
448,184,192092,6,0,B|320:184|320:184|456:184,2,255.000009727478,4|8|0,0:0|0:0|0:0,0:0:0:0:
112,192,193635,2,8,L|80:192,2,31.8750012159348
256,200,193978,2,0,L|336:200,1,63.7500024318696
432,208,194321,1,8,0:0:0:0:
248,200,194492,1,0,0:0:0:0:
64,192,194664,1,0,0:0:0:0:
336,192,194835,6,0,L|464:192,1,127.500004863739,4|0,0:0|0:0,0:0:0:0:
304,200,195349,2,0,L|232:200,1,63.7500024318696,0|8,0:0|0:0,0:0:0:0:
392,200,195864,2,0,L|464:200,1,63.7500024318696
280,200,196206,2,0,L|216:200,1,63.7500024318696
304,208,196549,2,0,L|376:208,1,63.7500024318696
280,200,196892,1,8,0:0:0:0:
136,216,197064,2,0,B|96:192|96:192|96:160|96:160|148:137,1,127.500004863739
425,246,197578,6,0,P|457:201|393:154,1,127.500004863739,4|0,0:0|0:0,0:0:0:0:
144,216,198092,2,0,L|64:216,2,63.7500024318696,0|8|0,0:0|0:0|0:0,0:0:0:0:
328,224,198606,2,0,L|400:224,2,63.7500024318696
240,216,199035,1,0,0:0:0:0:
168,216,199121,1,0,0:0:0:0:
72,200,199292,2,0,B|48:160|48:160|88:144,1,63.7500024318696
368,232,199635,2,0,B|400:216|400:216|368:192,1,63.7500024318696,8|0,0:0|0:0,0:0:0:0:
96,224,199978,2,0,B|64:200|64:200|104:176,1,63.7500024318696
360,272,200321,6,0,P|400:240|336:224,1,127.500004863739,4|0,0:0|0:0,0:0:0:0:
224,184,200835,2,0,L|160:184,1,63.7500024318696,0|8,0:0|0:0,0:0:0:0:
368,224,201178,2,0,L|432:208,1,63.7500024318696
248,208,201521,2,0,L|216:208,1,31.8750012159348
120,192,201692,2,0,B|64:192|64:192|32:192,2,63.7500024318696
264,224,202206,2,0,L|304:192,1,31.8750012159348
440,176,202378,2,0,L|480:112,1,63.7500024318696
224,224,202721,2,8,L|168:224,2,31.8750012159348
352,224,203064,6,0,B|408:200|408:200|208:176,1,255.000009727478,8|8,0:0|0:0,0:0:0:0:
168,216,204435,6,0,L|80:216,1,85.0000032424928,12|0,0:0|0:0,0:0:0:0:
352,232,204778,2,0,L|448:232,1,85.0000032424928,4|0,0:0|0:0,0:0:0:0:
184,232,205121,2,0,L|88:232,1,85.0000032424928,4|0,0:0|0:0,0:0:0:0:
344,248,205464,2,0,L|432:248,1,85.0000032424928,4|0,0:0|0:0,0:0:0:0:
152,200,205806,2,0,P|112:168|160:120,1,127.500004863739,4|0,0:0|0:0,0:0:0:0:
368,192,206492,5,8,0:0:0:0:
136,184,207178,5,8,0:0:0:0:
368,168,207864,5,8,0:0:0:0:
432,192,208378,5,8,0:0:0:0:
48,176,208549,1,8,0:0:0:0:
144,176,208892,5,8,0:0:0:0:
248,176,209235,5,8,0:0:0:0:
352,184,209578,5,8,0:0:0:0:
136,216,209749,6,0,B|104:192|104:192|104:104,1,127.5,4|0,0:0|0:0,0:0:0:0:
344,232,210092,2,0,B|384:216|384:216|384:128,1,127.5,4|0,0:0|0:0,0:0:0:0:
168,248,210435,2,0,B|136:224|136:224|136:88,1,170,4|8,0:0|0:0,0:0:0:0:
216,120,210864,1,8,0:0:0:0:
296,120,210949,1,8,0:0:0:0:
160,192,211292,6,0,L|64:192,2,85,0|0|8,0:0|0:0|0:0,0:0:0:70:hail.wav
400,192,211806,1,0,0:0:0:0:
144,176,211978,2,0,L|56:176,1,85
336,184,212321,2,0,L|424:184,1,85,8|0,0:0|0:0,0:0:0:0:
240,192,212664,1,0,0:0:0:0:
384,176,212835,2,0,L|456:176,2,42.5,0|0|8,0:0|0:0|0:0,0:0:0:0:
216,176,213349,5,0,0:0:0:0:
376,168,213521,2,0,L|464:168,2,85,0|8|0,0:0|0:0|0:0,0:0:0:0:
128,168,214035,1,0,0:0:0:0:
368,176,214206,2,0,L|464:176,1,85,0|8,0:0|0:0,0:0:0:0:
168,168,214549,2,0,L|64:168,3,85,0|0|0|8,0:0|0:0|0:0|0:0,0:0:0:0:
376,240,215235,6,0,B|424:224|424:224|424:144,1,127.5,4|0,0:0|0:0,0:0:0:0:
160,224,215578,2,0,B|120:200|120:200|120:120,1,127.5,4|0,0:0|0:0,0:0:0:0:
376,240,215921,2,0,B|424:224|424:224|424:104,1,170,4|0,0:0|0:0,0:0:0:0:
184,192,216435,2,8,L|128:192,1,42.5
72,184,216606,1,8,0:0:0:0:
312,192,216778,6,0,L|408:192,2,85,4|0|8,0:0|0:0|0:0,0:0:0:0:
168,192,217292,1,0,0:0:0:0:
48,184,217464,1,0,0:0:0:0:
224,200,217635,1,0,0:0:0:0:
296,200,217721,1,0,0:0:0:0:
368,208,217806,1,8,0:0:0:0:
128,208,217978,6,0,L|40:208,1,85
232,216,218321,2,0,L|296:216,1,42.5
352,224,218492,1,8,0:0:0:0:
208,208,218664,1,0,0:0:0:0:
88,216,218835,1,0,0:0:0:0:
56,184,218921,1,0,0:0:0:0:
88,152,219006,1,0,0:0:0:0:
336,208,219178,6,0,L|440:208,1,85,8|0,0:0|0:0,0:0:0:0:
128,192,219521,1,0,0:0:0:0:
384,184,219692,2,0,L|480:184,1,85,0|8,0:0|0:0,0:0:0:0:
240,184,220035,1,0,0:0:0:0:
128,184,220206,1,0,0:0:0:0:
320,176,220378,1,8,0:0:0:0:
384,176,220464,1,8,0:0:0:0:
440,176,220549,1,8,0:0:0:0:
208,200,220721,6,4,L|32:200,1,170
176,200,221235,2,0,L|280:200,1,85
384,224,221578,6,8,L|440:208,1,42.5
256,216,221750,2,8,L|208:208,1,42.5
360,224,221921,2,8,L|408:208,1,42.5
224,216,222092,2,8,L|168:192,1,42.5
392,224,222264,6,0,B|440:208|440:216|440:216|440:168,1,85,4|0,0:0|0:0,0:0:0:70:out_of_gum_x.wav
184,208,222606,1,8,0:0:0:0:
296,208,222778,2,0,L|400:208,1,85
192,208,223121,1,0,0:0:0:0:
80,184,223292,1,8,0:0:0:0:
376,248,223464,2,0,B|416:240|416:240|432:232|448:216|448:216|360:200,1,170,4|0,0:0|0:0,0:0:0:0:
256,200,223978,5,8,0:0:0:0:
144,184,224149,1,0,0:0:0:0:
256,176,224321,1,0,0:0:0:0:
368,176,224492,1,8,0:0:0:0:
472,160,224664,1,0,0:0:0:0:
80,184,224835,2,0,B|40:160|40:160|160:128,1,170,4|8,0:0|0:0,0:0:0:0:
248,128,225349,5,0,0:0:0:0:
328,128,225521,1,0,0:0:0:0:
224,112,225692,1,8,0:0:0:0:
136,88,225864,1,0,0:0:0:0:
48,64,226035,1,0,0:0:0:0:
368,216,226206,2,0,B|448:192|448:192|360:184,1,170,12|0,0:0|0:0,0:0:0:0:
144,208,226721,6,0,L|80:208,1,42.5,12|0,0:0|0:0,0:0:0:0:
320,192,226892,2,0,L|376:192,2,42.5,0|0|8,0:0|0:0|0:0,0:0:0:0:
96,240,227149,1,8,0:0:0:0:
72,208,227235,1,8,0:0:0:0:
64,168,227321,1,8,0:0:0:0:
80,128,227406,1,8,0:0:0:0:
112,96,227492,1,8,0:0:0:0:
136,80,227578,1,8,0:0:0:0:
168,64,227664,1,8,0:0:0:0:
384,192,227749,6,0,L|472:192,2,85,4|0|8,0:0|0:0|0:0,0:0:0:50:public.mp3
128,176,228264,2,0,L|24:176,1,85
144,176,228606,1,0,0:0:0:0:
387,176,228778,6,0,L|472:176,1,85,12|0,0:0|0:0,0:0:0:0:
288,160,229121,1,0,0:0:0:0:
104,240,229292,2,0,B|72:232|72:232|72:216|48:40,1,212.5,12|0,0:0|0:0,0:0:0:0:
288,192,229806,2,0,B|320:168|320:160|368:88,1,127.5
136,128,230149,2,8,L|80:128,2,42.5
400,160,230492,5,4,0:0:0:0:
464,128,230664,1,0,0:0:0:0:
352,168,230835,1,8,0:0:0:0:
80,176,231006,1,4,0:0:0:0:
336,160,231349,5,0,0:0:0:0:
104,168,231521,1,12,0:0:0:0:
40,136,231692,1,8,0:0:0:0:
96,136,231778,1,8,0:0:0:0:
152,136,231864,1,8,0:0:0:0:
448,168,232035,1,12,0:0:0:0:
312,168,232206,5,8,0:0:0:0:
272,136,232292,1,8,0:0:0:0:
224,104,232378,1,8,0:0:0:0:
56,80,232464,1,8,0:0:0:0:
104,64,232549,1,8,0:0:0:0:
144,48,232635,1,8,0:0:0:0:
392,80,232721,5,8,0:0:0:0:
360,104,232806,1,8,0:0:0:0:
320,136,232892,1,8,0:0:0:0:
280,168,232978,1,8,0:0:0:0:
240,200,233064,1,8,0:0:0:0:
192,224,233149,1,8,0:0:0:0:
24,168,233235,6,0,L|120:144,1,85,12|0,0:0|0:0,0:0:0:0:
232,152,233578,1,8,0:0:0:0:
488,176,233749,2,0,L|400:128,1,85,12|0,0:0|0:0,0:0:0:0:
248,152,234092,1,0,0:0:0:0:
16,168,234264,2,0,L|104:144,1,85,12|0,0:0|0:0,0:0:0:0:
232,144,234606,1,8,0:0:0:0:
496,152,234778,2,0,L|400:152,3,85,12|8|0|8,0:0|0:0|0:0|0:0,0:0:0:0:
288,160,235464,1,0,0:0:0:0:
56,160,235635,6,12,L|-16:160,2,42.5
448,176,235978,2,12,L|480:136,2,42.5
216,176,236321,1,0,0:0:0:0:
72,168,236406,2,12,L|32:136,2,42.5
400,184,236749,6,12,L|464:184,2,42.5
72,168,237092,2,12,L|16:128,2,42.5
392,184,237521,1,12,0:0:0:0:
432,184,237606,1,12,0:0:0:0:
472,184,237692,1,12,0:0:0:0:
224,184,237864,6,0,L|160:184,3,42.5
88,168,238206,1,8,0:0:0:0:
56,144,238292,1,8,0:0:0:0:
88,96,238378,1,8,0:0:0:0:
160,80,238464,1,8,0:0:0:0:
232,72,238549,1,8,0:0:0:0:
312,72,238635,1,8,0:0:0:0:
440,88,238721,6,0,B|480:88|504:88|432:88,1,85
248,96,239064,1,8,0:0:0:0:
128,96,239235,2,0,L|40:96,1,85
112,96,239492,1,0,0:0:0:0:
184,96,239578,2,0,L|272:96,1,85,0|8,0:0|0:0,0:0:0:0:
440,104,239921,6,0,L|336:104,1,85
256,112,240264,1,0,0:0:0:0:
144,112,240435,1,8,0:0:0:0:
256,112,240606,2,0,L|360:112,3,85,0|0|0|8,0:0|0:0|0:0|0:0,0:0:0:0:
256,104,241292,1,0,0:0:0:0:
112,184,241464,6,0,L|64:184,3,42.5
232,224,241806,2,0,L|296:224,3,42.5,8|0|0|0,0:0|0:0|0:0|0:0,0:0:0:0:
424,152,242149,2,0,L|480:152,3,42.5
312,80,242492,2,0,L|248:80,3,42.5,8|0|0|0,0:0|0:0|0:0|0:0,0:0:0:0:
112,144,242835,6,0,L|56:136,1,42.5
264,160,243006,2,0,L|312:144,1,42.5
136,152,243178,2,0,L|80:136,1,42.5,8|0,0:0|0:0,0:0:0:0:
264,160,243349,2,0,L|352:160,2,85
112,208,243864,1,8,0:0:0:0:
72,184,243949,1,0,0:0:0:0:
64,128,244035,1,0,0:0:0:0:
112,96,244121,1,0,0:0:0:0:
392,144,244206,6,0,L|480:144,2,85,4|0|8,0:0|0:0|0:0,0:0:0:0:
256,168,244721,1,0,0:0:0:0:
128,144,244892,2,0,L|32:144,2,85,0|0|8,0:0|0:0|0:0,0:0:0:0:
264,160,245406,1,0,0:0:0:0:
120,160,245578,2,0,L|32:160,1,85
240,168,245921,1,8,0:0:0:0:
432,168,246092,2,0,L|336:168,3,85,0|0|0|8,0:0|0:0|0:0|0:0,0:0:0:0:
216,184,246778,1,8,0:0:0:0:
144,192,246864,1,8,0:0:0:0:
56,168,246949,6,0,L|56:80,1,85,8|0,0:0|0:0,0:0:0:0:
376,192,247292,2,0,L|376:80,1,85,8|0,0:0|0:0,0:0:0:0:
112,216,247635,2,0,L|112:112,1,85
376,168,247978,1,8,0:0:0:0:
80,168,248149,1,4,0:0:0:0:
160,168,248321,6,0,L|256:168,2,85,0|0|8,0:0|0:0|0:0,0:0:0:0:
432,176,248835,1,0,0:0:0:0:
344,176,249006,1,0,0:0:0:0:
152,176,249178,1,8,0:0:0:0:
88,184,249264,1,8,0:0:0:0:
32,200,249349,1,8,0:0:0:0:
264,176,249521,1,8,0:0:0:0:
288,168,249606,1,8,0:0:0:0:
440,176,249692,6,0,B|472:144|472:144|416:128,1,85,12|0,0:0|0:0,0:0:0:0:
344,112,250035,1,8,0:0:0:0:
96,200,250206,2,0,B|40:184|40:184|88:160,1,85,4|0,0:0|0:0,0:0:0:0:
144,168,250549,1,0,0:0:0:0:
416,208,250721,2,0,B|472:192|472:192|432:184,1,85,12|0,0:0|0:0,0:0:0:0:
360,168,251064,1,0,0:0:0:0:
120,184,251235,2,0,L|32:184,2,85,0|8|0,0:0|0:0|0:0,0:0:0:0:
464,184,251749,2,0,L|376:184,1,85
128,224,252092,2,4,P|96:200|64:152,1,85,12|12,0:0|0:0,0:0:0:0:
336,184,252349,5,8,0:0:0:0:
378,184,252435,2,0,L|471:184,2,85,8|0|8,0:0|0:0|0:0,0:0:0:0:
384,200,252949,2,0,B|432:176|432:176|392:176,1,85
168,208,253292,2,0,P|104:192|88:168,2,85,0|8|0,0:0|0:0|0:0,0:0:0:0:
280,224,253721,1,0,0:0:0:0:
376,232,253806,6,0,L|432:224,1,42.5
272,216,253978,2,0,L|216:200,1,42.5
376,224,254149,2,0,L|424:216,1,42.5,8|0,0:0|0:0,0:0:0:0:
208,224,254320,2,0,L|136:216,1,42.5
336,208,254492,2,0,L|392:192,1,42.5
168,224,254663,6,0,L|120:216,1,42.5
304,224,254835,2,0,L|344:200,1,42.5,8|0,0:0|0:0,0:0:0:0:
136,208,255006,2,0,L|80:192,1,42.5
344,208,255178,2,0,L|440:208,2,85,0|0|8,0:0|0:0|0:0,0:0:0:0:
192,208,255692,5,0,0:0:0:0:
104,200,255864,1,0,0:0:0:0:
232,184,256035,1,0,0:0:0:0:
360,176,256206,1,8,0:0:0:0:
464,152,256378,1,0,0:0:0:0:
144,160,256549,2,0,L|48:160,2,85,0|0|8,0:0|0:0|0:0,0:0:0:0:
344,136,257064,2,0,L|432:136,1,85
192,216,257406,2,0,L|88:216,1,85,0|8,0:0|0:0,0:0:0:0:
408,176,257749,1,0,0:0:0:0:
253,184,257921,6,0,L|151:184,1,85
80,184,258178,1,0,0:0:0:0:
168,184,258264,2,0,L|264:184,1,85,8|0,0:0|0:0,0:0:0:0:
384,176,258606,1,0,0:0:0:0:
288,144,258778,2,0,L|392:136,1,85,0|8,0:0|0:0,0:0:0:0:
88,144,259121,1,4,0:0:0:0:
200,176,259292,6,0,L|104:152,2,85,0|0|8,0:0|0:0|0:0,0:0:0:0:
464,256,259806,1,4,0:0:0:0:
392,272,259978,2,0,L|392:168,1,85
136,240,260321,1,8,0:0:0:0:
88,200,260406,1,8,0:0:0:0:
80,144,260492,1,8,0:0:0:0:
120,104,260578,1,8,0:0:0:0:
352,144,260664,6,0,L|456:144,1,85,4|2,0:0|0:2,0:0:0:100:hail.wav
288,144,261006,1,10,0:2:0:0:
136,144,261178,2,2,L|24:144,1,85,2|2,0:2|0:2,0:2:0:0:
192,144,261521,1,2,0:2:0:0:
376,136,261692,2,2,L|472:136,1,85,10|2,0:2|0:2,0:2:0:0:
312,144,262035,1,2,0:2:0:0:
144,136,262206,2,2,L|40:136,1,85,2|10,0:2|0:2,0:2:0:0:
232,152,262549,5,2,0:2:0:0:
368,144,262721,2,2,L|472:144,1,85,2|2,0:2|0:2,0:2:0:0:
264,176,263064,1,10,0:2:0:0:
368,168,263235,2,2,L|464:168,1,85,2|2,0:2|0:2,0:2:0:0:
176,168,263578,2,2,L|80:168,2,85,2|10|2,0:2|0:2|0:2,0:2:0:0:
80,168,264092,1,2,0:2:0:0:
376,168,264264,6,2,L|464:168,1,85,2|10,0:2|0:2,0:2:0:0:
168,168,264606,2,2,L|64:168,1,85,2|2,0:2|0:2,0:2:0:0:
360,192,264949,2,2,L|448:192,1,85,2|10,0:2|0:2,0:2:0:0:
128,176,265292,2,2,L|32:176,1,85,2|2,0:2|0:2,0:2:0:0:
360,168,265635,2,2,L|448:168,1,85,2|10,0:2|0:2,0:2:0:0:
248,160,265892,1,8,0:0:0:0:
192,160,265978,1,10,0:2:0:0:
136,160,266064,1,8,0:0:0:0:
328,176,266149,6,2,L|416:176,1,85,4|2,0:0|0:2,0:2:0:0:
136,184,266492,2,2,L|48:184,2,85,10|2|2,0:2|0:2|0:2,0:2:0:0:
368,192,267006,2,2,L|456:192,1,85,2|10,0:2|0:2,0:2:0:0:
248,184,267349,2,2,L|344:184,1,85,2|2,0:2|0:2,0:2:0:0:
112,176,267692,2,2,L|208:176,1,85,2|10,0:2|0:2,0:2:0:0:
440,216,268035,2,2,L|440:120,1,85,2|2,0:2|0:2,0:2:0:0:
136,224,268378,2,2,L|88:152,1,85,2|10,0:2|0:2,0:2:0:0:
232,192,268635,1,8,0:0:0:0:
296,192,268721,1,10,0:2:0:0:
344,192,268806,1,8,0:0:0:0:
152,192,268892,6,0,L|48:192,1,85,4|2,0:0|0:2,0:0:0:0:
256,192,269235,1,10,0:2:0:0:
384,200,269406,2,2,L|472:200,1,85,2|4,0:2|0:0,0:2:0:0:
120,192,269749,2,2,L|24:192,1,85,2|10,0:2|0:2,0:2:0:0:
368,192,270092,2,2,L|464:192,1,85,4|2,0:0|0:2,0:2:0:0:
160,208,270435,1,2,0:2:0:0:
96,176,270606,1,10,0:2:0:0:
384,176,270778,2,2,L|480:176,1,85,4|2,0:0|0:2,0:2:0:0:
192,184,271121,2,2,L|104:184,1,85,4|10,0:0|0:2,0:2:0:0:
224,184,271378,1,8,0:0:0:0:
280,192,271464,1,10,0:2:0:0:
336,200,271549,1,8,0:0:0:0:
192,184,271635,6,2,L|88:184,1,85,12|2,0:0|0:2,0:2:0:0:
280,184,271978,1,10,0:2:0:0:
144,176,272149,2,2,L|48:176,1,85,2|2,0:2|0:2,0:2:0:0:
232,176,272492,1,2,0:2:0:0:
128,184,272664,1,10,0:2:0:0:
384,192,272835,2,0,L|480:192,2,85,4|2|0,0:0|0:2|0:0,0:0:0:0:
152,168,273349,2,0,L|56:168,1,85,14|0,0:2|0:0,0:0:0:0:
152,168,273692,5,2,0:2:0:0:
448,192,273864,1,4,0:0:0:0:
368,184,274035,1,10,0:2:0:0:
464,200,274206,1,0,0:0:0:0:
152,160,274378,2,0,L|64:160,1,85,6|0,0:2|0:0,0:0:0:0:
184,152,274721,1,10,0:2:0:0:
456,224,274892,1,4,0:0:0:0:
160,256,275064,1,10,0:2:0:0:
128,224,275149,1,8,0:0:0:0:
104,176,275235,1,10,0:2:0:0:
112,136,275321,1,8,0:0:0:0:
144,104,275406,1,10,0:2:0:0:
472,144,275578,6,12,L|424:128,1,42.5
40,192,275921,2,12,L|88:176,1,42.5
472,168,276264,2,12,L|424:144,1,42.5
40,168,276606,2,12,L|88:136,1,42.5
472,192,276949,2,0,B|464:144|464:144|328:144,1,170,12|0,0:0|0:0,0:0:0:50:public.mp3
256,160,277464,5,8,0:0:0:0:
392,168,277635,2,0,L|480:168,1,85
160,168,277978,2,0,L|64:168,1,85,0|8,0:0|0:0,0:0:0:0:
360,176,278321,2,0,L|448:176,1,85
48,160,278664,2,0,L|136:160,1,85,0|8,0:0|0:0,0:0:0:0:
400,216,279006,2,0,P|448:192|448:160,1,85
208,176,279349,5,0,0:0:0:0:
72,160,279521,1,8,0:0:0:0:
208,176,279692,1,0,0:0:0:0:
352,184,279864,2,0,L|448:184,1,85
336,192,280206,1,8,0:0:0:0:
35,192,280378,2,0,L|120:192,1,85
421,184,280721,2,0,L|336:184,1,85,0|8,0:0|0:0,0:0:0:0:
35,176,281064,2,0,L|120:176,1,85,4|0,0:0|0:0,0:0:0:0:
461,168,281406,2,0,L|376:168,1,85,0|8,0:0|0:0,0:0:0:0:
96,200,281749,6,0,B|48:176|48:176|48:144,1,85
368,208,282092,2,8,L|408:184,1,42.5
72,216,282264,2,8,L|24:200,1,42.5
176,208,282435,2,8,L|216:184,1,42.5
360,208,282606,6,2,L|488:208,1,127.500004863739,12|2,0:0|0:2,0:2:0:100:lets_rock.wav
160,184,282949,2,2,L|32:184,2,127.500004863739,10|2|10,0:2|0:2|0:2,0:2:0:0:
352,192,283464,2,2,L|488:192,1,127.500004863739,2|10,0:2|0:2,0:2:0:0:
208,184,283806,2,2,L|80:184,1,127.500004863739,2|10,0:2|0:2,0:2:0:0:
336,184,284149,2,2,L|200:184,1,127.500004863739,2|10,0:2|0:2,0:2:0:0:
472,184,284492,2,2,L|344:184,2,127.500004863739,2|10|2,0:2|0:2|0:2,0:2:0:0:
72,216,285006,2,2,L|208:216,1,127.500004863739,10|2,0:2|0:2,0:2:0:0:
440,192,285349,6,2,L|312:192,1,127.500004863739,12|2,0:0|0:2,0:2:0:0:
216,192,285692,1,10,0:2:0:0:
40,152,285864,1,2,0:2:0:0:
216,192,286035,1,10,0:2:0:0:
440,192,286206,2,2,L|304:192,1,127.500004863739,2|10,0:2|0:2,0:2:0:0:
128,176,286549,2,2,L|256:176,1,127.500004863739,2|10,0:2|0:2,0:2:0:0:
400,176,286892,6,0,L|488:176,2,63.7500024318696,0|0|8,0:0|0:0|0:0,0:0:0:0:
144,168,287235,2,0,L|56:168,2,63.7500024318696,4|0|8,0:0|0:0|0:0,0:0:0:0:
400,176,287578,2,0,L|472:176,2,63.7500024318696,0|0|8,0:0|0:0|0:0,0:0:0:0:
256,176,287835,1,8,0:0:0:0:
128,160,287921,2,0,L|48:160,1,63.7500024318696
384,176,288092,6,0,L|481:176,1,85,4|0,0:0|0:0,0:0:0:0:
312,176,288264,2,0,L|219:177,1,85
384,176,288435,2,0,L|476:176,1,85,8|0,0:0|0:0,0:0:0:0:
196,88,288606,1,0,0:0:0:0:
179,110,288692,1,0,0:0:0:0:
179,137,288778,5,8,0:0:0:0:
211,172,288864,1,0,0:0:0:0:
398,182,288949,1,0,0:0:0:0:
434,168,289035,1,0,0:0:0:0:
275,175,289121,1,8,0:0:0:0:
235,164,289206,1,0,0:0:0:0:
401,181,289292,1,0,0:0:0:0:
434,168,289378,1,0,0:0:0:0:
262,169,289464,5,8,0:0:0:0:
217,144,289549,1,0,0:0:0:0:
367,168,289635,1,0,0:0:0:0:
409,150,289721,1,0,0:0:0:0:
208,181,289806,1,8,0:0:0:0:
172,162,289892,1,0,0:0:0:0:
331,189,289978,1,0,0:0:0:0:
378,174,290064,1,0,0:0:0:0:
223,174,290149,5,8,0:0:0:0:
187,157,290235,1,0,0:0:0:0:
375,183,290321,1,0,0:0:0:0:
406,171,290406,1,0,0:0:0:0:
132,174,290492,2,8,L|40:174,2,85
211,177,290749,1,8,0:0:0:0:
382,180,290835,6,8,L|473:180,2,85,12|8|8,0:0|0:0|0:0,0:0:0:0:
294,177,291092,1,8,0:0:0:0:
127,177,291178,2,8,L|34:177,2,85,12|8|8,0:0|0:0|0:0,0:0:0:0:
220,175,291435,1,8,0:0:0:0:
370,177,291521,6,8,L|458:176,1,85
296,177,291692,2,8,L|208:177,1,85
394,168,291864,2,8,L|481:168,1,85
318,171,292035,2,8,L|225:171,1,85
88,232,292206,5,12,0:0:0:0:
40,184,292292,1,8,0:0:0:0:
64,128,292378,1,8,0:0:0:0:
120,88,292464,1,8,0:0:0:0:
184,64,292549,1,8,0:0:0:0:
108,39,292635,1,8,0:0:0:0:
180,31,292721,1,8,0:0:0:0:
236,39,292806,1,8,0:0:0:0:
292,39,292892,1,8,0:0:0:0:
410,136,292978,5,8,0:0:0:0:
346,136,293064,1,8,0:0:0:0:
274,136,293149,1,8,0:0:0:0:
200,136,293235,1,8,0:0:0:0:
296,224,293321,1,8,0:0:0:0:
255,222,293406,1,8,0:0:0:0:
199,214,293492,1,8,0:0:0:0:
32,184,293578,5,12,0:0:0:0:
472,240,293749,1,12,0:0:0:0:
40,240,294092,1,12,0:0:0:0:
448,224,294435,6,0,L|360:192,1,85,0|12,0:0|0:0,0:0:0:0:
40,216,294778,1,12,0:0:0:0:
472,208,295121,1,12,0:0:0:0:
216,224,295292,5,0,0:0:0:0:
152,208,295378,1,0,0:0:0:0:
96,184,295464,1,0,0:0:0:0:
56,144,295549,1,0,0:0:0:0:
104,144,295635,2,0,L|208:144,1,85
352,176,295892,1,0,0:0:0:0:
392,152,295978,1,0,0:0:0:0:
432,120,296064,2,0,L|368:112,1,42.5
328,120,296235,1,0,0:0:0:0:
40,200,296321,5,12,0:0:0:0:
472,216,296492,1,12,0:0:0:0:
40,184,296835,1,12,0:0:0:0:
184,168,297092,1,0,0:0:0:0:
248,168,297178,1,0,0:0:0:0:
312,168,297264,1,0,0:0:0:0:
472,216,297349,5,12,0:0:0:0:
40,200,297521,1,12,0:0:0:0:
472,192,297864,1,12,0:0:0:0:
232,216,298035,5,0,0:0:0:0:
176,192,298121,1,0,0:0:0:0:
120,160,298206,1,0,0:0:0:0:
88,136,298292,1,0,0:0:0:0:
272,176,298378,1,0,0:0:0:0:
312,152,298464,1,0,0:0:0:0:
360,128,298549,1,0,0:0:0:0:
192,128,298635,1,0,0:0:0:0:
136,104,298721,1,0,0:0:0:0:
312,128,298806,1,0,0:0:0:0:
360,112,298892,1,0,0:0:0:0:
400,96,298978,1,0,0:0:0:0:
40,168,299064,5,12,0:0:0:0:
472,160,299235,1,12,0:0:0:0:
40,184,299578,1,12,0:0:0:0:
472,168,300092,5,12,0:0:0:0:
40,128,300264,1,12,0:0:0:0:
472,112,300606,1,12,0:0:0:0:
216,224,300778,5,0,0:0:0:0:
152,208,300864,1,0,0:0:0:0:
96,184,300950,1,0,0:0:0:0:
56,144,301035,1,0,0:0:0:0:
112,144,301121,2,0,L|208:144,1,85
352,176,301378,1,8,0:0:0:0:
392,152,301464,1,8,0:0:0:0:
432,120,301550,2,8,L|376:112,1,42.5
328,120,301721,1,8,0:0:0:0:
40,160,301806,5,12,0:0:0:0:
472,160,301978,1,12,0:0:0:0:
40,152,302321,1,12,0:0:0:0:
392,184,302664,5,12,0:0:0:0:
256,184,302835,1,12,0:0:0:0:
24,184,303006,1,12,0:0:0:0:
256,192,303178,12,0,305235,0:0:0:100:gameover.mp3
