osu file format v14

[General]
AudioFilename: WBB E026A YUMMY YUMMY.mp3
AudioLeadIn: 0
PreviewTime: 21122
Countdown: 0
SampleSet: Soft
StackLeniency: 0.3
Mode: 0
LetterboxInBreaks: 0
WidescreenStoryboard: 1

[Editor]
DistanceSpacing: 1.1
BeatDivisor: 4
GridSize: 4
TimelineZoom: 0.9

[Metadata]
Title:Yummy Yummy
TitleUnicode:Yummy Yummy
Artist:Brad Breeck
ArtistUnicode:Brad Breeck
Creator:KittyAdventure
Version:Waji's Normal
Source:We Bare Bears
Tags:bradbreeck Joseph Kahyun Kim panda panda's dream shorts dancing Cartoon Network Daniel Chong Inhae Lee Girls' Generation Paparazzi SNSD wajinshu lilyadest gokugohan12468 Cosmolade PinkuShine Gordon123 _DT3 -Nya- TurtleStuffs
BeatmapID:935006
BeatmapSetID:433815

[Difficulty]
HPDrainRate:4
CircleSize:3.5
OverallDifficulty:4
ApproachRate:4.5
SliderMultiplier:1.4
SliderTickRate:2

[Events]
//Background and Video events
0,0,"BG.jpeg",0,0
//Break Periods
//Storyboard Layer 0 (Background)
//Storyboard Layer 1 (Fail)
//Storyboard Layer 2 (Pass)
//Storyboard Layer 3 (Foreground)
//Storyboard Sound Samples

[TimingPoints]
310,465.116279069767,4,2,1,70,1,0
7286,465.116279069767,4,2,1,70,1,0
13797,465.116279069767,4,2,1,70,1,0
20308,-100,5,2,1,70,0,0
21238,-100,5,2,1,70,0,0
21355,-100,5,2,1,70,0,0
51936,465.116279069767,4,2,1,70,1,0
54261,-100,4,2,1,15,0,0
55192,465.116279069767,4,2,1,70,1,1
62401,-100,4,2,1,70,0,0
62633,-100,4,2,1,35,0,0
62866,-100,4,2,1,5,0,0

[Colours]
Combo1 : 123,232,104
Combo2 : 81,147,255
Combo3 : 158,62,255
Combo4 : 255,111,114

[HitObjects]
109,309,310,6,0,P|100:267|100:230,1,70,2|0,2:3|0:0,0:0:0:0:
155,186,775,2,0,P|164:144|164:107,1,70,2|0,0:0|0:0,0:0:0:0:
137,45,1240,2,0,L|257:39,2,105,2|0|0,0:0|0:0|0:0,0:0:0:0:
60,54,2170,2,0,B|44:128|87:128|62:205,1,140,2|0,0:0|0:0,0:0:0:0:
203,261,3100,2,0,B|219:187|176:187|201:110,1,140,2|2,0:0|0:0,0:0:0:0:
344,77,4030,6,0,P|397:70|435:72,1,70,2|0,2:3|0:0,0:0:0:0:
433,145,4496,2,0,P|428:192|430:234,1,70,2|0,0:0|0:0,0:0:0:0:
438,291,4961,2,0,P|485:268|503:201,2,105,2|2|0,0:0|0:0|0:0,0:0:0:0:
360,293,5891,2,0,P|306:284|272:283,1,70,2|0,0:0|0:0,0:0:0:0:
213,278,6356,1,0,0:0:0:0:
213,278,7286,6,0,B|201:209|247:209|217:130,1,140,6|8,2:3|0:0,0:0:0:0:
189,70,7983,1,0,0:0:0:0:
112,63,8216,2,0,P|65:60|37:64,1,70,2|0,0:0|0:0,0:0:0:0:
5,130,8681,1,8,0:0:0:0:
98,252,9146,2,0,P|152:238|186:234,1,70,2|0,0:2|0:0,0:0:0:0:
241,251,9611,1,8,0:0:0:0:
116,341,10076,2,0,P|48:331|8:255,1,140,2|8,0:0|0:0,0:0:0:0:
12,198,10774,1,0,0:0:0:0:
87,185,11006,6,0,P|170:183|232:178,1,140,2|8,0:2|0:0,0:0:0:0:
303,171,11704,1,0,0:0:0:0:
379,175,11937,2,0,P|381:214|379:250,1,70,2|0,0:0|0:0,0:0:0:0:
357,318,12402,1,8,0:0:0:0:
472,215,12867,1,2,0:2:0:0:
380,91,13332,1,8,0:0:0:0:
229,124,13797,6,0,B|161:131|161:95|86:113,1,140,6|8,0:0|0:0,0:0:0:0:
24,250,14727,2,0,P|1:218|-8:181,2,70,2|0|8,2:3|0:0|0:0,0:0:0:0:
92,285,15424,1,0,0:0:0:0:
165,306,15657,2,0,P|247:312|309:305,1,140,2|8,2:3|0:0,0:0:0:0:
440,234,16587,2,0,P|469:265|485:298,2,70,2|0|8,2:3|0:0|0:0,0:0:0:0:
304,161,17517,6,0,P|273:100|312:28,1,140,2|8,2:3|0:0,0:0:0:0:
390,164,18448,2,0,P|381:203|353:235,2,70,2|0|8,2:3|0:0|0:0,0:0:0:0:
353,97,19145,1,0,0:0:0:0:
300,40,19378,2,0,P|186:34|144:31,1,140,2|8,2:3|0:0,0:0:0:0:
21,100,20308,1,2,2:3:0:0:
209,343,21238,6,0,P|142:360|71:337,1,140,6|8,0:0|0:0,0:0:0:0:
174,221,22169,2,0,P|216:217|248:223,1,70,2|0,2:3|0:0,0:0:0:0:
313,252,22634,2,0,P|355:256|387:250,1,70,8|0,0:0|0:0,0:0:0:0:
443,204,23099,2,0,P|459:257|410:322,1,140,2|8,2:3|0:0,0:0:0:0:
355,177,24029,2,0,P|382:136|424:115,1,70,2|0,2:3|0:0,0:0:0:0:
450,67,24494,2,0,P|423:26|381:5,1,70,8|0,0:0|0:0,0:0:0:0:
337,48,24959,6,0,B|287:60|287:60|176:57,1,140,2|8,2:3|0:0,0:0:0:0:
57,121,25890,2,0,P|43:84|41:50,2,70,2|0|8,2:3|0:0|0:0,0:0:0:0:
110,176,26587,1,0,0:0:0:0:
176,215,26820,2,0,L|328:211,1,140,2|8,2:3|0:0,0:0:0:0:
456,148,27750,1,2,2:3:0:0:
334,52,28215,1,8,0:0:0:0:
395,193,28680,6,0,P|392:240|310:291,1,140,2|8,2:3|0:0,0:0:0:0:
315,211,29378,1,0,0:0:0:0:
325,134,29610,2,0,P|377:104|456:124,1,140,2|8,2:3|0:0,0:0:0:0:
401,262,30541,2,0,L|392:171,2,70,2|0|8,2:3|0:0|0:0,0:0:0:0:
359,326,31238,1,0,0:0:0:0:
282,328,31471,2,0,P|233:309|149:331,1,140,2|8,2:3|0:0,0:0:0:0:
27,237,32401,6,0,P|23:129|19:82,1,140,2|8,2:3|0:0,0:0:0:0:
96,107,33099,1,0,0:0:0:0:
171,122,33331,2,0,P|239:138|317:112,1,140,2|8,2:3|0:0,0:0:0:0:
437,40,34262,2,0,L|495:-2,2,70,2|0|8,2:3|0:0|0:0,0:0:0:0:
422,115,34959,1,0,0:0:0:0:
453,184,35192,2,0,P|386:183|347:128,1,140,2|8,2:3|0:0,0:0:0:0:
225,222,36122,6,0,P|186:224|145:221,2,70,6|0|8,0:0|0:0|0:0,0:0:0:0:
265,156,36820,1,0,0:0:0:0:
195,123,37052,2,0,P|156:121|115:124,2,70,2|0|8,2:3|0:0|0:0,0:0:0:0:
253,72,37750,1,0,0:0:0:0:
324,43,37983,2,0,P|363:41|404:44,1,70,2|0,2:3|0:0,0:0:0:0:
466,69,38448,2,0,P|468:108|465:149,1,70,8|0,0:0|0:0,0:0:0:0:
433,208,38913,2,0,P|377:200|285:205,1,140,2|8,2:3|0:0,0:0:0:0:
146,160,39843,6,0,P|148:119|147:78,2,70,2|0|8,2:3|0:0|0:0,0:0:0:0:
86,209,40541,1,0,0:0:0:0:
48,275,40773,2,0,P|46:316|47:357,2,70,2|0|8,2:3|0:0|0:0,0:0:0:0:
86,209,41471,1,0,0:0:0:0:
161,222,41703,2,0,P|196:224|252:217,1,70,2|0,2:3|0:0,0:0:0:0:
273,156,42169,2,0,P|308:154|364:161,1,70,8|0,0:0|0:0,0:0:0:0:
395,213,42634,2,0,B|399:262|399:262|364:360,1,140,2|8,2:3|0:0,0:0:0:0:
217,319,43564,6,0,L|210:246,1,70,2|0,2:3|0:0,0:0:0:0:
278,213,44029,2,0,L|285:140,1,70,8|0,0:0|0:0,0:0:0:0:
279,66,44494,2,0,P|320:59|359:59,2,70,2|0|8,2:3|0:0|0:0,0:0:0:0:
133,117,45424,2,0,L|126:190,1,70,2|0,2:3|0:0,0:0:0:0:
194,223,45890,2,0,L|201:296,1,70,8|0,0:0|0:0,0:0:0:0:
182,368,46355,2,0,P|240:359|277:292,1,140,2|8,2:3|0:0,0:0:0:0:
273,138,47285,6,0,P|321:139|365:135,1,70,2|0,2:3|0:0,0:0:0:0:
419,130,47750,2,0,P|415:173|416:209,1,70,8|0,0:0|0:0,0:0:0:0:
424,276,48215,2,0,L|503:271,2,70,2|0|8,2:3|0:0|0:0,0:0:0:0:
273,308,49145,2,0,P|215:292|123:318,1,140,8|8,0:0|0:0,0:0:0:0:
24,204,50076,2,0,L|20:335,2,105,8|8|8,0:0|0:0|0:0,0:0:0:0:
90,165,51006,6,0,P|177:160|241:151,1,140,8|8,0:0|0:0,0:0:0:0:
256,192,51936,12,0,54262,0:0:0:0:
225,127,55192,5,6,0:0:0:0:
376,152,55657,2,0,P|377:187|376:233,2,70,8|0|2,2:0|0:0|2:3,0:0:0:0:
361,76,56354,1,0,0:0:0:0:
285,61,56587,2,0,P|231:53|199:53,1,70,8|0,2:0|0:0,0:0:0:0:
142,76,57052,2,0,L|150:238,1,140,2|8,2:3|2:0,0:0:0:0:
209,264,57750,1,0,0:0:0:0:
277,229,57982,2,0,P|334:220|368:221,1,70,2|0,2:3|0:0,0:0:0:0:
420,240,58447,1,8,2:0:0:0:
415,317,58680,6,0,P|358:326|324:325,1,70,0|2,0:0|2:3,0:0:0:0:
269,314,59145,1,0,0:0:0:0:
209,264,59378,2,0,L|211:185,1,70,8|0,2:0|0:0,0:0:0:0:
162,133,59843,2,0,L|160:54,1,70,2|0,2:3|0:0,0:0:0:0:
236,53,60308,2,0,P|274:60|326:64,1,70,8|0,2:0|0:0,0:0:0:0:
381,74,60773,2,0,P|388:178|388:224,1,140,2|8,2:3|2:0,0:0:0:0:
351,281,61471,1,0,0:0:0:0:
283,317,61703,2,0,P|239:317|200:309,1,70,2|0,2:3|0:0,0:0:0:0:
147,272,62168,1,8,2:0:0:0:
87,223,62401,6,0,P|129:196|213:231,1,140
