osu file format v14

[General]
AudioFilename: audio.mp3
AudioLeadIn: 0
PreviewTime: 27820
Countdown: 0
SampleSet: Normal
StackLeniency: 0.7
Mode: 2
LetterboxInBreaks: 0
WidescreenStoryboard: 1

[Editor]
DistanceSpacing: 1.1
BeatDivisor: 4
GridSize: 4
TimelineZoom: 1

[Metadata]
Title:Step Off Playa
TitleUnicode:Step Off Playa
Artist:Brad Breeck
ArtistUnicode:Brad Breeck
Creator:Chatie
Version:Rain
Source:We Bare Bears
Tags:Rock Pop English bradbreeck Ice Grizzly Cartoon Network CN Western Animation Daniel Chong WBB Panda's Sneeze
BeatmapID:3147683
BeatmapSetID:1539675

[Difficulty]
HPDrainRate:5
CircleSize:3.5
OverallDifficulty:8.6
ApproachRate:8.6
SliderMultiplier:2.2
SliderTickRate:1

[Events]
//Background and Video events
0,0,"bgbgbg.jpg",0,0
//Break Periods
//Storyboard Layer 0 (Background)
//Storyboard Layer 1 (Fail)
//Storyboard Layer 2 (Pass)
//Storyboard Layer 3 (Foreground)
//Storyboard Layer 4 (Overlay)
//Storyboard Sound Samples

[TimingPoints]
392,428.571428571429,4,2,1,45,1,0
3820,-100,4,2,1,55,0,0
8320,-100,4,1,1,60,0,0
8963,-100,4,2,1,55,0,0
19249,-100,4,1,1,55,0,0
19677,-100,4,1,1,60,0,0
20106,-100,4,1,1,65,0,0
20534,-100,4,1,1,70,0,0
20963,-100,4,2,1,55,0,0
24392,-100,4,1,1,60,0,0
26963,-100,4,1,1,60,0,0
27177,-100,4,1,1,55,0,0
27392,-100,4,1,1,50,0,0
27603,-100,4,1,1,45,0,0
27820,-100,4,2,1,60,0,1
41534,-100,4,1,1,50,0,0

[Colours]
Combo1 : 95,192,245
Combo2 : 121,121,121
Combo3 : 191,96,0
Combo4 : 215,215,215

[HitObjects]
256,192,392,12,0,3392,0:0:0:0:
59,230,3820,6,0,L|60:109,1,110,6|0,0:0|0:0,0:0:0:0:
247,122,4249,1,8,0:0:0:0:
59,120,4677,1,0,0:0:0:0:
301,151,5106,1,8,0:0:0:0:
26,198,5320,6,0,L|147:199,1,110,2|0,0:0|0:0,0:0:0:0:
247,200,5749,1,0,0:0:0:0:
59,150,5963,1,8,0:0:0:0:
266,194,6392,2,0,L|143:194,1,110,0|0,0:0|0:0,0:0:0:0:
344,195,6820,2,0,L|470:195,1,110,8|0,0:0|0:0,0:0:0:0:
176,218,7249,6,0,L|31:219,1,110,2|0,0:0|0:0,0:0:0:0:
254,214,7677,1,8,0:0:0:0:
132,149,8106,1,0,0:0:0:0:
309,153,8320,1,0,0:0:0:0:
132,149,8534,1,0,0:0:0:0:
309,153,8749,1,0,0:0:0:0:
34,144,8963,5,6,0:0:0:0:
211,115,9177,1,0,0:0:0:0:
33,187,9392,2,0,L|19:57,1,110,8|0,0:0|0:0,0:0:0:0:
296,85,9820,2,0,L|311:240,1,110
130,107,10249,2,0,L|9:105,1,110,8|0,0:0|0:0,0:0:0:0:
295,132,10677,6,0,L|180:134,1,110,2|0,0:0|0:0,0:0:0:0:
373,197,11106,2,0,L|393:84,1,110,8|0,0:0|0:0,0:0:0:0:
116,247,11534,2,0,P|100:129|197:87,1,220,0|8,0:0|0:0,0:0:0:0:
286,91,12177,1,0,0:0:0:0:
98,234,12392,6,0,L|98:103,1,110,2|0,0:0|0:0,0:0:0:0:
376,189,12820,2,0,L|295:73,1,110,8|0,0:0|0:0,0:0:0:0:
125,117,13249,2,0,L|-5:117,1,110
202,118,13677,1,8,0:0:0:0:
92,119,13892,1,0,0:0:0:0:
380,156,14106,5,2,0:0:0:0:
380,156,14320,1,0,0:0:0:0:
269,155,14534,1,8,0:0:0:0:
380,156,14749,1,0,0:0:0:0:
98,183,14963,2,0,L|337:184,1,220,0|8,0:0|0:0,0:0:0:0:
128,225,15606,1,8,0:0:0:0:
404,253,15820,6,0,L|294:253,1,110,10|0,0:0|0:0,0:0:0:0:
404,253,16249,1,8,0:0:0:0:
125,244,16463,2,0,L|124:129,1,110
242,134,16892,1,0,0:0:0:0:
431,130,17106,1,8,0:0:0:0:
319,134,17320,1,0,0:0:0:0:
37,225,17534,6,0,L|39:94,1,110,2|0,0:0|0:0,0:0:0:0:
231,225,17963,2,0,L|229:78,1,110,8|0,0:0|0:0,0:0:0:0:
406,211,18392,2,0,L|391:64,1,110
208,112,18820,2,0,L|336:109,1,110,8|0,0:0|0:0,0:0:0:0:
37,222,19249,6,0,L|36:86,1,110,0|0,0:0|0:0,0:0:0:0:
311,263,19677,2,0,L|425:219,1,110,8|0,0:0|0:0,0:0:0:0:
132,269,20106,2,0,L|18:242,1,110,0|0,0:0|0:0,0:0:0:0:
301,194,20534,1,8,0:0:0:0:
124,190,20749,1,0,0:0:0:0:
405,254,20963,6,0,P|445:131|361:88,1,220,4|8,0:0|0:0,0:0:0:0:
106,273,21606,2,0,P|91:122|144:79,1,220,0|0,0:0|0:0,0:0:0:0:
243,78,22249,1,8,0:0:0:0:
430,67,22463,1,8,0:0:0:0:
150,252,22677,6,0,L|373:251,1,220,2|8,0:0|0:0,0:0:0:0:
257,251,23320,1,0,0:0:0:0:
59,286,23534,2,0,P|37:144|126:114,1,220,8|8,0:0|0:0,0:0:0:0:
195,109,24177,1,0,0:0:0:0:
475,100,24392,5,0,0:0:0:0:
366,102,24606,1,0,0:0:0:0:
84,97,24820,1,0,0:0:0:0:
366,102,25249,1,0,0:0:0:0:
200,99,25677,1,0,0:0:0:0:
310,103,25892,1,0,0:0:0:0:
33,222,26106,6,0,L|33:102,1,110,12|0,0:0|0:0,0:0:0:0:
145,109,26534,2,0,L|9:110,1,110,0|0,0:0|0:0,0:0:0:0:
313,119,26963,1,8,0:0:0:0:
423,121,27177,1,8,0:0:0:0:
423,121,27392,1,8,0:0:0:0:
313,119,27606,1,8,0:0:0:0:
35,130,27820,5,4,0:0:0:0:
215,238,28034,2,0,L|369:283,1,110,0|2,0:0|0:0,0:0:0:0:
130,158,28463,1,0,0:0:0:0:
406,238,28677,2,0,L|264:239,1,110
473,238,29106,1,2,0:0:0:0:
363,246,29320,1,2,0:0:0:0:
81,215,29534,5,8,0:0:0:0:
265,219,29748,2,0,L|379:218,1,110,0|2,0:0|0:0,0:0:0:0:
97,260,30177,2,0,P|56:131|133:87,1,220
297,74,30820,1,2,0:0:0:0:
187,78,31034,1,2,0:0:0:0:
468,80,31249,5,8,0:0:0:0:
281,180,31463,2,0,L|280:49,1,110,0|2,0:0|0:0,0:0:0:0:
468,80,31892,1,0,0:0:0:0:
191,258,32106,2,0,L|42:259,1,110
258,259,32535,1,2,0:0:0:0:
367,255,32749,1,2,0:0:0:0:
88,222,32963,5,8,0:0:0:0:
275,249,33177,2,0,L|145:244,1,110,0|2,0:0|0:0,0:0:0:0:
443,267,33606,2,0,P|489:163|426:87,1,220
248,89,34249,1,2,0:0:0:0:
361,95,34463,1,2,0:0:0:0:
75,98,34677,5,8,0:0:0:0:
260,188,34891,2,0,L|390:188,1,110,0|2,0:0|0:0,0:0:0:0:
182,184,35320,1,0,0:0:0:0:
459,281,35534,2,0,L|460:166,1,110
272,208,35963,1,2,0:0:0:0:
158,207,36177,1,2,0:0:0:0:
434,205,36392,5,8,0:0:0:0:
251,239,36606,2,0,L|98:240,1,110,0|2,0:0|0:0,0:0:0:0:
419,252,37034,2,0,P|452:139|355:98,1,220
194,192,37677,2,0,L|193:66,1,110,2|2,0:0|0:0,0:0:0:0:
472,176,38106,6,0,L|360:253,1,110,8|0,0:0|0:0,0:0:0:0:
194,192,38534,2,0,L|332:194,1,110,2|0,0:0|0:0,0:0:0:0:
22,227,38963,2,0,L|21:102,1,110
207,101,39392,1,2,0:0:0:0:
94,108,39606,1,2,0:0:0:0:
379,218,39820,6,0,L|384:91,1,110,8|0,0:0|0:0,0:0:0:0:
105,253,40249,2,0,L|101:97,1,110,2|0,0:0|0:0,0:0:0:0:
288,169,40677,2,0,L|407:169,1,110
122,273,41106,2,0,L|98:160,1,110,2|2,0:0|0:0,0:0:0:0:
385,222,41534,6,0,L|386:338,1,110,4|0,0:0|0:0,0:0:0:0:
194,226,41963,1,2,0:0:0:0:
304,226,42177,1,2,0:0:0:0:
25,251,42391,2,0,L|155:251,1,110
324,254,42820,1,2,0:0:0:0:
44,244,43034,1,2,0:0:0:0:
