osu file format v14

[General]
AudioFilename: audio.mp3
AudioLeadIn: 0
PreviewTime: 6027
Countdown: 0
SampleSet: Soft
StackLeniency: 0.7
Mode: 0
LetterboxInBreaks: 0
WidescreenStoryboard: 0

[Editor]
Bookmarks: 6121,18121,30121,42121,54121
DistanceSpacing: 1.5
BeatDivisor: 4
GridSize: 4
TimelineZoom: 1

[Metadata]
Title:S2 Trailer Theme
TitleUnicode:S2 Trailer Theme
Artist:Brad Breeck
ArtistUnicode:Brad Breeck
Creator:Kaitjuh
Version:Hard
Source:Gravity Falls
Tags:bradbreeck season two alternate opening
BeatmapID:1296859
BeatmapSetID:614235

[Difficulty]
HPDrainRate:5
CircleSize:3.5
OverallDifficulty:6
ApproachRate:7.5
SliderMultiplier:1.2
SliderTickRate:1

[Events]
//Background and Video events
0,0,"bg.jpg",0,0
//Break Periods
//Storyboard Layer 0 (Background)
//Storyboard Layer 1 (Fail)
//Storyboard Layer 2 (Pass)
//Storyboard Layer 3 (Foreground)
//Storyboard Sound Samples

[TimingPoints]
121,375,4,2,1,30,1,0
5558,-100,4,2,1,40,0,0
6121,-100,4,2,1,60,0,0
30121,-100,4,2,1,50,0,0
42121,-100,4,2,1,60,0,1
54121,-100,4,2,1,60,0,0
54214,-100,4,2,1,5,0,0

[Colours]
Combo1 : 64,128,128
Combo2 : 0,255,255
Combo3 : 0,128,192
Combo4 : 0,128,0

[HitObjects]
154,82,121,6,0,L|155:15,2,60,2|0|2,0:0|0:0|0:0,0:0:0:0:
205,156,683,1,0,0:0:0:0:
148,226,871,2,0,P|203:247|263:226,1,120,2|2,0:0|0:0,0:0:0:0:
378,93,1621,6,0,L|256:90,1,120,2|2,0:0|0:0,0:0:0:0:
89,153,2371,2,0,L|211:156,1,120,2|2,0:0|0:0,0:0:0:0:
260,230,2933,1,0,0:0:0:0:
176,294,3121,6,0,P|170:259|177:230,2,60,2|0|2,0:0|0:0|0:0,0:0:0:0:
238,358,3683,1,0,0:0:0:0:
308,301,3871,2,0,P|365:285|422:301,1,120,2|2,0:0|0:0,0:0:0:0:
367,129,4621,5,2,0:0:0:0:
350,154,4996,1,2,0:0:0:0:
334,179,5371,1,2,0:0:0:0:
246,159,5558,5,0,3:0:0:0:
246,159,5652,1,0,3:0:0:0:
246,159,5746,1,8,3:2:0:0:
182,95,5933,1,0,3:0:0:0:
90,173,6121,6,0,P|82:207|96:246,1,60,2|0,3:2|0:0,0:0:0:0:
177,232,6496,1,10,0:0:0:0:
134,311,6683,2,0,L|266:308,1,120,2|0,3:2|3:0,0:0:0:0:
317,244,7246,1,8,3:2:0:0:
341,330,7433,1,0,0:0:0:0:
402,263,7621,6,0,L|488:282,1,60,0|0,0:0|3:0,0:0:0:0:
441,158,7996,2,0,L|355:177,1,60,8|0,3:2|0:0,0:0:0:0:
256,97,8371,2,0,L|275:183,1,60,2|2,3:2|0:0,0:0:0:0:
355,38,8746,2,0,L|342:96,1,60,10|2,3:2|0:0,0:0:0:0:
194,51,9121,6,0,L|221:174,1,120,2|8,3:2|0:0,0:0:0:0:
237,256,9683,1,0,3:0:0:0:
91,241,9871,2,0,L|167:221,1,60,0|0,0:0|3:0,0:0:0:0:
295,240,10246,2,0,L|219:260,1,60,10|0,3:2|0:0,0:0:0:0:
167,313,10621,5,2,0:0:0:0:
167,313,10996,2,0,L|187:389,1,60,8|0,3:2|0:0,0:0:0:0:
272,377,11371,1,0,3:0:0:0:
330,309,11558,1,0,0:0:0:0:
410,349,11746,2,0,L|472:338,1,60,8|0,3:2|0:0,0:0:0:0:
409,254,12121,6,0,L|410:182,1,60,2|2,3:2|0:0,0:0:0:0:
463,121,12496,2,0,P|403:138|342:114,1,120,10|2,0:0|0:0,0:0:0:0:
180,58,13246,1,8,3:2:0:0:
180,58,13433,6,0,P|239:40|301:65,1,120,2|0,0:0|3:0,0:0:0:0:
235,188,13996,2,0,L|235:115,1,60,8|0,3:2|0:0,0:0:0:0:
146,144,14371,1,0,3:0:0:0:
87,76,14558,1,0,0:0:0:0:
53,159,14746,2,0,L|53:232,1,60,10|2,3:2|0:0,0:0:0:0:
25,317,15121,6,0,B|85:340|85:287|153:320,1,120,2|8,3:2|0:0,0:0:0:0:
219,360,15683,1,0,3:0:0:0:
219,360,15871,2,0,P|234:312|189:239,1,120,2|8,0:0|3:2,0:0:0:0:
120,224,16433,1,0,0:0:0:0:
120,224,16621,6,0,L|120:151,1,60,2|0,0:0|3:0,0:0:0:0:
201,83,16996,2,0,L|201:156,1,60,10|0,3:2|0:0,0:0:0:0:
281,223,17371,2,0,L|281:150,1,60,2|0,3:2|0:0,0:0:0:0:
362,82,17746,2,0,L|362:155,1,60,10|8,3:2|3:2,0:0:0:0:
442,222,18121,6,0,L|442:149,2,60,2|2|10,3:2|0:0|0:0,0:0:0:0:
442,311,18683,1,0,3:0:0:0:
364,264,18871,2,0,P|307:242|244:267,1,120,2|8,0:0|3:2,0:0:0:0:
177,308,19433,6,0,P|140:319|94:314,2,60,2|2|0,0:0|0:0|3:0,0:0:0:0:
253,259,19996,2,0,P|275:202|250:139,1,120,10|0,3:2|3:0,0:0:0:0:
179,102,20558,1,2,0:0:0:0:
105,153,20746,2,0,L|34:163,1,60,10|2,3:2|0:0,0:0:0:0:
96,68,21121,6,0,L|87:8,2,60,2|2|10,3:2|0:0|0:0,0:0:0:0:
179,102,21683,1,0,3:0:0:0:
105,153,21871,2,0,L|123:286,1,120,2|8,0:2|3:2,0:0:0:0:
210,271,22433,1,2,0:0:0:0:
166,349,22621,6,0,P|203:359|250:350,1,60,0|2,0:0|3:2,0:0:0:0:
296,303,22996,2,0,B|306:264|306:264|295:225|295:225|309:172,1,120,10|2,3:2|3:2,0:0:0:0:
380,139,23558,1,0,0:0:0:0:
389,228,23746,2,0,P|417:231|455:223,1,60,10|2,3:2|0:0,0:0:0:0:
468,126,24121,6,0,L|496:71,2,60,2|2|10,3:2|0:0|0:0,0:0:0:0:
380,139,24683,1,0,3:2:0:0:
412,56,24871,2,0,L|270:66,1,120,2|8,0:0|3:2,0:0:0:0:
280,153,25433,1,0,0:0:0:0:
207,98,25621,6,0,P|200:63|210:25,1,60,2|2,0:0|3:2,0:0:0:0:
280,153,25996,2,0,P|227:186|163:179,1,120,10|2,3:2|3:2,0:0:0:0:
115,111,26558,1,0,0:0:0:0:
171,182,26746,2,0,L|172:258,1,60,10|2,3:2|0:0,0:0:0:0:
100,297,27121,6,0,L|24:298,2,60,2|2|10,3:2|0:0|0:0,0:0:0:0:
182,332,27683,1,0,3:2:0:0:
253,277,27871,2,0,B|293:263|293:263|374:274,1,120,2|8,0:0|3:2,0:0:0:0:
455,300,28433,1,2,0:0:0:0:
391,217,28621,6,0,L|362:291,1,60,2|2,0:0|3:2,0:0:0:0:
469,143,28996,2,0,L|498:217,1,60,10|0,3:2|0:0,0:0:0:0:
394,61,29371,2,0,L|365:135,1,60,2|0,3:2|0:0,0:0:0:0:
499,44,29746,1,10,3:2:0:0:
499,44,29933,1,2,3:2:0:0:
394,61,30121,6,0,L|257:61,1,120,2|2,3:2|0:0,0:0:0:0:
198,11,30683,1,2,0:0:0:0:
198,11,30871,2,0,P|183:61|224:138,1,120,10|2,3:2|0:0,0:0:0:0:
323,259,31621,6,0,L|387:259,1,60,2|0,3:2|0:0,0:0:0:0:
407,172,31996,2,0,L|342:172,1,60,2|0,3:2|0:0,0:0:0:0:
259,193,32371,2,0,P|209:213|140:181,1,120,10|2,3:2|0:0,0:0:0:0:
274,61,33121,6,0,L|394:61,1,120,2|2,3:2|0:0,0:0:0:0:
470,108,33683,1,2,0:0:0:0:
389,149,33871,2,0,P|385:182|393:220,1,60,10|0,3:2|0:0,0:0:0:0:
469,248,34246,2,0,P|473:281|465:319,1,60,2|0,0:0|0:0,0:0:0:0:
396,361,34621,6,0,L|276:361,1,120,0|0,0:0|3:0,0:0:0:0:
121,268,35371,1,8,3:2:0:0:
147,353,35558,1,0,3:0:0:0:
147,183,35933,1,0,3:0:0:0:
121,268,36121,6,0,P|192:259|228:219,1,120,2|2,3:2|0:0,0:0:0:0:
224,136,36683,1,2,0:0:0:0:
301,182,36871,2,0,L|383:198,1,60,8|2,3:2|0:0,0:0:0:0:
401,112,37246,2,0,L|464:166,1,60,2|0,0:0|0:0,0:0:0:0:
439,242,37621,6,0,P|394:280|335:283,1,120,2|2,3:2|3:2,0:0:0:0:
270,219,38183,1,2,0:0:0:0:
183,302,38371,2,0,L|267:302,1,60,8|2,3:2|0:0,0:0:0:0:
127,222,38746,2,0,L|211:222,1,60,2|0,0:0|0:0,0:0:0:0:
71,142,39121,6,0,L|215:142,1,120,2|2,3:2|0:0,0:0:0:0:
206,53,39683,1,2,0:0:0:0:
276,109,39871,2,0,P|283:144|272:182,1,60,8|2,3:2|0:0,0:0:0:0:
225,240,40246,2,0,P|190:247|152:236,1,60,2|0,0:0|0:0,0:0:0:0:
71,142,40621,6,0,L|215:142,1,120,0|0,0:0|3:2,0:0:0:0:
206,53,41183,1,0,0:0:0:0:
276,109,41371,2,0,P|283:144|272:182,1,60,8|0,3:2|3:2,0:0:0:0:
252,253,41746,2,0,P|281:257|310:250,1,60,0|0,0:0|0:0,0:0:0:0:
371,182,42121,5,2,3:2:0:0:
371,182,42214,1,0,0:0:0:0:
371,182,42308,1,0,0:0:0:0:
402,97,42496,2,0,L|425:24,1,60,10|2,0:0|3:2,0:0:0:0:
494,90,42871,2,0,L|530:91,2,30,2|0|0,0:0|0:0|3:0,0:0:0:0:
454,171,43246,2,0,L|477:244,1,60,10|2,3:2|0:0,0:0:0:0:
497,314,43621,6,0,L|421:321,1,60,2|0,0:0|3:0,0:0:0:0:
386,244,43996,2,0,L|310:251,1,60,10|2,3:2|0:0,0:0:0:0:
291,332,44371,2,0,L|215:339,1,60,2|0,3:2|0:0,0:0:0:0:
157,285,44746,2,0,L|107:285,3,30,10|0|2|0,3:2|0:0|0:0|0:0,0:0:0:0:
157,285,45121,6,0,P|191:253|230:249,1,60,2|0,3:2|0:0,0:0:0:0:
271,190,45496,2,0,L|324:189,2,30,10|0|2,0:0|0:0|3:2,0:0:0:0:
183,169,45871,2,0,L|101:172,1,60,2|0,0:0|3:0,0:0:0:0:
49,119,46246,1,10,3:2:0:0:
49,119,46339,1,0,0:0:0:0:
49,119,46433,1,2,0:0:0:0:
128,25,46621,6,0,L|132:99,1,60,2|0,0:0|3:2,0:0:0:0:
207,36,46996,2,0,L|211:110,1,60,10|2,3:2|0:0,0:0:0:0:
292,59,47371,2,0,L|288:-15,1,60,2|0,3:2|0:0,0:0:0:0:
335,139,47746,1,10,3:2:0:0:
382,62,47933,1,2,0:0:0:0:
429,145,48121,5,2,3:2:0:0:
429,145,48214,1,0,0:0:0:0:
429,145,48308,1,0,0:0:0:0:
469,225,48496,2,0,P|436:235|389:225,1,60,10|2,3:2|3:2,0:0:0:0:
321,223,48871,2,0,L|275:217,3,30,2|0|0|0,0:0|0:0|3:2|0:0,0:0:0:0:
321,223,49246,2,0,P|331:256|321:303,1,60,10|2,3:2|0:0,0:0:0:0:
198,326,49621,6,0,L|280:334,1,60,2|0,0:0|3:2,0:0:0:0:
189,237,49996,2,0,L|107:245,1,60,10|2,3:2|0:0,0:0:0:0:
197,146,50371,2,0,L|279:154,1,60,2|0,3:2|0:0,0:0:0:0:
256,151,50652,1,0,0:0:0:0:
256,151,50746,1,10,3:2:0:0:
320,88,50933,1,2,0:0:0:0:
377,157,51121,6,0,P|411:162|457:153,1,60,2|0,3:2|0:0,0:0:0:0:
506,102,51496,2,0,L|507:51,2,30,10|0|2,3:2|0:0|3:2,0:0:0:0:
508,192,51871,2,0,L|504:277,1,60,2|0,0:0|3:2,0:0:0:0:
470,335,52246,1,10,3:2:0:0:
470,335,52339,1,0,0:0:0:0:
470,335,52433,1,2,0:0:0:0:
358,255,52621,6,0,L|443:259,1,60,2|0,0:0|3:2,0:0:0:0:
283,170,52996,2,0,L|368:174,1,60,10|2,3:2|0:0,0:0:0:0:
244,274,53371,2,0,L|193:272,3,30,2|0|0|0,3:2|0:0|3:2|0:0,0:0:0:0:
173,293,53746,5,10,3:2:0:0:
152,205,53933,1,2,0:0:0:0:
86,267,54121,1,2,0:0:0:0:
256,192,54214,12,0,55996,0:0:0:0:
