osu file format v14

[General]
AudioFilename: audio.mp3
AudioLeadIn: 0
PreviewTime: 6027
Countdown: 0
SampleSet: Soft
StackLeniency: 0.7
Mode: 0
LetterboxInBreaks: 0
WidescreenStoryboard: 0

[Editor]
Bookmarks: 6121,18121,30121,42121,54121
DistanceSpacing: 1
BeatDivisor: 2
GridSize: 4
TimelineZoom: 1

[Metadata]
Title:S2 Trailer Theme
TitleUnicode:S2 Trailer Theme
Artist:Brad Breeck
ArtistUnicode:Brad Breeck
Creator:Kaitjuh
Version:Easy
Source:Gravity Falls
Tags:bradbreeck season two alternate opening
BeatmapID:1296391
BeatmapSetID:614235

[Difficulty]
HPDrainRate:2
CircleSize:3
OverallDifficulty:2
ApproachRate:3
SliderMultiplier:0.8
SliderTickRate:1

[Events]
//Background and Video events
0,0,"bg.jpg",0,0
//Break Periods
//Storyboard Layer 0 (Background)
//Storyboard Layer 1 (Fail)
//Storyboard Layer 2 (Pass)
//Storyboard Layer 3 (Foreground)
//Storyboard Sound Samples

[TimingPoints]
121,375,4,2,1,30,1,0
5558,-100,4,2,1,40,0,0
6121,-100,4,2,1,60,0,0
30121,-100,4,2,1,50,0,0
42121,-100,4,2,1,60,0,1
54121,-100,4,2,1,60,0,0
54214,-100,4,2,1,5,0,0

[Colours]
Combo1 : 64,128,128
Combo2 : 0,255,255
Combo3 : 0,128,192
Combo4 : 0,128,0

[HitObjects]
99,259,121,6,0,P|175:279|267:248,1,160,2|2,0:0|0:0,0:0:0:0:
174,116,1621,2,0,P|169:77|181:26,2,80,2|2|2,0:0|0:0|0:0,0:0:0:0:
213,186,2746,1,2,0:0:0:0:
254,117,3121,6,0,P|330:96|406:116,1,160,2|2,0:0|0:0,0:0:0:0:
371,272,4621,2,0,P|410:277|461:265,2,80,2|2|2,0:0|0:0|0:0,0:0:0:0:
313,216,5746,1,8,3:2:0:0:
296,294,6121,6,0,L|204:298,1,80,2|10,3:2|0:0,0:0:0:0:
173,230,6871,2,0,L|133:231,2,40,0|0|8,0:0|3:0|3:2,0:0:0:0:
226,170,7621,2,0,P|229:129|222:90,1,80,0|8,0:0|3:2,0:0:0:0:
155,47,8371,1,2,3:2:0:0:
226,11,8746,1,10,3:2:0:0:
293,54,9121,6,0,B|359:76|349:34|416:55,2,120,2|0|10,3:2|3:0|3:2,0:0:0:0:
222,90,10621,2,0,P|215:129|218:169,1,80,2|8,0:0|3:2,0:0:0:0:
293,196,11371,2,0,L|333:195,2,40,0|0|8,3:0|0:0|3:2,0:0:0:0:
232,248,12121,6,0,P|187:244|150:210,1,80,2|10,3:2|0:0,0:0:0:0:
112,159,12871,2,0,B|61:207|100:225|49:265,2,120,2|2|8,0:0|0:0|3:2,0:0:0:0:
143,85,14371,2,0,L|139:28,2,40,0|0|10,3:0|0:0|3:2,0:0:0:0:
193,147,15121,6,0,L|286:160,1,80,2|8,3:2|0:0,0:0:0:0:
320,94,15871,2,0,L|413:107,1,80,2|8,0:0|3:2,0:0:0:0:
431,178,16621,2,0,L|399:267,2,80,2|10|2,0:0|3:2|3:2,0:0:0:0:
480,115,17746,1,10,3:2:0:0:
447,42,18121,6,0,L|354:29,1,80,2|10,3:2|0:0,0:0:0:0:
287,18,18871,1,2,0:0:0:0:
317,93,19246,2,0,L|304:186,2,80,8|2|10,3:2|0:0|3:2,0:0:0:0:
367,30,20371,1,0,3:0:0:0:
447,42,20746,1,10,3:2:0:0:
480,115,21121,6,0,L|467:208,1,80,2|10,3:2|0:0,0:0:0:0:
456,273,21871,1,2,0:2:0:0:
393,224,22246,2,0,L|313:212,2,80,8|0|10,3:2|0:0|3:2,0:0:0:0:
381,303,23371,2,0,L|301:291,1,80,2|10,3:2|3:2,0:0:0:0:
239,241,24121,6,0,P|235:204|257:157,1,80,2|10,3:2|0:0,0:0:0:0:
325,135,24871,1,2,0:0:0:0:
397,167,25246,2,0,P|412:203|408:243,2,80,8|2|10,3:2|0:0|3:2,0:0:0:0:
325,135,26371,1,2,3:2:0:0:
250,164,26746,1,10,3:2:0:0:
175,136,27121,6,0,L|95:124,1,80,2|10,3:2|0:0,0:0:0:0:
16,113,27871,1,2,0:0:0:0:
44,187,28246,1,8,3:2:0:0:
121,207,28621,2,0,P|126:244|109:287,1,80,2|10,0:0|3:2,0:0:0:0:
38,317,29371,2,0,P|63:347|99:363,1,80,2|10,3:2|3:2,0:0:0:0:
174,335,30121,6,0,L|344:342,1,160,2|10,3:2|3:2,0:0:0:0:
465,250,31621,2,0,L|468:155,2,80,2|2|10,3:2|3:2|3:2,0:0:0:0:
333,341,33121,6,0,L|173:334,1,160,2|10,3:2|3:2,0:0:0:0:
48,236,34621,2,0,L|51:141,1,80,0|0,0:0|3:0,0:0:0:0:
111,103,35371,2,0,L|162:102,1,40,8|0,3:2|3:0,0:0:0:0:
256,161,36121,6,0,P|315:190|407:151,1,160,2|8,3:2|3:2,0:0:0:0:
443,5,37621,2,0,L|355:12,1,80,2|2,3:2|3:2,0:0:0:0:
283,17,38371,1,8,3:2:0:0:
153,110,39121,6,0,L|329:124,2,160,2|8|0,3:2|3:2|0:0,0:0:0:0:
73,108,40996,2,0,L|75:192,1,80,0|8,3:2|3:2,0:0:0:0:
212,270,42121,6,0,P|254:276|294:263,1,80,2|10,3:2|0:0,0:0:0:0:
374,256,42871,2,0,P|357:216|326:187,1,80,2|10,0:0|3:2,0:0:0:0:
282,124,43621,2,0,P|255:157|246:198,1,80,2|10,0:0|3:2,0:0:0:0:
291,264,44371,1,2,3:2:0:0:
331,191,44746,1,10,3:2:0:0:
364,114,45121,6,0,L|465:122,1,80,2|10,3:2|0:0,0:0:0:0:
439,37,45871,2,0,L|339:30,1,80,2|10,0:0|3:2,0:0:0:0:
287,75,46621,2,0,L|280:176,1,80,2|10,0:0|3:2,0:0:0:0:
252,234,47371,1,2,3:2:0:0:
199,168,47746,1,10,3:2:0:0:
147,102,48121,6,0,B|123:132|123:132|115:179,1,80,2|10,3:2|3:2,0:0:0:0:
86,252,48871,2,0,B|123:258|123:258|168:242,1,80,2|10,0:0|3:2,0:0:0:0:
245,230,49621,2,0,B|230:194|230:194|194:163,1,80,2|10,0:0|3:2,0:0:0:0:
116,173,50371,1,2,3:2:0:0:
163,244,50746,1,10,3:2:0:0:
154,327,51121,6,0,L|50:337,1,80,2|10,3:2|3:2,0:0:0:0:
7,284,51871,2,0,L|-2:180,1,80,2|10,0:0|3:2,0:0:0:0:
50,137,52621,2,0,L|154:127,1,80,2|10,0:0|3:2,0:0:0:0:
197,180,53371,1,2,3:2:0:0:
265,231,53746,2,0,L|326:225,1,40,10|2,3:2|0:0,0:0:0:0:
256,192,54121,12,0,55996,0:0:0:0:
