osu file format v14

[General]
AudioFilename: audio.mp3
AudioLeadIn: 0
PreviewTime: 6437
Countdown: 0
SampleSet: None
StackLeniency: 1
Mode: 0
LetterboxInBreaks: 0
WidescreenStoryboard: 1

[Editor]
Bookmarks: 343,530,718,905,1093,1655,2218,2780,2968,3155,3343,3718,4093,4655,5218,5593,5780,5968,6155,6343,6530,6718,6905,7093,7280,7468,7655,7843,8030,8218,8405,8593,8780,8968,9155,9343,9530,9718,9905,10093,10280,10468,10655,10843,11030,11218,11405,11593,11780,11968,12155,12343,12905,12999,13468,13562,14124,14780,14968,15155,15343,15530,15718,15905,16093,16280,16468,16655,16843,17030,17218,17312,17593,17780,17968,18155,18343,18905,19468,20030,20593,20780,20968,21155,21343,21718,21905,22093,22280,22468,22655,22843,23030,23218,23593,23780,23968,24155,24343,24718,24905,25468,26030,26499,26687,26734,28093,28280,28468,28655,28843,29030,29218,29405,29593,29780,29968,30343,30530,30718,30905,31093,31468,31655,31843,32030,32218,32405,32593,32780,32968,33155,33343,33530,33718,34093,34468,34843,35218,35405,35593,35780,35968,36343,36530,36718,36905,37093,37280,37468,37655,37843,38030,38218,38405,38593,38780,38968,39155,39343,40093,40468,40843,41218,41405,41593,41780,41968,42530,42718,42905,43093,43280,43468,43655,43843,44218,44405,44593,44874,45062,45343,45718,46468,47218,47968,48812,49562,50312,52468,53218,53968,54718,55468,56218,58468,58843,59218,59968,60718,61468,63718,63905,64093,64280,64468,64655,64843,65030,65218,65405,65593,65780,65968,66155,66343,66530,66718,66905,67093,67280,67468,67655,67843,68030,68218,68405,68593,68780,68968,69155,69343,69718,69905,70093,70280,70468,70655,70843,71030,71218,71405,71593,71780,71968,72155,72343,72530,72718,72905,73093,73280,73468,73655,74218,74593,74968,75343,75718,76093,76468,76843,77593,77968,78343,78718,79093,79468,79843,80593,80968,81343,81718,82468,83218,83593,83968,84343,84718,85093,85468,85843,86218,86593,86968,87343,87718,88093,88468,89218,89968,90718,91468,92218,92968,96812,96999,97187,97374,97562,97749,97937,98124,98312,98499,98687,98874,99062,99249,99437,99624,99812,99905,100187,100562,101218,101405,101593,101780,101968,102155,102343,102530,102718,102905,103093,103280,103468,103655,103843,104030,104405,105484,105859,106655,106796,106937,107312,107874,108343,108718,110218,111343,111718,112468,113218,113968,114718,115749,115843,115937,116030,116124,116593,116968,117343,117718,118093,118468,118843,119593,119968,120343,120718,121093,121468,121843,122499,122593,122874,122968,123249,123343,123624,123718,123999,124093,124374,124468,124749,124843,125405,125780,126155,126999,127374,127749,128124,128499,128874,129249,129624,129999,130374,130749,131405,131780,132155,132530,133280,134030,134780,135484,135624,135765,135905,136046,136187,136327,136468,136609,136749,136890,137687,137780
DistanceSpacing: 1.8
BeatDivisor: 8
GridSize: 8
TimelineZoom: 1

[Metadata]
Title:Made Me Realize
TitleUnicode:Made Me Realize
Artist:Brad Breeck
ArtistUnicode:Brad Breeck
Creator:minhducsun2002
Version:Further Progressed
Source:
Tags:bradbreeck cartoon animated TV television Alex Hirsch Dipper Mabel Grunkle Stan animation Disney XD Channel Bubblun Reel Walt Records Main Title
BeatmapID:2599332
BeatmapSetID:1250733

[Difficulty]
HPDrainRate:5
CircleSize:4
OverallDifficulty:4.5
ApproachRate:8
SliderMultiplier:1.4
SliderTickRate:1

[Events]
//Background and Video events
0,0,"luminaty.jpg",0,0
//Break Periods
//Storyboard Layer 0 (Background)
//Storyboard Layer 1 (Fail)
//Storyboard Layer 2 (Pass)
//Storyboard Layer 3 (Foreground)
//Storyboard Layer 4 (Overlay)
//Storyboard Sound Samples

[TimingPoints]
6437.21987649895,375,4,1,0,100,1,0

[Colours]
Combo1 : 255,0,0
Combo2 : 0,255,144
Combo3 : 0,186,255

[HitObjects]
203,264,390,5,0,0:0:0:0:
340,164,577,1,0,0:0:0:0:
171,164,765,1,0,0:0:0:0:
308,264,952,1,0,0:0:0:0:
256,102,1140,1,0,0:0:0:0:
168,104,1515,6,0,P|144:152|144:168,1,70
344,104,2077,2,0,P|368:152|368:168,1,70
256,168,2640,1,0,0:0:0:0:
256,192,2827,2,0,L|256:264,3,70
448,192,3718,6,0,P|440:256|384:304,1,140
64,192,4655,2,0,P|72:256|128:304,1,140
200,320,5218,1,0,0:0:0:0:
360,88,5593,6,0,L|304:144,2,70
256,192,6155,1,0,0:0:0:0:
152,296,6343,2,0,L|204:241,2,70
256,192,6905,1,0,0:0:0:0:
360,296,7093,2,0,L|307:241,2,70
256,192,7655,1,0,0:0:0:0:
152,88,7843,2,0,L|204:142,2,70
136,56,8640,5,0,0:0:0:0:
184,64,8827,2,0,P|232:80|248:104,1,70
232,128,9202,2,0,P|257:151|291:157,1,70
320,128,9577,2,0,P|368:144|384:168,2,70
291,156,10140,1,0,0:0:0:0:
144,216,10515,6,0,P|96:216|64:200,2,70
180,206,11077,2,0,P|213:195|247:199,1,70
399,311,11640,2,0,L|400:240,1,70
400,224,12015,6,0,L|400:144,1,70
400,128,12390,1,0,0:0:0:0:
256,192,12765,1,0,0:0:0:0:
80,192,13140,1,0,0:0:0:0:
256,192,13515,1,0,0:0:0:0:
400,256,13890,1,0,0:0:0:0:
400,176,14265,6,0,P|456:128|472:56,1,140
431,48,14827,6,0,P|375:48|351:64,1,70
336,64,15202,2,0,P|280:64|256:80,1,70
80,192,15765,1,0,0:0:0:0:
192,256,15952,2,0,L|224:272,2,35
368,312,16468,6,0,P|416:264|416:224,1,105
144,312,17031,2,0,P|96:264|96:224,1,105
160,144,17640,5,0,0:0:0:0:
178,173,17827,1,0,0:0:0:0:
205,194,18015,1,0,0:0:0:0:
238,204,18203,1,0,0:0:0:0:
273,201,18390,1,0,0:0:0:0:
368,208,18952,6,0,P|400:224|432:256,1,70
144,208,19515,2,0,P|112:224|80:256,1,70
256,232,20077,2,0,L|256:304,1,70
256,144,20640,2,0,L|256:72,1,70
256,40,21015,1,0,0:0:0:0:
256,192,21202,2,0,L|256:264,1,70
384,304,21952,6,0,P|416:280|432:248,1,70
128,304,22515,2,0,P|96:280|80:248,2,70
256,312,23077,2,0,L|256:232,1,70
256,216,23640,5,0,0:0:0:0:
344,160,23827,1,0,0:0:0:0:
168,160,24014,1,0,0:0:0:0:
312,72,24202,1,0,0:0:0:0:
200,72,24390,1,0,0:0:0:0:
144,144,24952,6,0,P|144:168|160:216,1,70
354,211,25515,2,0,P|366:178|368:144,1,70
120,280,26077,2,0,P|120:304|136:352,1,70
376,352,26546,2,0,P|382:333|390:309,1,35
416,240,26827,5,0,0:0:0:0:
384,144,27015,1,0,0:0:0:0:
272,136,27202,1,0,0:0:0:0:
224,232,27390,1,0,0:0:0:0:
112,272,27577,1,0,0:0:0:0:
170,149,27765,1,0,0:0:0:0:
320,120,28140,6,0,P|272:96|256:96,1,70
192,264,28515,2,0,P|240:288|256:288,1,70
225,100,28890,2,0,P|180:130|172:144,1,70
286,283,29265,2,0,P|331:253|339:239,1,70
161,172,29640,2,0,P|164:226|172:240,1,70
350,211,30015,2,0,P|347:157|339:144,1,70
320,120,30390,6,0,P|296:104|256:104,1,70
232,104,30765,2,0,P|197:105|167:88,1,70
136,72,31140,5,0,0:0:0:0:
136,240,31515,1,0,0:0:0:0:
296,320,31890,1,0,0:0:0:0:
384,320,32265,6,0,L|384:240,1,70
384,90,32640,2,0,L|384:160,1,70
384,48,33015,1,0,0:0:0:0:
384,280,33390,6,0,P|408:312|440:320,2,70
312,272,34140,6,0,L|240:272,1,70
152,184,34515,2,0,L|222:184,1,70
136,280,34890,2,0,L|64:280,1,70
64,112,35265,2,0,L|64:184,1,70
152,254,35640,2,0,L|152:174,1,70
152,296,36015,1,0,0:0:0:0:
64,64,36390,6,0,P|104:64|128:80,1,70
216,263,36765,2,0,P|186:281|152:280,1,70
240,136,37140,2,0,P|280:136|304:152,1,70
424,176,37515,6,0,B|456:192|456:192|424:208,1,70
304,231,37890,6,0,P|274:249|240:248,1,70
152,104,38265,2,0,P|192:104|216:120,1,70
128,303,38640,2,0,P|98:321|64:320,1,70
40,296,39015,1,0,0:0:0:0:
136,200,39390,6,0,L|208:200,2,70
88,56,40140,6,0,P|106:85|136:104,2,70
135,103,40702,2,0,L|207:103,1,70
336,112,41265,5,0,0:0:0:0:
462,153,41453,1,0,0:0:0:0:
335,194,41640,1,0,0:0:0:0:
414,86,41828,1,0,0:0:0:0:
414,219,42015,1,0,0:0:0:0:
456,271,42390,6,0,P|437:300|408:318,2,70
409,319,42952,2,0,L|337:319,1,70
320,320,43327,1,0,0:0:0:0:
234,313,43515,6,0,P|269:320|304:320,2,70
169,289,44265,6,0,P|199:307|234:313,2,70
136,272,44921,5,0,0:0:0:0:
206,192,45390,2,0,L|136:192,2,70
416,192,46468,5,0,0:0:0:0:
112,328,47218,1,0,0:0:0:0:
112,56,47827,2,0,L|152:56,2,35
400,56,48718,5,0,0:0:0:0:
400,328,49468,1,0,0:0:0:0:
96,192,50218,1,0,0:0:0:0:
416,152,51015,6,0,P|432:176|424:216,2,70
312,240,51765,2,0,P|328:264|320:304,2,70
288,208,52327,1,0,0:0:0:0:
304,336,52515,5,0,0:0:0:0:
256,192,53241,5,0,0:0:0:0:
304,48,53991,1,0,0:0:0:0:
256,192,54741,1,0,0:0:0:0:
80,192,55491,1,0,0:0:0:0:
256,192,56265,1,0,0:0:0:0:
344,190,56452,6,0,L|344:120,2,70
432,192,56991,5,0,0:0:0:0:
160,136,58421,6,0,P|136:200|176:256,2,140
256,192,59640,1,0,0:0:0:0:
338,254,60015,2,0,P|376:198|352:136,2,140
256,192,61421,1,0,0:0:0:0:
336,160,63765,6,0,L|400:104,1,70
336,256,64140,2,0,L|283:302,1,70
320,136,64515,6,0,L|384:80,1,70
360,280,64890,2,0,L|307:326,1,70
296,80,65265,6,0,P|352:96|368:112,1,70
216,304,65640,2,0,P|160:288|144:272,1,70
144,152,66015,2,0,P|160:96|176:80,1,70
368,232,66390,2,0,P|352:288|336:304,1,70
176,224,66765,6,0,L|123:270,1,70
176,128,67140,2,0,L|228:81,1,70
192,248,67515,6,0,L|139:294,1,70
152,104,67890,2,0,L|204:57,1,70
288,56,68265,6,0,L|360:56,1,70
248,152,68640,2,0,L|178:152,1,70
288,256,69015,2,0,L|358:256,1,70
384,256,69390,2,0,P|408:256|448:280,1,70
384,336,69765,6,0,P|328:320|312:304,1,70
288,296,70140,2,0,P|256:272|224:272,1,70
184,280,70515,1,0,0:0:0:0:
128,192,71077,6,0,L|176:248,1,70
232,192,71452,2,0,L|280:248,1,70
344,192,71827,2,0,L|392:248,1,70
344,192,72202,6,0,L|389:138,1,70
232,192,72577,2,0,L|277:138,1,70
128,192,72952,2,0,L|173:138,1,70
128,192,73327,6,0,L|176:248,1,70
232,192,73702,2,0,L|280:248,1,70
424,336,74241,5,0,0:0:0:0:
344,256,74616,2,0,L|264:256,3,70
176,192,75366,1,0,0:0:0:0:
56,48,75741,5,0,0:0:0:0:
432,48,76116,1,0,0:0:0:0:
144,192,76491,1,0,0:0:0:0:
368,192,76866,1,0,0:0:0:0:
250,59,77640,6,0,P|272:124|256:192,1,140
261,324,78390,6,0,P|239:259|256:192,1,140
123,197,79140,6,0,P|188:175|255:191,1,140
388,186,79890,6,0,P|323:208|256:192,1,140
144,112,80640,5,0,0:0:0:0:
144,264,81015,1,0,0:0:0:0:
304,120,81390,2,0,L|304:272,1,140
304,344,82327,2,0,P|344:344|344:344,2,35
104,352,83194,5,0,0:0:0:0:
144,240,83569,1,0,0:0:0:0:
224,328,83944,1,0,0:0:0:0:
176,120,84319,1,0,0:0:0:0:
320,280,84694,1,0,0:0:0:0:
288,88,85069,1,0,0:0:0:0:
368,176,85444,1,0,0:0:0:0:
423,54,85819,1,0,0:0:0:0:
288,88,86218,1,0,0:0:0:0:
368,176,86593,5,0,0:0:0:0:
176,120,86968,1,0,0:0:0:0:
320,280,87343,1,0,0:0:0:0:
144,240,87718,1,0,0:0:0:0:
264,136,88468,5,0,0:0:0:0:
368,344,89218,5,0,0:0:0:0:
192,344,89968,6,0,L|120:344,4,70
256,192,91468,6,0,L|326:192,4,70
96,56,92968,1,0,0:0:0:0:
96,144,96812,5,0,0:0:0:0:
168,40,96999,1,0,0:0:0:0:
272,112,97187,1,0,0:0:0:0:
232,232,97374,1,0,0:0:0:0:
328,312,97562,1,0,0:0:0:0:
376,192,97749,1,0,0:0:0:0:
416,72,97937,1,0,0:0:0:0:
376,192,98124,1,0,0:0:0:0:
264,136,98312,1,0,0:0:0:0:
264,264,98499,1,0,0:0:0:0:
152,200,98687,1,0,0:0:0:0:
48,128,98874,1,0,0:0:0:0:
152,56,99062,1,0,0:0:0:0:
264,112,99249,1,0,0:0:0:0:
296,232,99437,2,0,P|344:240|368:240,2,70
168,232,99999,5,0,0:0:0:0:
40,232,100187,2,0,L|40:312,2,70
440,48,101171,6,0,P|440:88|424:128,1,70
312,128,101546,2,0,P|312:168|296:200,1,70
176,224,101921,2,0,P|176:272|160:304,2,70
80,144,102484,2,0,P|128:144|160:128,1,70
248,64,102859,2,0,P|288:64|328:72,1,70
408,160,103234,2,0,P|408:208|392:240,1,70
320,320,103609,2,0,P|272:320|240:304,1,70
152,256,103984,6,0,B|176:200|201:169|240:160|256:168,1,140
256,192,105484,6,0,P|256:144|264:120,2,70
256,280,106609,6,0,L|328:280,2,70
64,280,107312,5,0,0:0:0:0:
384,80,107874,1,0,0:0:0:0:
72,88,108390,1,0,0:0:0:0:
232,280,108765,1,0,0:0:0:0:
382,113,109515,6,0,L|432:64,2,70
192,280,110265,1,0,0:0:0:0:
192,112,111390,6,0,L|272:112,2,70
280,268,112468,5,0,0:0:0:0:
280,115,112655,1,0,0:0:0:0:
190,239,112843,1,0,0:0:0:0:
336,192,113030,1,0,0:0:0:0:
190,144,113218,1,0,0:0:0:0:
190,144,113968,5,0,0:0:0:0:
336,192,114156,1,0,0:0:0:0:
190,239,114343,1,0,0:0:0:0:
280,115,114531,1,0,0:0:0:0:
280,268,114718,1,0,0:0:0:0:
392,264,115749,6,0,L|352:264,5,35
280,304,116546,1,0,0:0:0:0:
288,56,116921,1,0,0:0:0:0:
80,192,117296,1,0,0:0:0:0:
296,320,117671,1,0,0:0:0:0:
456,120,118046,1,0,0:0:0:0:
208,64,118421,1,0,0:0:0:0:
104,296,118796,1,0,0:0:0:0:
201,72,119546,6,0,B|241:96|257:136|257:192,2,140,0|0|0,3:0|3:0|3:0,3:0:0:0:
136,248,120671,2,0,B|160:208|200:192|256:192,1,140
376,136,121420,2,0,B|352:176|312:192|256:192,1,140
255,192,122499,5,0,0:0:0:0:
464,48,122874,1,0,0:0:0:0:
216,48,123249,1,0,0:0:0:0:
112,280,123624,1,0,0:0:0:0:
360,280,123999,1,0,0:0:0:0:
112,280,124374,1,0,0:0:0:0:
320,136,124749,1,0,0:0:0:0:
152,328,125405,6,0,L|232:328,4,70
416,192,126999,2,0,L|416:112,4,70
130,246,128452,6,0,B|168:216|208:192|256:192,1,140
381,137,129202,2,0,B|344:168|304:192|256:192,1,140
201,66,129952,2,0,B|232:104|256:144|256:192,2,140
184,192,131405,6,0,P|200:224|232:240,4,70
256,104,132530,5,0,0:0:0:0:
384,312,133280,1,0,0:0:0:0:
128,312,134030,1,0,0:0:0:0:
256,104,134780,1,0,0:0:0:0:
256,192,135484,12,0,136984,0:0:0:0:
256,192,137687,6,0,L|296:192,2,35
