osu file format v14

[General]
AudioFilename: audio.mp3
AudioLeadIn: 0
PreviewTime: 27973
Countdown: 0
SampleSet: Soft
StackLeniency: 0.7
Mode: 2
LetterboxInBreaks: 0
WidescreenStoryboard: 1

[Editor]
DistanceSpacing: 1
BeatDivisor: 4
GridSize: 8
TimelineZoom: 1

[Metadata]
Title:Lucky Me (feat. Courtney Fortune)
TitleUnicode:Lucky Me (feat. Courtney Fortune)
Artist:Brad Breeck
ArtistUnicode:Brad Breeck
Creator:Chatie
Version:Rain
Source:We Bare Bears
Tags:English Pop bradbreeck WBB Cartoon Network CN Grizzly Panda Chloe and Ice Bear season 1 s1 episode 23 e023 Daniel Chong animated animation
BeatmapID:3491957
BeatmapSetID:1708256

[Difficulty]
HPDrainRate:6
CircleSize:3.5
OverallDifficulty:9
ApproachRate:9
SliderMultiplier:1.8
SliderTickRate:2

[Events]
//Background and Video events
0,0,"wbb.jpg",0,0
//Break Periods
//Storyboard Layer 0 (Background)
//Storyboard Layer 1 (Fail)
//Storyboard Layer 2 (Pass)
//Storyboard Layer 3 (Foreground)
//Storyboard Layer 4 (Overlay)
//Storyboard Sound Samples

[TimingPoints]
384,344.827586206897,4,2,1,40,1,0
16935,-100,4,2,1,45,0,0
26590,346.820809248555,4,2,1,30,1,0
27803,344.827586206897,4,2,1,40,1,0
27973,344.827586206897,4,2,1,60,1,1
39007,-100,4,2,1,40,0,0

[Colours]
Combo1 : 0,191,191
Combo2 : 255,136,17
Combo3 : 133,133,133

[HitObjects]
168,219,384,6,0,L|168:119,1,90,4|0,3:0|0:0,0:0:0:0:
339,215,728,2,0,L|339:113,1,90,8|0,0:0|0:0,0:0:0:0:
167,129,1073,2,0,L|67:129,1,90,2|0,0:0|0:0,0:0:0:0:
249,125,1418,2,0,L|345:125,1,90,8|0,0:0|0:0,0:0:0:0:
167,219,1763,6,0,L|167:122,1,90,2|0,0:0|0:0,0:0:0:0:
338,215,2108,2,0,L|338:107,1,90,8|0,0:0|0:0,0:0:0:0:
167,129,2452,2,0,L|256:129,1,90,2|0,0:0|0:0,0:0:0:0:
429,159,2797,2,0,L|330:159,1,90,8|8,0:0|0:0,0:0:0:0:
102,203,3142,6,0,L|102:82,1,90,8|0,3:0|0:0,0:0:0:0:
273,207,3486,2,0,L|273:105,1,90,8|0,0:0|0:0,0:0:0:0:
445,204,3831,2,0,L|445:100,1,90,2|0,0:0|0:0,0:0:0:0:
273,207,4176,2,0,L|273:101,1,90,8|0,0:0|0:0,0:0:0:0:
445,114,4521,6,0,L|329:114,1,90,2|0,0:0|0:0,0:0:0:0:
184,117,4866,1,8,0:0:0:0:
337,117,5039,1,2,0:0:0:0:
102,121,5384,1,2,0:0:0:0:
255,103,5556,1,8,0:0:0:0:
102,121,5728,1,8,0:0:0:0:
339,231,5901,6,0,P|375:145|317:93,1,180,8|8,3:0|0:0,0:0:0:0:
148,239,6418,2,0,P|102:155|165:111,1,180,0|0,0:0|0:0,0:0:0:0:
326,110,6935,1,8,0:0:0:0:
326,110,7108,1,0,0:0:0:0:
89,237,7280,6,0,P|41:163|106:83,1,180,2|8,0:0|0:0,0:0:0:0:
255,134,7797,2,0,L|55:134,1,180,0|8,0:0|3:0,0:0:0:0:
248,71,8315,1,8,0:0:0:0:
160,74,8487,1,0,0:0:0:0:
394,190,8659,6,0,L|488:190,1,90,2|0,0:0|0:0,0:0:0:0:
312,252,9004,2,0,L|207:252,1,90,8|0,0:0|0:0,0:0:0:0:
394,228,9349,2,0,L|394:106,1,90,2|0,0:0|0:0,0:0:0:0:
221,186,9694,2,0,L|316:186,1,90,8|0,0:0|0:0,0:0:0:0:
75,218,10039,6,0,P|53:130|116:75,1,180,2|8,0:0|0:0,0:0:0:0:
285,231,10556,2,0,L|470:231,1,180,0|8,0:0|3:0,0:0:0:0:
293,203,11073,2,0,L|198:203,1,90,8|0,0:0|0:0,0:0:0:0:
439,235,11418,6,0,P|481:144|404:98,1,180,2|8,0:0|0:0,0:0:0:0:
260,146,11935,2,0,L|453:147,1,180,0|0,0:0|0:0,0:0:0:0:
268,111,12452,1,8,0:0:0:0:
177,111,12625,1,0,0:0:0:0:
412,236,12797,6,0,L|232:236,1,180,2|8,0:0|0:0,0:0:0:0:
405,207,13315,2,0,P|449:118|384:65,1,180,0|8,0:0|3:0,0:0:0:0:
227,68,13832,1,8,0:0:0:0:
316,68,14004,1,0,0:0:0:0:
77,218,14177,6,0,L|77:108,1,90,2|0,0:0|0:0,0:0:0:0:
252,188,14521,2,0,L|352:188,1,90,8|0,0:0|0:0,0:0:0:0:
169,188,14866,2,0,L|62:188,1,90,2|0,0:0|0:0,0:0:0:0:
252,188,15211,2,0,L|357:188,1,90,8|0,0:0|0:0,0:0:0:0:
104,260,15556,6,0,P|71:177|143:122,1,180,2|8,0:0|0:0,0:0:0:0:
302,214,16073,2,0,P|353:131|290:93,1,180,0|8,0:0|3:0,0:0:0:0:
130,92,16590,1,8,0:0:0:0:
220,91,16763,1,8,0:0:0:0:
454,219,16935,6,0,L|454:99,1,90,8|0,3:0|0:0,0:0:0:0:
291,114,17280,1,8,0:0:0:0:
454,129,17452,2,0,L|265:129,1,180,0|0,0:0|0:0,0:0:0:0:
447,67,17970,1,8,0:0:0:0:
447,67,18142,1,0,0:0:0:0:
211,114,18315,6,0,L|409:113,1,180,2|8,0:0|0:0,0:0:0:0:
217,270,18832,2,0,P|174:196|232:136,1,180,0|8,0:0|3:0,0:0:0:0:
393,133,19349,1,8,0:0:0:0:
230,133,19521,1,0,0:0:0:0:
468,259,19694,6,0,L|468:149,1,90,2|0,0:0|0:0,0:0:0:0:
296,235,20039,2,0,L|205:234,1,90,8|0,0:0|0:0,0:0:0:0:
378,218,20384,2,0,L|378:100,1,90,2|0,0:0|0:0,0:0:0:0:
207,234,20728,2,0,L|316:234,1,90,8|0,0:0|0:0,0:0:0:0:
60,256,21073,6,0,L|60:155,1,90,2|0,0:0|0:0,0:0:0:0:
223,206,21418,1,8,0:0:0:0:
61,175,21590,2,0,P|26:71|99:49,1,180,0|8,0:0|3:0,0:0:0:0:
240,171,22108,2,0,L|343:171,1,90,8|0,0:0|0:0,0:0:0:0:
93,249,22452,6,0,L|93:139,1,90,2|0,0:0|0:0,0:0:0:0:
256,124,22797,1,8,0:0:0:0:
427,229,22970,2,0,P|440:145|360:124,1,180
189,255,23487,2,0,L|189:160,1,90,8|0,0:0|0:0,0:0:0:0:
427,243,23832,6,0,P|490:183|434:129,1,180,2|8,0:0|0:0,0:0:0:0:
267,287,24349,2,0,P|230:178|290:158,1,180,0|8,0:0|3:0,0:0:0:0:
437,152,24866,1,8,0:0:0:0:
437,152,25039,1,0,0:0:0:0:
203,208,25211,6,0,L|101:208,1,90,2|0,0:0|0:0,0:0:0:0:
296,209,25556,2,0,L|390:209,1,90,8|0,0:0|0:0,0:0:0:0:
214,182,25901,2,0,L|310:182,1,90,2|0,0:0|0:0,0:0:0:0:
132,184,26246,2,0,L|38:184,1,90,8|0,0:0|0:0,0:0:0:0:
288,263,26590,6,0,P|320:151|272:96,1,180,4|0,3:0|0:0,0:0:0:0:
151,223,27110,2,0,P|115:121|178:68,1,180
284,69,27630,1,0,0:0:0:0:
114,63,27803,1,8,1:0:0:0:
359,173,27973,6,0,L|465:173,1,90,4|0,0:0|0:0,0:0:0:0:
213,234,28318,2,0,L|120:234,1,90,8|0,0:0|0:0,0:0:0:0:
294,226,28662,2,0,L|294:108,1,90,2|0,0:0|0:0,0:0:0:0:
121,144,29007,2,0,L|217:144,1,90,8|0,0:0|0:0,0:0:0:0:
448,244,29352,6,0,L|448:147,1,90,2|0,0:0|0:0,0:0:0:0:
275,231,29697,2,0,L|183:231,1,90,8|0,0:0|0:0,0:0:0:0:
358,149,30042,1,2,0:0:0:0:
205,148,30214,1,0,0:0:0:0:
358,149,30387,1,8,0:0:0:0:
448,150,30559,1,0,0:0:0:0:
212,245,30731,6,0,L|318:245,2,90,2|0|8,0:0|0:0|0:0,0:0:0:0:
38,251,31249,2,0,P|21:170|101:120,1,180,0|0,0:0|0:0,0:0:0:0:
257,124,31766,1,8,0:0:0:0:
167,122,31938,1,0,0:0:0:0:
403,202,32111,6,0,L|504:202,1,90,2|0,0:0|0:0,0:0:0:0:
321,257,32455,2,0,L|414:257,1,90,8|0,0:0|0:0,0:0:0:0:
239,144,32800,1,2,0:0:0:0:
395,150,32973,1,0,0:0:0:0:
239,144,33145,1,8,0:0:0:0:
148,148,33318,1,0,0:0:0:0:
384,250,33490,6,0,P|436:173|358:129,1,180,2|8,0:0|0:0,0:0:0:0:
211,188,34007,2,0,L|311:188,1,90,0|2,0:0|0:0,0:0:0:0:
129,188,34352,2,0,L|29:188,1,90,0|8,0:0|0:0,0:0:0:0:
129,189,34697,1,0,0:0:0:0:
363,209,34869,6,0,L|174:209,1,180,2|8,0:0|0:0,0:0:0:0:
273,211,35387,1,0,0:0:0:0:
101,212,35559,2,0,L|101:119,1,90,2|0,0:0|0:0,0:0:0:0:
274,203,35904,2,0,L|367:203,1,90,8|0,0:0|0:0,0:0:0:0:
127,260,36249,6,0,P|72:165|127:124,1,180,2|8,0:0|0:0,0:0:0:0:
281,186,36766,2,0,L|156:186,1,90,0|2,0:0|0:0,0:0:0:0:
362,193,37111,2,0,L|465:193,1,90,0|8,0:0|0:0,0:0:0:0:
362,148,37455,1,0,0:0:0:0:
127,209,37628,6,0,L|329:209,1,180,2|8,0:0|0:0,0:0:0:0:
216,206,38145,1,0,0:0:0:0:
389,225,38318,2,0,L|492:225,1,90,2|0,0:0|0:0,0:0:0:0:
307,272,38662,2,0,L|205:271,1,90,8|0,0:0|0:0,0:0:0:0:
455,272,39007,6,0,L|455:160,1,90,4|0,0:0|0:0,0:0:0:0:
292,232,39352,2,0,L|189:232,1,90,8|0,0:0|0:0,0:0:0:0:
374,218,39697,2,0,L|471:218,1,90,2|0,0:0|0:0,0:0:0:0:
291,231,40042,2,0,L|194:232,1,90,8|0,0:0|0:0,0:0:0:0:
374,218,40387,6,0,L|374:106,1,90,2|0,0:0|0:0,0:0:0:0:
202,171,40732,2,0,L|202:281,1,90,8|0,0:0|0:0,0:0:0:0:
30,272,41077,2,0,L|30:174,1,90,2|0,0:0|0:0,0:0:0:0:
204,203,41421,2,0,L|91:203,1,90,8|8,0:0|0:0,0:0:0:0:
348,248,41766,6,0,L|348:130,1,90,8|0,3:0|0:0,0:0:0:0:
176,229,42111,2,0,L|67:229,1,90,8|0,0:0|0:0,0:0:0:0:
258,226,42456,2,0,L|355:226,1,90,2|0,0:0|0:0,0:0:0:0:
176,229,42801,2,0,L|176:120,1,90,8|0,0:0|0:0,0:0:0:0:
347,210,43145,6,0,L|347:98,1,90,2|0,0:0|0:0,0:0:0:0:
175,99,43490,1,8,0:0:0:0:
346,105,43662,1,2,0:0:0:0:
127,124,44007,1,2,0:0:0:0:
281,132,44180,1,8,0:0:0:0:
127,124,44352,1,8,0:0:0:0:
365,142,44524,5,4,0:0:0:0:
