osu file format v14

[General]
AudioFilename: audio.mp3
AudioLeadIn: 0
PreviewTime: 27973
Countdown: 0
SampleSet: Soft
StackLeniency: 0.7
Mode: 2
LetterboxInBreaks: 0
WidescreenStoryboard: 1

[Editor]
DistanceSpacing: 1
BeatDivisor: 2
GridSize: 8
TimelineZoom: 1

[Metadata]
Title:Lucky Me (feat. Courtney Fortune)
TitleUnicode:Lucky Me (feat. Courtney Fortune)
Artist:Brad Breeck
ArtistUnicode:Brad Breeck
Creator:Chatie
Version:Platter
Source:We Bare Bears
Tags:English Pop bradbreeck WBB Cartoon Network CN Grizzly Panda Chloe and Ice Bear season 1 s1 episode 23 e023 Daniel Chong animated animation
BeatmapID:3490616
BeatmapSetID:1708256

[Difficulty]
HPDrainRate:5
CircleSize:3
OverallDifficulty:8
ApproachRate:8
SliderMultiplier:1.7
SliderTickRate:2

[Events]
//Background and Video events
0,0,"wbb.jpg",0,0
//Break Periods
//Storyboard Layer 0 (Background)
//Storyboard Layer 1 (Fail)
//Storyboard Layer 2 (Pass)
//Storyboard Layer 3 (Foreground)
//Storyboard Layer 4 (Overlay)
//Storyboard Sound Samples

[TimingPoints]
384,344.827586206897,4,2,1,40,1,0
16935,-100,4,2,1,45,0,0
26590,346.820809248555,4,2,1,30,1,0
27803,344.827586206897,4,2,1,40,1,0
27973,344.827586206897,4,2,1,60,1,1
39007,-100,4,2,1,40,0,0

[Colours]
Combo1 : 0,191,191
Combo2 : 255,136,17
Combo3 : 133,133,133

[HitObjects]
140,257,385,6,0,P|102:173|154:129,1,170,4|8,3:0|0:0,0:0:0:0:
321,246,1074,2,0,P|369:168|304:115,1,170,2|8,0:0|0:0,0:0:0:0:
155,118,1764,6,0,L|327:118,1,170,2|8,0:0|0:0,0:0:0:0:
150,245,2453,2,0,L|50:245,1,85,2|0,0:0|0:0,0:0:0:0:
150,245,2798,2,0,L|250:245,1,85,8|8,0:0|0:0,0:0:0:0:
410,147,3143,6,0,P|457:211|410:275,1,170,8|8,3:0|0:0,0:0:0:0:
240,274,3833,2,0,L|410:275,1,170,2|8,0:0|0:0,0:0:0:0:
239,297,4522,6,0,P|161:227|119:140,1,170,2|8,0:0|0:0,0:0:0:0:
215,208,5040,1,2,0:0:0:0:
385,243,5385,1,2,0:0:0:0:
464,240,5557,2,0,L|464:134,1,85,8|8,0:0|0:0,0:0:0:0:
225,240,5902,6,0,P|203:147|260:106,1,170,8|8,3:0|0:0,0:0:0:0:
426,224,6419,2,0,P|462:128|398:79,1,170,0|0,0:0|0:0,0:0:0:0:
338,86,6935,2,0,L|445:86,1,85,8|0,0:0|0:0,0:0:0:0:
183,248,7281,6,0,P|75:244|27:207,1,170,2|8,0:0|0:0,0:0:0:0:
200,159,7798,2,0,P|239:62|190:30,1,170,0|8,0:0|3:0,0:0:0:0:
115,37,8316,2,0,L|29:37,1,85,8|0,0:0|0:0,0:0:0:0:
276,129,8660,6,0,L|386:129,1,85,2|0,0:0|0:0,0:0:0:0:
276,129,9004,2,0,L|167:129,1,85,8|0,0:0|0:0,0:0:0:0:
363,259,9350,2,0,P|411:174|345:124,1,170,2|8,0:0|0:0,0:0:0:0:
288,133,9867,1,0,0:0:0:0:
43,235,10040,6,0,P|18:141|65:90,1,170,2|8,0:0|0:0,0:0:0:0:
233,210,10557,2,0,P|281:138|220:70,1,170,0|8,0:0|3:0,0:0:0:0:
69,144,11073,2,0,L|70:26,1,85,8|0,0:0|0:0,0:0:0:0:
315,227,11419,6,0,L|501:227,1,170,2|8,0:0|0:0,0:0:0:0:
314,227,11936,2,0,P|276:149|339:102,1,170,0|0,0:0|0:0,0:0:0:0:
415,144,12452,2,0,L|415:28,1,85,8|0,0:0|0:0,0:0:0:0:
173,207,12798,6,0,P|66:209|17:169,1,170,2|8,0:0|0:0,0:0:0:0:
193,149,13316,2,0,L|368:149,1,170,0|8,0:0|3:0,0:0:0:0:
278,147,13833,2,0,L|167:147,1,85,8|0,0:0|0:0,0:0:0:0:
436,232,14178,6,0,L|436:113,1,85,2|0,0:0|0:0,0:0:0:0:
351,147,14522,2,0,L|443:147,1,85,8|0,0:0|0:0,0:0:0:0:
261,148,14867,2,0,L|162:148,1,85,2|0,0:0|0:0,0:0:0:0:
261,148,15211,2,0,L|261:40,1,85,8|0,0:0|0:0,0:0:0:0:
21,199,15557,6,0,P|9:100|84:47,1,170,2|8,0:0|0:0,0:0:0:0:
224,104,16074,2,0,L|46:104,1,170,0|8,0:0|3:0,0:0:0:0:
224,104,16590,2,0,L|318:104,1,85,8|8,0:0|0:0,0:0:0:0:
67,254,16935,6,0,P|54:164|138:125,1,170,8|8,3:0|0:0,0:0:0:0:
281,124,17452,2,0,L|99:124,1,170,0|0,0:0|0:0,0:0:0:0:
198,127,17970,2,0,L|301:127,1,85,8|0,0:0|0:0,0:0:0:0:
40,234,18315,6,0,P|5:159|69:81,1,170,2|8,0:0|0:0,0:0:0:0:
220,222,18832,2,0,P|253:125|177:78,1,170,0|8,0:0|3:0,0:0:0:0:
128,84,19348,2,0,L|226:84,1,85,8|0,0:0|0:0,0:0:0:0:
459,202,19694,6,0,P|483:82|429:62,1,170,2|8,0:0|0:0,0:0:0:0:
377,69,20211,1,0,0:0:0:0:
206,246,20384,2,0,P|182:145|231:110,1,170,2|8,0:0|0:0,0:0:0:0:
309,115,20901,1,0,0:0:0:0:
66,163,21073,6,0,L|65:66,1,85,2|0,0:0|0:0,0:0:0:0:
150,73,21418,1,8,0:0:0:0:
320,119,21590,2,0,L|147:207,1,170,0|8,0:0|3:0,0:0:0:0:
341,128,22108,2,0,L|437:128,1,85,8|0,0:0|0:0,0:0:0:0:
181,184,22452,6,0,L|88:184,1,85,2|0,0:0|0:0,0:0:0:0:
181,184,22797,1,8,0:0:0:0:
353,222,22970,2,0,P|378:117|314:96,1,170,0|0,0:0|0:0,0:0:0:0:
255,92,23487,2,0,L|169:92,1,85,8|0,0:0|0:0,0:0:0:0:
409,233,23832,6,0,P|447:145|397:104,1,170,2|8,0:0|0:0,0:0:0:0:
230,268,24349,2,0,P|192:173|269:135,1,170,0|8,0:0|3:0,0:0:0:0:
321,131,24866,2,0,L|408:131,1,85,8|0,0:0|0:0,0:0:0:0:
163,167,25211,6,0,L|57:167,2,85,2|0|8,0:0|0:0|0:0,0:0:0:0:
248,167,25728,1,0,0:0:0:0:
78,167,25900,2,0,L|78:73,1,85,2|0,0:0|0:0,0:0:0:0:
248,109,26246,2,0,L|342:109,1,85,8|0,0:0|0:0,0:0:0:0:
91,86,26590,1,4,3:0:0:0:
378,172,27803,5,8,1:0:0:0:
130,192,27974,6,0,L|24:191,1,85,4|0,0:0|0:0,0:0:0:0:
215,190,28318,2,0,L|329:191,1,85,8|0,0:0|0:0,0:0:0:0:
130,171,28662,2,0,L|130:52,1,85,2|0,0:0|0:0,0:0:0:0:
215,86,29007,2,0,L|116:86,1,85,8|0,0:0|0:0,0:0:0:0:
370,259,29352,6,0,P|476:196|495:133,1,170,2|8,0:0|0:0,0:0:0:0:
406,157,29869,1,0,0:0:0:0:
235,160,30042,2,0,L|142:160,2,85,2|0|8,0:0|0:0|0:0,0:0:0:0:
320,160,30559,1,0,0:0:0:0:
82,192,30731,6,0,L|18:132,2,85,2|0|8,0:0|0:0|0:0,0:0:0:0:
240,214,31249,2,0,L|68:214,1,170,0|0,0:0|0:0,0:0:0:0:
70,214,31766,1,8,0:0:0:0:
154,216,31938,1,0,0:0:0:0:
393,202,32111,6,0,L|490:202,1,85,2|0,0:0|0:0,0:0:0:0:
393,202,32455,2,0,L|300:202,1,85,8|0,0:0|0:0,0:0:0:0:
137,148,32800,2,0,L|223:148,2,85,2|0|8,0:0|0:0|0:0,0:0:0:0:
51,146,33318,1,0,0:0:0:0:
290,199,33490,6,0,L|466:199,1,170,2|8,0:0|0:0,0:0:0:0:
289,157,34007,2,0,L|100:157,1,170,0|0,0:0|0:0,0:0:0:0:
205,155,34524,2,0,L|301:155,1,85,8|0,0:0|0:0,0:0:0:0:
47,258,34869,6,0,P|16:172|72:122,1,170,2|8,0:0|0:0,0:0:0:0:
150,120,35387,1,0,0:0:0:0:
320,179,35559,2,0,L|205:179,1,85,2|0,0:0|0:0,0:0:0:0:
320,179,35904,2,0,L|424:179,1,85,8|0,0:0|0:0,0:0:0:0:
165,255,36249,6,0,P|113:162|174:101,1,170,2|8,0:0|0:0,0:0:0:0:
314,210,36766,2,0,P|373:136|304:82,1,170,0|0,0:0|0:0,0:0:0:0:
252,167,37283,2,0,L|155:167,1,85,8|0,0:0|0:0,0:0:0:0:
410,266,37628,6,0,P|470:174|411:122,1,170,2|8,0:0|0:0,0:0:0:0:
359,131,38145,1,0,0:0:0:0:
189,131,38318,2,0,L|363:131,1,170,2|8,0:0|0:0,0:0:0:0:
359,131,38835,1,0,0:0:0:0:
122,261,39007,6,0,P|52:175|82:108,1,170,4|8,0:0|0:0,0:0:0:0:
151,113,39524,1,0,0:0:0:0:
236,127,39697,2,0,L|56:127,1,170,2|8,0:0|0:0,0:0:0:0:
236,127,40387,6,0,L|419:127,1,170,2|8,0:0|0:0,0:0:0:0:
236,127,41077,2,0,L|127:127,1,85,2|0,0:0|0:0,0:0:0:0:
236,127,41422,2,0,L|323:127,1,85,8|8,0:0|0:0,0:0:0:0:
479,186,41766,6,0,L|286:186,1,170,8|8,3:0|0:0,0:0:0:0:
394,186,42283,1,0,0:0:0:0:
309,186,42455,2,0,L|130:186,1,170,2|8,0:0|0:0,0:0:0:0:
309,248,43145,6,0,P|378:152|335:121,1,170,2|8,0:0|0:0,0:0:0:0:
277,114,43662,1,2,0:0:0:0:
107,111,44007,1,2,0:0:0:0:
192,113,44180,1,8,0:0:0:0:
276,114,44352,1,8,0:0:0:0:
36,112,44524,5,4,0:0:0:0:
