osu file format v14

[General]
AudioFilename: Brad Breeck - I'm From Another Dimension (Star vs The Forces of Evil).mp3
AudioLeadIn: 0
PreviewTime: 16309
Countdown: 0
SampleSet: Soft
StackLeniency: 0.2
Mode: 0
LetterboxInBreaks: 1
WidescreenStoryboard: 1

[Editor]
DistanceSpacing: 1.5
BeatDivisor: 4
GridSize: 4
TimelineZoom: 1.6

[Metadata]
Title:I'm From Another Dimension
TitleUnicode:I'm From Another Dimension
Artist:Brad Breeck
ArtistUnicode:Brad Breeck
Creator:Clarity
Version:silence's Another
Source:Star vs. The Forces of Evil
Tags:star butterfly marco diaz vs the forces of evil i'm from another dimension brad breeck bradbreeck disney xd daron nefcy megatrook89 phoenixmaster5 skyflame idkie megatron is bad silence aeril pyrowar56 havkz mapper squilly lukermaster lkr Shiney01
BeatmapID:1026084
BeatmapSetID:326220

[Difficulty]
HPDrainRate:6
CircleSize:3
OverallDifficulty:8
ApproachRate:9
SliderMultiplier:2.00000000596047
SliderTickRate:2

[Events]
//Background and Video events
0,0,"starpls.jpg",0,0
//Break Periods
//Storyboard Layer 0 (Background)
//Storyboard Layer 1 (Fail)
//Storyboard Layer 2 (Pass)
//Storyboard Layer 3 (Foreground)
//Storyboard Sound Samples

[TimingPoints]
-316,415.656390717007,4,2,0,100,1,0
1346,-83.3333333333333,4,2,0,100,0,0
3008,-58.8235294117647,4,2,0,100,0,0
12153,-100,4,2,0,100,0,0
12984,-58.8235294117647,4,2,0,100,0,0
15478,-83.3333333333333,4,2,0,100,0,0
15686,-68.1818212809919,4,2,0,100,0,0
15894,-57.6923088017752,4,2,0,100,0,0
16102,-50,4,2,0,100,0,0
16309,-100,4,2,0,100,0,0
26701,-76.9230769230769,4,2,0,100,0,0
27117,-62.5,4,2,0,100,0,0
27948,-55.5555555555556,4,2,0,100,0,0
32104,-83.3333333333333,4,2,0,100,0,0
32936,-55.5555555555556,4,2,0,100,0,0

[Colours]
Combo1 : 255,170,255
Combo2 : 255,111,111
Combo3 : 255,169,128
Combo4 : 255,239,130
Combo5 : 132,255,132
Combo6 : 66,160,255
Combo7 : 198,147,255

[HitObjects]
224,132,515,6,0,L|220:204,1,50.0000001490117
260,224,930,6,0,L|264:152,1,50.0000001490117
212,120,1346,6,0,L|208:196,1,59.9999983477595
272,236,1761,6,0,L|276:160,1,59.9999983477595
240,152,2177,5,0,0:0:0:0:
244,200,2281,1,0,0:0:0:0:
240,152,2385,5,0,0:0:0:0:
244,200,2489,1,0,0:0:0:0:
240,152,2593,5,0,0:0:0:0:
244,200,2697,1,0,0:0:0:0:
240,152,2801,5,0,0:0:0:0:
244,200,2905,1,0,0:0:0:0:
240,152,3008,6,0,P|272:132|332:132,1,85.0000018745663
476,212,3216,2,0,B|408:273|408:273|319:282,1,170.000003749133
230,260,3528,1,0,0:0:0:0:
128,264,3632,2,0,P|80:276|40:312,1,85.0000018745663
216,332,3840,6,0,B|236:288|236:288|196:120,1,170.000003749133
84,88,4151,1,0,0:0:0:0:
64,188,4255,2,0,L|92:296,1,85.0000018745663
228,252,4463,2,0,L|200:144,1,85.0000018745663
52,208,4671,6,0,L|80:316,1,85.0000018745663
240,232,4879,2,0,L|212:124,1,85.0000018745663
136,88,5087,1,0,0:0:0:0:
104,184,5191,1,0,0:0:0:0:
128,284,5295,2,0,P|162:308|203:314,1,85.0000018745663
300,280,5502,6,0,P|360:264|412:288,1,85.0000018745663
476,312,5710,1,0,0:0:0:0:
476,312,5814,1,0,0:0:0:0:
452,188,5918,6,0,B|436:164|436:164|356:148,1,85.0000018745663
200,124,6126,2,0,B|220:103|220:103|302:104,1,85.0000018745663
316,232,6334,6,0,P|176:288|140:248,1,170.000003749133
112,216,6645,1,0,0:0:0:0:
12,200,6749,2,0,P|1:226|6:289,1,85.0000018745663
113,339,6957,2,0,P|139:329|183:284,1,85.0000018745663
163,57,7165,6,0,B|136:113|136:113|136:161|136:161|111:217,1,170.000003749133
40,140,7477,1,0,0:0:0:0:
176,128,7581,2,0,P|228:128|272:140,1,85.0000018745663
332,248,7788,2,0,P|280:248|236:236,1,85.0000018745663
312,40,7996,6,0,P|376:63|418:150,1,170.000003749133
408,252,8308,1,0,0:0:0:0:
330,325,8412,2,0,P|289:312|230:325,1,85.0000018745663
96,228,8620,2,0,P|137:219|195:238,1,85.0000018745663
16,304,8828,6,0,L|-4:192,1,85.0000018745663
108,248,9035,2,0,L|123:135,1,85.0000018745663
216,224,9243,2,0,L|265:121,1,85.0000018745663
322,232,9450,2,0,L|400:149,1,85.0000018745663
428,272,9659,6,0,P|372:324|244:308,1,170.000003749133
208,256,9971,1,0,0:0:0:0:
112,228,10075,2,0,P|32:264|12:360,1,170.000003749133
108,328,10386,1,0,0:0:0:0:
156,240,10490,6,0,B|172:200|172:200|148:64,1,170.000003749133
288,40,10802,1,0,0:0:0:0:
288,40,10906,2,0,B|272:80|272:80|296:216,1,170.000003749133
400,316,11322,6,0,P|448:232|432:148,1,170.000003749133
348,116,11633,1,0,0:0:0:0:
294,204,11737,2,0,B|228:282|112:223,1,170.000003749133
103,121,12153,6,0,L|219:150,1,100.000000298023
200,145,12569,6,0,L|82:114,1,100.000000298023
195,50,12984,6,0,P|229:133|192:221,1,170.000003749133
104,200,13296,1,0,0:0:0:0:
4,220,13400,2,0,P|20:264|76:296,1,85.0000018745663
173,280,13608,2,0,P|199:247|206:206,1,85.0000018745663
180,104,13816,6,0,B|160:92|152:76|152:76|220:48|308:84,1,170.000003749133
372,120,14127,1,0,0:0:0:0:
408,216,14231,2,0,B|416:260|416:260|404:304,1,85.0000018745663
308,336,14439,2,0,B|300:292|300:292|312:248,1,85.0000018745663
344,156,14647,6,0,B|302:142|264:164|264:164|216:140|176:164,1,170.000003749133
96,220,14959,1,0,0:0:0:0:
76,120,15062,2,0,P|108:68|164:52,1,85.0000018745663
228,40,15270,2,0,P|286:57|316:107,1,85.0000018745663
332,172,15478,6,0,L|328:248,1,59.9999983477595
332,172,15686,6,0,L|324:292,1,73.3333275840024
332,172,15894,6,0,L|324:304,1,86.6666629576687
332,172,16102,6,0,L|324:296,1,100.000000298023
392,360,16309,5,0,0:0:0:0:
404,340,16413,1,0,0:0:0:0:
416,320,16517,1,0,0:0:0:0:
432,296,16621,1,0,0:0:0:0:
444,272,16725,1,0,0:0:0:0:
444,248,16829,1,0,0:0:0:0:
444,224,16933,1,0,0:0:0:0:
444,200,17037,1,0,0:0:0:0:
424,116,17141,5,0,0:0:0:0:
400,124,17245,1,0,0:0:0:0:
384,144,17349,1,0,0:0:0:0:
372,168,17452,1,0,0:0:0:0:
352,184,17556,1,0,0:0:0:0:
328,184,17660,1,0,0:0:0:0:
308,172,17764,1,0,0:0:0:0:
296,152,17868,1,0,0:0:0:0:
252,68,17972,5,0,0:0:0:0:
224,60,18076,1,0,0:0:0:0:
196,68,18180,1,0,0:0:0:0:
176,92,18284,1,0,0:0:0:0:
172,120,18388,1,0,0:0:0:0:
184,148,18492,1,0,0:0:0:0:
180,176,18596,1,0,0:0:0:0:
156,192,18699,1,0,0:0:0:0:
56,184,18803,5,0,0:0:0:0:
32,208,18907,1,0,0:0:0:0:
20,240,19011,1,0,0:0:0:0:
28,272,19115,1,0,0:0:0:0:
56,292,19219,2,0,L|132:292,1,50.0000001490117
252,328,19427,2,0,L|176:328,1,50.0000001490117
172,220,19635,5,0,0:0:0:0:
176,196,19739,1,0,0:0:0:0:
188,176,19843,1,0,0:0:0:0:
204,160,19946,1,0,0:0:0:0:
228,152,20050,1,0,0:0:0:0:
252,152,20154,1,0,0:0:0:0:
276,156,20258,1,0,0:0:0:0:
296,172,20362,1,0,0:0:0:0:
356,240,20466,5,0,0:0:0:0:
380,240,20570,1,0,0:0:0:0:
404,228,20674,1,0,0:0:0:0:
424,212,20778,1,0,0:0:0:0:
436,192,20882,1,0,0:0:0:0:
440,168,20986,1,0,0:0:0:0:
436,144,21089,1,0,0:0:0:0:
420,124,21193,1,0,0:0:0:0:
332,72,21297,5,0,0:0:0:0:
300,72,21401,1,0,0:0:0:0:
272,80,21505,1,0,0:0:0:0:
244,92,21609,1,0,0:0:0:0:
216,88,21713,1,0,0:0:0:0:
192,68,21817,1,0,0:0:0:0:
164,60,21921,1,0,0:0:0:0:
136,64,22025,1,0,0:0:0:0:
44,108,22129,5,0,0:0:0:0:
40,144,22233,1,0,0:0:0:0:
36,180,22336,1,0,0:0:0:0:
32,216,22440,1,0,0:0:0:0:
64,240,22544,6,0,L|88:336,1,50.0000001490117
196,280,22752,2,0,L|224:328,1,50.0000001490117
344,288,22960,6,0,P|416:280|428:216,1,100.000000298023
424,256,23272,1,0,0:0:0:0:
428,260,23376,6,0,P|388:294|336:278,1,100.000000298023
316,264,23687,1,0,0:0:0:0:
296,236,23791,1,0,0:0:0:0:
264,220,23895,1,0,0:0:0:0:
228,220,23999,1,0,0:0:0:0:
200,240,24103,1,0,0:0:0:0:
168,252,24207,1,0,0:0:0:0:
136,240,24311,1,0,0:0:0:0:
116,212,24415,1,0,0:0:0:0:
116,176,24519,1,0,0:0:0:0:
130,144,24623,6,0,P|178:112|226:128,1,100.000000298023
216,120,24934,1,0,0:0:0:0:
302,144,25038,6,0,P|254:112|206:128,1,100.000000298023
216,120,25350,1,0,0:0:0:0:
240,220,25454,6,0,L|248:300,1,50.0000001490117
352,236,25662,2,0,L|360:304,1,50.0000001490117
140,264,25870,6,0,L|132:344,1,50.0000001490117
28,280,26078,2,0,L|20:348,1,50.0000001490117
76,172,26285,6,0,B|48:180|48:180|60:76,1,100.000000298023
124,120,26597,1,0,0:0:0:0:
70,186,26701,6,0,B|38:202|38:202|62:74,1,129.999994436503
140,128,27013,1,0,0:0:0:0:
64,200,27117,6,0,B|28:224|28:224|60:88,1,160.000000476838
160,84,27428,1,0,0:0:0:0:
260,108,27532,6,0,P|296:120|360:100,1,80.0000002384188
432,72,27740,2,0,P|468:88|492:132,1,80.0000002384188
488,228,27948,6,0,P|476:264|416:188,3,179.999995043278
288,280,28779,5,0,0:0:0:0:
244,288,28883,1,0,0:0:0:0:
288,280,28987,5,0,0:0:0:0:
236,288,29091,1,0,0:0:0:0:
288,280,29195,5,0,0:0:0:0:
228,288,29299,1,0,0:0:0:0:
288,280,29403,5,0,0:0:0:0:
218,288,29507,1,0,0:0:0:0:
148,280,29610,6,0,P|104:268|36:276,1,89.9999975216392
168,96,29818,2,0,P|184:132|184:196,1,89.9999975216392
88,152,30026,6,0,P|92:32|152:0,1,179.999995043278
312,68,30650,5,0,0:0:0:0:
360,164,30857,2,0,B|352:252|352:252|272:312,1,179.999995043278
168,204,31273,6,0,P|220:196|272:204,1,89.9999975216392
364,324,31481,2,0,P|320:324|262:290,1,89.9999975216392
456,272,31689,6,0,B|472:304|472:304|460:408,1,89.9999975216392
360,216,31897,2,0,B|344:184|344:184|356:80,1,89.9999975216392
460,32,32104,6,0,L|444:184,1,119.999996695519
337,249,32520,2,0,L|353:97,1,119.999996695519
264,36,32936,6,0,P|156:32|80:76,1,179.999995043278
52,144,33247,1,0,0:0:0:0:
55,234,33351,2,0,B|59:278|59:278|103:322,1,89.9999975216392
181,322,33559,2,0,B|222:306|222:306|253:252,1,89.9999975216392
246,175,33767,6,0,B|234:139|262:111|262:111|318:99|394:131,1,179.999995043278
456,260,34183,6,0,B|468:296|440:324|440:324|384:336|308:304,1,179.999995043278
168,240,34598,6,0,P|80:232|68:312,1,179.999995043278
168,240,34910,1,0,0:0:0:0:
168,240,35014,6,0,P|111:172|46:220,1,179.999995043278
168,240,35430,6,0,P|175:152|95:140,1,179.999995043278
168,240,35845,6,0,P|235:183|187:118,1,179.999995043278
194,120,36157,1,0,0:0:0:0:
194,120,36261,1,0,0:0:0:0:
256,192,36365,12,0,39586,0:0:0:0:
