osu file format v14

[General]
AudioFilename: Brad Breeck - I'm From Another Dimension (Star vs The Forces of Evil).mp3
AudioLeadIn: 0
PreviewTime: 16309
Countdown: 0
SampleSet: Soft
StackLeniency: 0.7
Mode: 0
LetterboxInBreaks: 1
WidescreenStoryboard: 1

[Editor]
DistanceSpacing: 0.8
BeatDivisor: 4
GridSize: 4
TimelineZoom: 0.4999993

[Metadata]
Title:I'm From Another Dimension
TitleUnicode:I'm From Another Dimension
Artist:Brad Breeck
ArtistUnicode:Brad Breeck
Creator:Clarity
Version:idke's Dimension
Source:Star vs. The Forces of Evil
Tags:star butterfly marco diaz vs the forces of evil i'm from another dimension brad breeck bradbreeck disney xd daron nefcy megatrook89 phoenixmaster5 skyflame idkie megatron is bad silence aeril pyrowar56 havkz mapper squilly lukermaster lkr Shiney01
BeatmapID:1026010
BeatmapSetID:326220

[Difficulty]
HPDrainRate:6
CircleSize:4
OverallDifficulty:9
ApproachRate:10
SliderMultiplier:1.90000000596047
SliderTickRate:2

[Events]
//Background and Video events
0,0,"starpls.jpg",0,0
//Break Periods
//Storyboard Layer 0 (Background)
//Storyboard Layer 1 (Fail)
//Storyboard Layer 2 (Pass)
//Storyboard Layer 3 (Foreground)
//Storyboard Sound Samples

[TimingPoints]
-316,415.656390717007,4,2,1,50,1,0
826,-100,4,2,1,20,0,0
930,-100,4,2,1,50,0,0
1242,-100,4,2,1,20,0,0
1346,-100,4,2,1,50,0,0
1658,-100,4,2,1,20,0,0
1761,-100,4,2,1,50,0,0
2073,-100,4,2,1,20,0,0
2177,-100,4,2,1,40,0,0
2281,-100,4,2,1,70,0,0
2385,-100,4,2,1,40,0,0
2489,-100,4,2,1,70,0,0
2593,-100,4,2,1,40,0,0
2697,-100,4,2,1,70,0,0
2801,-100,4,2,1,40,0,0
2905,-100,4,2,1,70,0,0
3008,-66.6666666666667,4,2,1,70,0,0
3216,-66.6666666666667,4,2,1,50,0,0
3840,-66.6666666666667,4,2,1,60,0,0
3944,-66.6666666666667,4,2,1,50,0,0
4255,-66.6666666666667,4,2,1,60,0,0
4359,-66.6666666666667,4,2,1,50,0,0
4671,-66.6666666666667,4,2,1,70,0,0
4879,-66.6666666666667,4,2,1,50,0,0
5502,-66.6666666666667,4,2,1,70,0,0
6542,-66.6666666666667,4,2,1,50,0,0
7165,-66.6666666666667,4,2,1,60,0,0
7269,-66.6666666666667,4,2,1,50,0,0
7581,-66.6666666666667,4,2,1,60,0,0
7685,-66.6666666666667,4,2,1,50,0,0
7996,-66.6666666666667,4,2,1,70,0,0
8204,-66.6666666666667,4,2,1,50,0,0
8828,-66.6666666666667,4,2,1,70,0,0
9867,-66.6666666666667,4,2,1,50,0,0
10490,-66.6666666666667,4,2,1,60,0,0
10594,-66.6666666666667,4,2,1,50,0,0
10906,-66.6666666666667,4,2,1,60,0,0
11010,-66.6666666666667,4,2,1,50,0,0
11322,-66.6666666666667,4,2,1,70,0,0
11529,-66.6666666666667,4,2,1,50,0,0
12153,-100,4,2,1,70,0,0
12984,-66.6666666666667,4,2,1,70,0,0
13192,-66.6666666666667,4,2,1,50,0,0
13816,-66.6666666666667,4,2,1,70,0,0
14855,-66.6666666666667,4,2,1,50,0,0
15478,-66.6666666666667,4,2,1,80,0,0
16309,-60.6060606060606,4,2,1,80,0,1
16517,-60.6060606060606,4,2,1,70,0,1
17141,-60.6060606060606,4,2,1,80,0,1
18180,-60.6060606060606,4,2,1,70,0,1
18803,-60.6060606060606,4,2,1,80,0,1
19843,-60.6060606060606,4,2,1,70,0,1
20466,-60.6060606060606,4,2,1,80,0,1
21401,-60.6060606060606,4,2,1,70,0,1
22129,-60.6060606060606,4,2,1,80,0,1
23064,-60.6060606060606,4,2,1,70,0,1
23376,-60.6060606060606,4,2,1,80,0,1
23480,-60.6060606060606,4,2,1,70,0,1
23791,-60.6060606060606,4,2,1,80,0,1
24726,-60.6060606060606,4,2,1,70,0,1
25454,-66.6666666666667,4,2,1,80,0,1
26389,-66.6666666666667,4,2,1,70,0,1
27117,-66.6666666666667,4,2,1,85,0,1
27948,-200,4,2,1,100,0,1
29610,-100,4,2,1,80,0,0
39586,-100,4,2,1,50,0,0

[Colours]
Combo1 : 255,170,255
Combo2 : 255,111,111
Combo3 : 255,169,128
Combo4 : 255,239,130
Combo5 : 132,255,132
Combo6 : 66,160,255
Combo7 : 198,147,255

[HitObjects]
144,252,515,5,4,0:0:0:0:
220,328,618,2,0,P|252:264|232:204,1,95.0000002980235,4|2,0:0|0:0,0:0:0:0:
144,252,930,5,4,0:0:0:0:
40,280,1034,2,0,P|79:339|141:352,1,95.0000002980235,4|2,0:0|0:0,0:0:0:0:
144,252,1346,5,8,0:0:0:0:
171,148,1450,2,0,P|99:152|57:199,1,95.0000002980235,8|2,0:0|0:0,0:0:0:0:
144,252,1761,5,8,0:0:0:0:
116,355,1865,2,0,P|187:350|229:303,1,95.0000002980235,8|2,0:0|0:0,0:0:0:0:
252,248,2177,5,8,0:0:0:0:
316,296,2281,5,4,0:0:0:0:
396,288,2385,5,8,0:0:0:0:
440,220,2489,5,4,0:0:0:0:
432,144,2593,5,8,0:0:0:0:
372,92,2697,5,4,0:0:0:0:
288,104,2801,5,8,0:0:0:0:
240,168,2905,5,4,0:0:0:0:
200,72,3008,38,0,P|136:152|136:208,1,142.500005882979,8|4,0:0|0:0,0:0:0:0:
140,312,3320,1,2,0:0:0:0:
132,304,3424,2,0,L|268:296,1,71.2500029414895,8|2,0:0|0:0,0:0:0:0:
448,232,3632,2,0,L|344:244,1,71.2500029414895,4|2,0:0|0:0,0:0:0:0:
148,100,3840,5,8,0:0:0:0:
64,148,3944,1,2,0:0:0:0:
200,176,4048,2,0,L|296:184,1,71.2500029414895,4|2,0:0|0:0,0:0:0:0:
372,64,4255,5,8,0:0:0:0:
460,208,4359,1,2,0:0:0:0:
328,144,4463,1,4,0:0:0:0:
500,128,4567,1,2,0:0:0:0:
376,220,4671,6,0,P|260:204|236:148,1,142.500005882979,8|4,0:0|0:0,0:0:0:0:
220,72,4983,1,6,0:0:0:0:
128,136,5087,2,0,L|12:144,1,71.2500029414895,8|2,0:0|0:0,0:0:0:0:
256,272,5295,2,0,L|353:265,1,71.2500029414895,4|2,0:0|0:0,0:0:0:0:
376,104,5502,5,8,0:0:0:0:
455,136,5606,1,2,0:0:0:0:
423,215,5710,1,12,0:0:0:0:
343,183,5814,1,2,0:0:0:0:
428,88,5918,5,8,0:0:0:0:
467,189,6022,1,2,0:0:0:0:
368,227,6126,1,12,0:0:0:0:
329,127,6230,1,2,0:0:0:0:
276,32,6334,6,0,P|228:96|240:196,1,142.500005882979,8|4,0:0|0:0,0:0:0:0:
196,276,6645,1,2,0:0:0:0:
176,292,6749,2,0,L|252:308,1,71.2500029414895,8|2,0:0|0:0,0:0:0:0:
512,248,6957,2,0,L|416:228,1,71.2500029414895,4|2,0:0|0:0,0:0:0:0:
368,136,7165,5,8,0:0:0:0:
308,204,7269,1,2,0:0:0:0:
220,204,7373,1,4,0:0:0:0:
164,132,7477,1,2,0:0:0:0:
220,204,7581,5,8,0:0:0:0:
164,132,7685,1,2,0:0:0:0:
72,128,7788,1,4,0:0:0:0:
24,200,7892,1,2,0:0:0:0:
120,224,7996,6,0,P|168:288|260:292,1,142.500005882979,8|4,0:0|0:0,0:0:0:0:
252,160,8308,1,2,0:0:0:0:
240,128,8412,2,0,L|356:144,1,71.2500029414895,8|2,0:0|0:0,0:0:0:0:
448,312,8620,2,0,L|328:296,1,71.2500029414895,4|2,0:0|0:0,0:0:0:0:
148,252,8828,6,0,L|264:228,1,71.2500029414895,8|2,0:0|0:0,0:0:0:0:
512,164,9035,2,0,L|420:184,1,71.2500029414895,12|2,0:0|0:0,0:0:0:0:
192,48,9243,1,8,0:0:0:0:
372,88,9347,1,2,0:0:0:0:
268,128,9451,2,0,L|168:152,1,71.2500029414895,12|2,0:0|0:0,0:0:0:0:
76,180,9659,6,0,P|68:268|128:324,1,142.500005882979,8|4,0:0|0:0,0:0:0:0:
296,244,9971,1,2,0:0:0:0:
288,228,10075,2,0,L|368:240,1,71.2500029414895,8|2,0:0|0:0,0:0:0:0:
192,48,10282,2,0,L|96:28,1,71.2500029414895,4|2,0:0|0:0,0:0:0:0:
180,216,10490,5,8,0:0:0:0:
240,316,10594,1,2,0:0:0:0:
180,216,10698,1,4,0:0:0:0:
240,316,10802,1,2,0:0:0:0:
244,192,10906,5,8,0:0:0:0:
180,336,11010,1,2,0:0:0:0:
244,192,11114,1,4,0:0:0:0:
180,336,11218,1,2,0:0:0:0:
320,244,11322,6,0,P|332:160|284:108,1,142.500005882979,8|4,0:0|0:0,0:0:0:0:
200,28,11633,1,2,0:0:0:0:
188,16,11737,2,0,L|196:108,1,71.2500029414895,8|2,0:0|0:0,0:0:0:0:
212,200,11945,1,4,0:0:0:0:
320,244,12049,1,2,0:0:0:0:
308,128,12153,6,0,L|184:136,1,95.0000002980235,8|4,0:0|0:0,0:0:0:0:
64,76,12569,6,0,L|188:68,1,95.0000002980235,8|4,0:0|0:0,0:0:0:0:
178,260,12984,6,0,L|354:240,1,142.500005882979,8|4,0:0|0:0,0:0:0:0:
436,176,13296,1,2,0:0:0:0:
448,164,13400,2,0,L|360:144,1,71.2500029414895,8|2,0:0|0:0,0:0:0:0:
132,44,13608,2,0,L|236:76,1,71.2500029414895,4|2,0:0|0:0,0:0:0:0:
320,244,13816,5,8,0:0:0:0:
260,176,13919,1,2,0:0:0:0:
176,212,14023,1,12,0:0:0:0:
112,148,14127,1,2,0:0:0:0:
152,64,14231,5,8,0:0:0:0:
248,80,14335,1,2,0:0:0:0:
260,176,14439,1,12,0:0:0:0:
176,212,14543,1,2,0:0:0:0:
112,148,14647,6,0,P|84:232|120:284,1,142.500005882979,8|4,0:0|0:0,0:0:0:0:
256,336,14959,1,2,0:0:0:0:
244,328,15062,2,0,P|324:328|356:340,1,71.2500029414895,8|2,0:0|0:0,0:0:0:0:
488,116,15270,2,0,P|448:120|400:112,1,71.2500029414895,4|0,0:0|0:0,0:0:0:0:
244,132,15478,5,2,0:0:0:0:
224,120,15686,5,6,0:0:0:0:
204,108,15894,5,2,0:0:0:0:
184,96,16102,6,2,L|116:56,1,71.2500029414895,4|2,0:0|0:0,0:0:0:0:
188,212,16309,6,0,P|288:216|336:160,1,156.750001986623,8|4,0:0|0:0,0:0:0:0:
380,36,16621,1,2,0:0:0:0:
396,8,16725,2,0,L|420:112,1,78.3750009933117,8|2,0:0|0:0,0:0:0:0:
352,368,16933,2,0,L|328:268,1,78.3750009933117,4|2,0:0|0:0,0:0:0:0:
172,60,17141,6,0,P|112:68|72:48,1,78.3750009933117,8|2,0:0|0:0,0:0:0:0:
412,272,17349,2,0,P|448:264|504:284,1,78.3750009933117,12|2,0:0|0:0,0:0:0:0:
324,88,17556,5,8,0:0:0:0:
324,88,17660,1,2,0:0:0:0:
180,216,17764,1,12,0:0:0:0:
180,216,17868,1,2,0:0:0:0:
440,188,17972,6,0,P|484:272|460:340,1,156.750001986623,8|4,0:0|0:0,0:0:0:0:
328,276,18284,1,2,0:0:0:0:
304,296,18388,2,0,L|204:300,1,78.3750009933117,8|2,0:0|0:0,0:0:0:0:
16,80,18596,2,0,L|124:76,1,78.3750009933117,4|2,0:0|0:0,0:0:0:0:
320,96,18803,5,8,0:0:0:0:
240,220,18907,1,2,0:0:0:0:
324,88,19011,1,12,0:0:0:0:
236,228,19115,1,2,0:0:0:0:
360,204,19219,5,8,0:0:0:0:
204,116,19323,1,2,0:0:0:0:
368,208,19427,1,12,0:0:0:0:
196,112,19531,1,2,0:0:0:0:
412,268,19635,6,0,L|436:96,1,156.750001986623,8|4,0:0|0:0,0:0:0:0:
248,8,19946,1,2,0:0:0:0:
252,32,20050,2,0,L|268:124,1,78.3750009933117,8|2,0:0|0:0,0:0:0:0:
96,368,20258,2,0,L|112:260,1,78.3750009933117,4|0,0:0|0:0,0:0:0:0:
208,80,20466,5,8,0:0:0:0:
84,200,20570,1,2,0:0:0:0:
188,184,20674,2,0,L|160:284,1,78.3750009933117,12|2,0:0|0:0,0:0:0:0:
328,312,20882,5,8,0:0:0:0:
283,145,20986,1,2,0:0:0:0:
246,244,21089,2,0,L|172:171,1,78.3750009933117,12|0,0:0|0:0,0:0:0:0:
72,116,21297,5,8,0:0:0:0:
41,220,21401,1,2,0:0:0:0:
93,316,21505,1,4,0:0:0:0:
198,347,21609,1,2,0:0:0:0:
294,296,21713,5,8,0:0:0:0:
327,191,21817,1,2,0:0:0:0:
273,94,21921,1,4,0:0:0:0:
168,63,22025,1,2,0:0:0:0:
196,160,22129,5,8,0:0:0:0:
276,74,22233,1,2,0:0:0:0:
394,71,22336,1,12,0:0:0:0:
479,152,22440,1,2,0:0:0:0:
482,270,22544,5,8,0:0:0:0:
401,355,22648,1,2,0:0:0:0:
284,358,22752,1,12,0:0:0:0:
199,277,22856,1,2,0:0:0:0:
312,248,22960,6,0,L|204:216,1,78.3750009933117,8|2,0:0|0:0,0:0:0:0:
84,88,23168,5,4,0:0:0:0:
112,96,23272,1,2,0:0:0:0:
136,104,23376,2,0,L|216:130,1,78.3750009933117,8|2,0:0|0:0,0:0:0:0:
176,340,23583,5,4,0:0:0:0:
160,300,23687,1,2,0:0:0:0:
176,260,23791,2,0,P|180:208|168:156,1,78.3750009933117,8|2,0:0|0:0,0:0:0:0:
332,44,23999,5,8,0:0:0:0:
348,84,24103,1,2,0:0:0:0:
332,124,24207,2,0,P|328:176|340:228,1,78.3750009933117,8|2,0:0|0:0,0:0:0:0:
200,128,24415,5,8,0:0:0:0:
124,180,24519,1,2,0:0:0:0:
140,264,24623,2,0,L|156:360,1,78.3750009933117,8|2,0:0|0:0,0:0:0:0:
331,201,24830,2,0,L|315:105,1,78.3750009933117,4|2,0:0|0:0,0:0:0:0:
64,160,25038,6,0,L|16:256,1,78.3750009933117,8|2,0:0|0:0,0:0:0:0:
408,300,25246,2,0,L|464:192,1,78.3750009933117,4|2,0:0|0:0,0:0:0:0:
216,64,25454,5,8,0:0:0:0:
293,100,25558,1,2,0:0:0:0:
257,177,25662,1,12,0:0:0:0:
179,141,25766,1,2,0:0:0:0:
263,53,25870,5,8,0:0:0:0:
308,150,25973,1,2,0:0:0:0:
212,196,26077,1,12,0:0:0:0:
166,98,26181,1,2,0:0:0:0:
64,96,26285,6,0,L|88:212,1,71.2500029414895,8|2,0:0|0:0,0:0:0:0:
172,348,26493,2,0,L|200:244,1,71.2500029414895,4|2,0:0|0:0,0:0:0:0:
312,28,26701,6,0,L|280:128,1,71.2500029414895,8|2,0:0|0:0,0:0:0:0:
416,288,26909,2,0,L|384:164,1,71.2500029414895,4|2,0:0|0:0,0:0:0:0:
163,90,27117,5,8,0:0:0:0:
144,195,27220,1,2,0:0:0:0:
226,263,27324,1,12,0:0:0:0:
326,227,27428,1,2,0:0:0:0:
226,263,27532,5,8,0:0:0:0:
326,227,27636,1,2,0:0:0:0:
345,122,27740,1,12,0:0:0:0:
263,53,27844,1,2,0:0:0:0:
163,90,27948,6,0,B|132:90|108:112|116:152|128:168|144:152|188:256|216:88|280:104|364:148,1,332.500001043082,8|0,0:0|0:0,0:0:0:0:
292,224,29610,6,0,L|168:248,1,95.0000002980235,8|4,0:0|0:0,0:0:0:0:
72,160,29922,1,2,0:0:0:0:
56,148,30026,2,4,L|160:160,1,95.0000002980235,8|0,0:0|0:0,0:0:0:0:
240,64,30442,5,0,0:0:0:0:
376,112,30650,2,0,L|396:44,1,47.5000001490118,4|2,0:0|0:0,0:0:0:0:
400,56,30857,2,0,L|412:212,1,142.500000447035,8|0,0:0|0:0,0:0:0:0:
396,216,31273,6,0,P|328:208|276:232,1,95.0000002980235,8|4,0:0|0:0,0:0:0:0:
196,276,31585,1,2,0:0:0:0:
208,264,31689,2,0,P|132:268|88:240,1,95.0000002980235,8|4,0:0|0:0,0:0:0:0:
96,144,32104,5,0,0:0:0:0:
232,160,32312,1,4,0:0:0:0:
80,116,32520,5,8,0:0:0:0:
248,188,32728,1,4,0:0:0:0:
180,268,32936,6,8,P|240:292|328:256,1,142.500000447035,8|0,0:0|0:0,0:0:0:0:
328,272,33351,2,0,L|344:160,1,95.0000002980235,8|4,0:0|0:0,0:0:0:0:
228,40,33767,6,0,L|240:144,1,95.0000002980235,0|4,0:0|0:0,0:0:0:0:
280,260,34183,2,0,P|348:276|420:248,1,142.500000447035,8|0,0:0|0:0,0:0:0:0:
424,264,34598,6,0,P|420:184|436:132,1,95.0000002980235,8|4,0:0|0:0,0:0:0:0:
336,68,34910,1,0,0:0:0:0:
328,44,35014,2,0,P|332:116|324:156,1,95.0000002980235,8|4,0:0|0:0,0:0:0:0:
248,232,35430,5,0,0:0:0:0:
136,160,35637,1,4,0:0:0:0:
292,144,35845,5,8,0:0:0:0:
88,244,36053,1,4,0:0:0:0:
196,192,36261,5,8,0:0:0:0:
256,192,36365,12,0,39586,0:0:0:0:
