osu file format v14

[General]
AudioFilename: Brad Breeck - I'm From Another Dimension (Star vs The Forces of Evil).mp3
AudioLeadIn: 0
PreviewTime: 16309
Countdown: 0
SampleSet: Soft
StackLeniency: 0.7
Mode: 0
LetterboxInBreaks: 1
WidescreenStoryboard: 1

[Editor]
DistanceSpacing: 0.8
BeatDivisor: 4
GridSize: 4
TimelineZoom: 3.899998

[Metadata]
Title:I'm From Another Dimension
TitleUnicode:I'm From Another Dimension
Artist:Brad Breeck
ArtistUnicode:Brad Breeck
Creator:Clarity
Version:Phoenixmaster5's Insane
Source:Star vs. The Forces of Evil
Tags:star butterfly marco diaz vs the forces of evil i'm from another dimension brad breeck bradbreeck disney xd daron nefcy megatrook89 phoenixmaster5 skyflame idkie megatron is bad silence aeril pyrowar56 havkz mapper squilly lukermaster lkr Shiney01
BeatmapID:1026548
BeatmapSetID:326220

[Difficulty]
HPDrainRate:7
CircleSize:4.1
OverallDifficulty:7
ApproachRate:9
SliderMultiplier:1.90000000596047
SliderTickRate:2

[Events]
//Background and Video events
0,0,"starpls.jpg",0,0
//Break Periods
//Storyboard Layer 0 (Background)
//Storyboard Layer 1 (Fail)
//Storyboard Layer 2 (Pass)
//Storyboard Layer 3 (Foreground)
//Storyboard Sound Samples

[TimingPoints]
-316,415.656390717007,4,2,0,100,1,0
16310,-100,4,2,0,100,0,1
29611,-100,4,2,0,100,0,0

[HitObjects]
191,240,515,6,0,L|205:179,1,47.5000001490118
335,127,930,2,0,L|321:188,1,47.5000001490118
104,148,1346,2,0,L|118:87,1,47.5000001490118
413,230,1762,2,0,L|399:291,1,47.5000001490118
249,193,2177,2,0,L|194:193,7,47.5000001490118
335,127,3008,5,0,0:0:0:0:
235,84,3216,1,0,0:0:0:0:
235,84,3320,1,0,0:0:0:0:
235,84,3424,1,0,0:0:0:0:
249,193,3632,5,0,0:0:0:0:
249,193,3736,1,0,0:0:0:0:
249,193,3840,1,0,0:0:0:0:
159,143,4048,5,0,0:0:0:0:
159,143,4151,1,0,0:0:0:0:
159,143,4255,1,0,0:0:0:0:
335,127,4463,5,0,0:0:0:0:
335,127,4567,1,0,0:0:0:0:
335,127,4671,1,0,0:0:0:0:
382,279,4879,5,0,0:0:0:0:
382,279,4983,1,0,0:0:0:0:
382,279,5087,1,0,0:0:0:0:
249,193,5295,1,0,0:0:0:0:
211,198,5398,5,0,0:0:0:0:
180,220,5502,1,0,0:0:0:0:
166,255,5606,1,0,0:0:0:0:
165,293,5710,1,0,0:0:0:0:
187,324,5814,1,0,0:0:0:0:
222,338,5918,2,0,L|337:326,1,95.0000002980235
354,322,6230,1,0,0:0:0:0:
387,304,6334,1,0,0:0:0:0:
278,189,6542,5,0,0:0:0:0:
279,203,6645,1,0,0:0:0:0:
279,217,6749,1,0,0:0:0:0:
446,108,6957,5,0,0:0:0:0:
447,122,7060,1,0,0:0:0:0:
447,136,7164,1,0,0:0:0:0:
205,95,7373,5,0,0:0:0:0:
206,109,7476,1,0,0:0:0:0:
206,123,7580,1,0,0:0:0:0:
356,70,7789,5,0,0:0:0:0:
357,84,7893,1,0,0:0:0:0:
357,98,7997,1,0,0:0:0:0:
268,218,8204,1,0,0:0:0:0:
149,155,8412,1,0,0:0:0:0:
238,301,8620,1,0,0:0:0:0:
276,135,8828,5,0,0:0:0:0:
167,237,9035,1,0,0:0:0:0:
124,75,9243,1,0,0:0:0:0:
268,218,9451,1,0,0:0:0:0:
205,95,9659,1,0,0:0:0:0:
238,301,9867,5,0,0:0:0:0:
238,301,9971,1,0,0:0:0:0:
238,301,10075,1,0,0:0:0:0:
310,201,10283,1,0,0:0:0:0:
310,201,10387,1,0,0:0:0:0:
310,201,10491,1,0,0:0:0:0:
205,95,10698,1,0,0:0:0:0:
205,95,10802,1,0,0:0:0:0:
205,95,10906,1,0,0:0:0:0:
379,85,11114,5,0,0:0:0:0:
400,115,11217,1,0,0:0:0:0:
418,147,11321,1,0,0:0:0:0:
429,183,11425,1,0,0:0:0:0:
426,220,11529,1,0,0:0:0:0:
420,254,11633,1,0,0:0:0:0:
403,288,11737,2,0,L|288:276,1,95.0000002980235
310,201,12153,2,0,P|236:252|259:339,2,190.000000596047
107,347,13192,5,0,0:0:0:0:
179,189,13400,1,0,0:0:0:0:
257,337,13608,1,0,0:0:0:0:
310,201,13816,1,0,0:0:0:0:
146,269,14023,1,0,0:0:0:0:
99,122,14231,1,0,0:0:0:0:
241,257,14439,1,0,0:0:0:0:
296,106,14647,1,0,0:0:0:0:
76,210,14855,5,0,0:0:0:0:
316,244,15062,1,0,0:0:0:0:
192,76,15270,1,0,0:0:0:0:
146,269,15478,1,0,0:0:0:0:
296,106,15686,1,0,0:0:0:0:
99,122,15894,2,0,L|159:193,1,47.5000001490118
233,316,16102,2,0,L|259:244,1,47.5000001490118
296,106,16309,5,0,0:0:0:0:
329,103,16413,1,0,0:0:0:0:
360,114,16517,1,0,0:0:0:0:
380,139,16621,1,0,0:0:0:0:
394,169,16725,2,0,L|403:227,3,47.5000001490118
389,247,17141,5,0,0:0:0:0:
367,272,17245,1,0,0:0:0:0:
336,286,17349,1,0,0:0:0:0:
303,291,17452,1,0,0:0:0:0:
270,295,17556,2,0,L|218:293,3,47.5000001490118
190,283,17972,5,0,0:0:0:0:
159,268,18076,1,0,0:0:0:0:
129,252,18180,1,0,0:0:0:0:
105,228,18284,1,0,0:0:0:0:
87,199,18388,1,0,0:0:0:0:
83,165,18492,1,0,0:0:0:0:
90,132,18596,1,0,0:0:0:0:
103,101,18699,1,0,0:0:0:0:
127,78,18804,6,0,P|172:71|198:75,1,47.5000001490118
251,153,19011,2,0,P|206:160|180:156,1,47.5000001490118
261,67,19219,2,0,P|306:60|332:64,1,47.5000001490118
384,137,19427,2,0,P|339:144|313:140,1,47.5000001490118
413,48,19635,1,0,0:0:0:0:
447,64,19739,1,0,0:0:0:0:
465,97,19843,1,0,0:0:0:0:
470,134,19946,1,0,0:0:0:0:
465,171,20050,2,0,L|443:226,3,47.5000001490118
429,248,20466,5,0,0:0:0:0:
399,272,20570,1,0,0:0:0:0:
362,282,20674,1,0,0:0:0:0:
324,290,20778,1,0,0:0:0:0:
286,291,20882,2,0,L|226:289,3,47.5000001490118
200,292,21297,5,0,0:0:0:0:
162,288,21401,1,0,0:0:0:0:
124,281,21505,1,0,0:0:0:0:
91,261,21609,1,0,0:0:0:0:
65,233,21713,1,0,0:0:0:0:
43,201,21817,5,0,0:0:0:0:
36,165,21921,1,0,0:0:0:0:
40,127,22025,1,0,0:0:0:0:
49,90,22129,2,0,P|61:56|76:37,1,47.5000001490118
217,131,22337,2,0,P|205:165|190:184,1,47.5000001490118
132,106,22545,2,0,P|144:72|159:53,1,47.5000001490118
295,158,22752,2,0,P|283:192|268:211,1,47.5000001490118
219,133,22960,5,0,0:0:0:0:
219,133,23064,1,0,0:0:0:0:
219,133,23168,2,0,L|243:77,1,47.5000001490118
389,190,23376,5,0,0:0:0:0:
389,190,23480,1,0,0:0:0:0:
389,190,23584,2,0,L|365:246,1,47.5000001490118
295,158,23791,5,0,0:0:0:0:
295,158,23895,1,0,0:0:0:0:
295,158,23999,2,0,L|319:102,1,47.5000001490118
475,223,24207,5,0,0:0:0:0:
475,223,24311,1,0,0:0:0:0:
475,223,24415,2,0,L|451:279,1,47.5000001490118
435,299,24623,1,0,0:0:0:0:
400,313,24726,1,0,0:0:0:0:
363,324,24830,1,0,0:0:0:0:
325,328,24934,5,0,0:0:0:0:
286,327,25038,1,0,0:0:0:0:
247,326,25142,1,0,0:0:0:0:
209,318,25246,1,0,0:0:0:0:
172,308,25350,1,0,0:0:0:0:
134,300,25454,6,0,L|75:295,1,47.5000001490118
124,218,25662,2,0,L|65:213,1,47.5000001490118
99,133,25870,2,0,L|40:128,1,47.5000001490118
80,46,26078,2,0,L|21:41,1,47.5000001490118
270,230,26285,5,0,0:0:0:0:
328,74,26493,1,0,0:0:0:0:
196,162,26701,1,0,0:0:0:0:
358,169,26909,1,0,0:0:0:0:
222,69,27117,5,0,0:0:0:0:
263,258,27324,1,0,0:0:0:0:
396,169,27532,1,0,0:0:0:0:
166,158,27740,1,0,0:0:0:0:
356,52,27948,1,0,0:0:0:0:
256,192,28052,12,0,29403,0:0:0:0:
307,101,29610,5,0,0:0:0:0:
169,163,29818,1,0,0:0:0:0:
156,188,29922,1,0,0:0:0:0:
149,215,30026,1,0,0:0:0:0:
225,316,30234,1,0,0:0:0:0:
392,283,30442,5,0,0:0:0:0:
404,257,30546,1,0,0:0:0:0:
411,229,30650,1,0,0:0:0:0:
418,201,30754,1,0,0:0:0:0:
418,172,30857,1,0,0:0:0:0:
307,101,31065,1,0,0:0:0:0:
307,305,31273,1,0,0:0:0:0:
149,215,31481,5,0,0:0:0:0:
156,188,31585,1,0,0:0:0:0:
169,163,31689,1,0,0:0:0:0:
256,199,31897,1,0,0:0:0:0:
307,101,32105,2,0,P|337:83|355:81,1,47.5000001490118
380,164,32312,2,0,P|410:146|428:144,1,47.5000001490118
388,255,32520,1,0,0:0:0:0:
307,305,32728,1,0,0:0:0:0:
224,258,32936,5,0,0:0:0:0:
306,211,33144,1,0,0:0:0:0:
226,159,33351,1,0,0:0:0:0:
307,305,33559,1,0,0:0:0:0:
388,255,33767,2,0,P|397:202|376:164,2,95.0000002980235
226,159,34390,1,0,0:0:0:0:
307,305,34598,1,0,0:0:0:0:
378,166,34806,5,0,0:0:0:0:
224,258,35014,1,0,0:0:0:0:
307,101,35222,1,0,0:0:0:0:
388,255,35430,1,0,0:0:0:0:
226,159,35637,1,0,0:0:0:0:
378,166,35845,5,0,0:0:0:0:
307,305,36053,1,0,0:0:0:0:
226,159,36261,1,0,0:0:0:0:
256,192,36365,12,0,39586,0:0:0:0:
