osu file format v14

[General]
AudioFilename: Brad Breeck - I'm From Another Dimension (Star vs The Forces of Evil).mp3
AudioLeadIn: 0
PreviewTime: 16309
Countdown: 0
SampleSet: None
StackLeniency: 0.7
Mode: 0
LetterboxInBreaks: 1
WidescreenStoryboard: 1

[Editor]
DistanceSpacing: 0.5
BeatDivisor: 4
GridSize: 4
TimelineZoom: 2.099999

[Metadata]
Title:I'm From Another Dimension
TitleUnicode:I'm From Another Dimension
Artist:Brad Breeck
ArtistUnicode:Brad Breeck
Creator:Clarity
Version:LetsGetFrosty's Sugar Spice
Source:Star vs. The Forces of Evil
Tags:star butterfly marco diaz vs the forces of evil i'm from another dimension brad breeck bradbreeck disney xd daron nefcy megatrook89 phoenixmaster5 skyflame idkie megatron is bad silence aeril pyrowar56 havkz mapper squilly lukermaster lkr Shiney01
BeatmapID:1348589
BeatmapSetID:326220

[Difficulty]
HPDrainRate:6
CircleSize:5
OverallDifficulty:7
ApproachRate:9
SliderMultiplier:3.39999990463257
SliderTickRate:2

[Events]
//Background and Video events
0,0,"starpls.jpg",0,0
//Break Periods
//Storyboard Layer 0 (Background)
//Storyboard Layer 1 (Fail)
//Storyboard Layer 2 (Pass)
//Storyboard Layer 3 (Foreground)
//Storyboard Sound Samples

[TimingPoints]
-316,415.656390717007,4,2,1,50,1,0
9244,-66.6666666666667,4,2,1,50,0,0
9659,-100,4,2,1,50,0,0
11530,-133.333333333333,4,2,1,50,0,0
12153,-200,4,2,1,50,0,0
12985,-100,4,2,1,50,0,0
15478,-133.333333333333,4,2,1,50,0,0
15894,-133.333333333333,4,2,1,50,0,1
22129,-100,4,2,1,50,0,1
22545,-66.6666666666667,4,2,1,50,0,1
25454,-50,4,2,1,50,0,1
26286,-66.6666666666667,4,2,1,50,0,1
27532,-50,4,2,1,50,0,1
29611,-200,4,2,1,50,0,0

[Colours]
Combo1 : 255,170,255
Combo2 : 255,111,111
Combo3 : 255,169,128
Combo4 : 255,239,130
Combo5 : 132,255,132
Combo6 : 66,160,255
Combo7 : 198,147,255

[HitObjects]
124,128,515,5,0,0:0:0:0:
124,128,930,5,0,0:0:0:0:
388,232,1346,5,0,0:0:0:0:
388,232,1762,5,0,0:0:0:0:
256,288,2177,5,0,0:0:0:0:
176,316,2281,1,0,0:0:0:0:
100,280,2385,1,0,0:0:0:0:
60,208,2489,1,0,0:0:0:0:
96,136,2593,1,0,0:0:0:0:
168,104,2697,1,0,0:0:0:0:
240,124,2801,1,0,0:0:0:0:
320,144,2905,1,0,0:0:0:0:
392,108,3009,6,0,P|456:184|432:252,1,169.999995231629
364,308,3320,1,0,0:0:0:0:
320,312,3424,1,0,0:0:0:0:
144,196,3632,1,0,0:0:0:0:
280,56,3840,2,0,L|416:68,1,84.9999976158143
192,112,4048,2,0,L|56:100,1,84.9999976158143,0|0,3:0|3:0,3:0:0:0:
272,184,4256,2,0,L|408:196,1,84.9999976158143
360,196,4464,1,0,0:0:0:0:
104,272,4671,6,0,L|131:171,1,84.9999976158143
176,80,4879,2,0,P|264:52|360:96,1,169.999995231629
335,74,5191,1,0,0:0:0:0:
335,74,5295,1,0,0:0:0:0:
200,200,5503,1,0,0:0:0:0:
224,334,5711,1,0,0:0:0:0:
319,238,5918,1,0,0:0:0:0:
200,200,6126,1,0,0:0:0:0:
64,136,6334,6,0,P|151:99|153:110,1,84.9999976158143,0|0,2:0|2:0,2:0:0:0:
340,132,6542,1,0,0:0:0:0:
84,232,6750,1,0,0:0:0:0:
360,241,6957,1,0,0:0:0:0:
64,324,7165,2,0,P|51:240|288:96,1,339.999990463257
424,80,7789,1,0,0:0:0:0:
256,232,7997,5,0,0:0:0:0:
144,172,8204,2,0,P|175:61|203:67,1,169.999995231629,0|0,3:0|3:0,3:0:0:0:
300,64,8620,1,0,0:0:0:0:
380,112,8828,1,0,0:0:0:0:
424,196,9036,1,0,0:0:0:0:
272,272,9244,2,0,L|136:288,4,127.50000128746
97,191,9867,5,0,0:0:0:0:
124,156,9971,1,0,0:0:0:0:
329,107,10075,1,0,0:0:0:0:
339,302,10283,2,0,L|237:393,1,84.9999976158143
358,199,10491,2,0,L|459:108,1,84.9999976158143,0|0,3:0|3:0,3:0:0:0:
250,209,10698,2,0,L|149:300,1,84.9999976158143
182,265,10906,1,0,0:0:0:0:
301,26,11114,2,0,L|356:114,1,84.9999976158143
392,209,11322,6,0,P|352:293|255:333,1,169.999995231629
96,236,11738,1,0,0:0:0:0:
256,192,11945,1,0,0:0:0:0:
256,192,12153,12,0,12985,0:0:0:0:
172,251,13192,5,0,0:0:0:0:
428,152,13400,1,0,0:0:0:0:
152,143,13607,1,0,0:0:0:0:
448,60,13815,2,0,P|461:144|224:288,1,339.999990463257
88,304,14439,1,0,0:0:0:0:
256,152,14647,1,0,0:0:0:0:
368,212,14854,6,0,P|337:323|309:317,1,169.999995231629,0|0,3:0|3:0,3:0:0:0:
212,320,15270,1,0,0:0:0:0:
132,272,15478,1,0,0:0:0:0:
88,188,15686,1,0,0:0:0:0:
340,128,15894,1,0,0:0:0:0:
340,128,16102,1,0,0:0:0:0:
420,292,16310,5,0,0:0:0:0:
380,316,16414,1,0,0:0:0:0:
336,316,16518,1,0,0:0:0:0:
296,296,16621,1,0,0:0:0:0:
272,260,16725,1,0,0:0:0:0:
260,216,16829,1,0,0:0:0:0:
228,180,16933,1,0,0:0:0:0:
188,172,17037,1,0,0:0:0:0:
156,200,17141,5,0,0:0:0:0:
128,232,17245,1,0,0:0:0:0:
96,264,17349,1,0,0:0:0:0:
64,300,17453,1,0,0:0:0:0:
28,268,17557,1,0,0:0:0:0:
24,224,17661,1,0,0:0:0:0:
44,180,17764,1,0,0:0:0:0:
72,144,17868,1,0,0:0:0:0:
104,120,17972,5,0,0:0:0:0:
148,104,18076,1,0,0:0:0:0:
192,120,18180,1,0,0:0:0:0:
220,152,18284,1,0,0:0:0:0:
240,192,18388,1,0,0:0:0:0:
264,228,18492,1,0,0:0:0:0:
296,244,18596,1,0,0:0:0:0:
336,224,18700,1,0,0:0:0:0:
368,196,18804,5,0,0:0:0:0:
400,172,18908,1,0,0:0:0:0:
432,144,19012,1,0,0:0:0:0:
288,72,19219,2,0,P|188:52|132:84,1,127.50000128746
92,240,19635,1,0,0:0:0:0:
132,248,19739,1,0,0:0:0:0:
164,220,19843,1,0,0:0:0:0:
192,188,19947,1,0,0:0:0:0:
224,156,20051,5,0,0:0:0:0:
256,120,20155,1,0,0:0:0:0:
292,152,20259,1,0,0:0:0:0:
296,196,20363,1,0,0:0:0:0:
276,240,20466,1,0,0:0:0:0:
248,276,20570,1,0,0:0:0:0:
216,300,20674,1,0,0:0:0:0:
172,316,20778,1,0,0:0:0:0:
128,300,20882,5,0,0:0:0:0:
100,268,20986,1,0,0:0:0:0:
80,228,21090,1,0,0:0:0:0:
60,192,21194,1,0,0:0:0:0:
79,163,21298,1,0,0:0:0:0:
122,159,21402,1,0,0:0:0:0:
161,161,21505,1,0,0:0:0:0:
204,159,21609,1,0,0:0:0:0:
244,160,21713,5,0,0:0:0:0:
284,160,21817,1,0,0:0:0:0:
328,160,21921,1,0,0:0:0:0:
368,160,22025,1,0,0:0:0:0:
372,108,22129,1,0,0:0:0:0:
352,68,22233,1,0,0:0:0:0:
124,64,22337,2,0,P|130:162|146:166,6,84.9999976158143
384,220,23376,1,0,0:0:0:0:
232,292,23999,6,0,L|108:348,6,127.50000128746
320,112,25038,1,0,0:0:0:0:
72,180,25870,5,0,0:0:0:0:
72,180,26078,1,0,0:0:0:0:
368,335,26286,1,0,0:0:0:0:
72,180,26701,1,0,0:0:0:0:
360,80,27117,1,0,0:0:0:0:
72,180,27532,1,0,0:0:0:0:
72,180,27740,1,0,0:0:0:0:
256,192,27948,12,0,29611,0:0:0:0:
408,304,29819,5,0,0:0:0:0:
364,308,29922,1,0,0:0:0:0:
320,312,30026,1,0,0:0:0:0:
144,196,30234,1,0,0:0:0:0:
280,56,30442,2,0,L|416:68,1,84.9999976158143
192,112,30858,2,0,L|56:100,1,84.9999976158143,0|0,3:0|3:0,3:0:0:0:
364,188,31273,5,0,0:0:0:0:
168,328,31481,1,0,0:0:0:0:
44,276,31585,1,0,0:0:0:0:
169,226,31689,1,0,0:0:0:0:
404,304,31897,1,0,0:0:0:0:
460,180,32105,1,0,0:0:0:0:
396,64,32312,1,0,0:0:0:0:
192,104,32520,2,0,P|127:180|153:274,1,169.999995231629
304,312,33144,5,0,0:0:0:0:
400,352,33352,1,0,0:0:0:0:
444,256,33559,1,0,0:0:0:0:
348,216,33767,1,0,0:0:0:0:
348,216,34183,1,0,0:0:0:0:
84,160,34598,6,0,L|144:60,1,84.9999976158143
232,56,35014,1,0,0:0:0:0:
392,144,35222,1,0,0:0:0:0:
232,56,35430,1,0,0:0:0:0:
392,144,35638,1,0,0:0:0:0:
80,304,35846,1,0,0:0:0:0:
408,248,36053,1,0,0:0:0:0:
256,192,36261,12,0,39587,0:0:0:0:
