osu file format v14

[General]
AudioFilename: Brad Breeck - I'm From Another Dimension (Star vs The Forces of Evil).mp3
AudioLeadIn: 0
PreviewTime: 16309
Countdown: 0
SampleSet: None
StackLeniency: 0.7
Mode: 0
LetterboxInBreaks: 1
WidescreenStoryboard: 1

[Editor]
Bookmarks: 25454
DistanceSpacing: 4
BeatDivisor: 4
GridSize: 4
TimelineZoom: 2.099999

[Metadata]
Title:I'm From Another Dimension
TitleUnicode:I'm From Another Dimension
Artist:Brad Breeck
ArtistUnicode:Brad Breeck
Creator:Clarity
Version:Geek's Alternate Dimension
Source:Star vs. The Forces of Evil
Tags:star butterfly marco diaz vs the forces of evil i'm from another dimension brad breeck bradbreeck disney xd daron nefcy megatrook89 phoenixmaster5 skyflame idkie megatron is bad silence aeril pyrowar56 havkz mapper squilly lukermaster lkr Shiney01
BeatmapID:1341646
BeatmapSetID:326220

[Difficulty]
HPDrainRate:4.2
CircleSize:4.3
OverallDifficulty:9.5
ApproachRate:10
SliderMultiplier:2.99999990463257
SliderTickRate:2

[Events]
//Background and Video events
0,0,"starpls.jpg",0,0
//Break Periods
//Storyboard Layer 0 (Background)
//Storyboard Layer 1 (Fail)
//Storyboard Layer 2 (Pass)
//Storyboard Layer 3 (Foreground)
//Storyboard Sound Samples

[TimingPoints]
-316,415.656390717007,4,2,1,50,1,0
515,-66.6666666666667,4,2,1,50,0,0
11530,-133.333333333333,4,2,1,50,0,0
12153,-80,4,2,1,50,0,0
12985,-66.6666666666667,4,2,1,50,0,0
15478,-133.333333333333,4,2,1,50,0,0
15894,-80,4,2,1,50,0,1
22545,-66.6666666666667,4,2,1,50,0,1
25454,-33.3333333333333,4,2,1,50,0,1
26286,-80,4,2,1,50,0,1
27948,-133.333333333333,4,2,1,50,0,1
29611,-200,4,2,1,50,0,0
39587,-200,4,2,1,5,0,0

[Colours]
Combo1 : 255,170,255
Combo2 : 255,111,111
Combo3 : 255,169,128
Combo4 : 255,239,130
Combo5 : 132,255,132
Combo6 : 66,160,255
Combo7 : 198,147,255

[HitObjects]
192,32,515,6,0,L|99:95,1,112.500000715256
320,32,930,2,0,L|412:96,1,112.500000715256
143,172,1346,2,0,L|78:263,1,112.500000715256
368,172,1762,2,0,L|432:264,1,112.500000715256
2,128,2177,5,0,0:0:0:0:
229,203,2281,1,0,0:0:0:0:
144,80,2385,1,0,0:0:0:0:
88,252,2489,1,0,0:0:0:0:
333,177,2593,5,0,0:0:0:0:
389,349,2697,1,0,0:0:0:0:
247,300,2801,1,0,0:0:0:0:
474,225,2905,1,0,0:0:0:0:
484,32,3009,6,0,P|435:7|381:18,1,112.500000715256
98,100,3217,1,0,0:0:0:0:
347,143,3320,1,0,0:0:0:0:
72,244,3424,1,0,0:0:0:0:
323,288,3528,1,0,0:0:0:0:
235,49,3632,1,0,0:0:0:0:
184,338,3736,1,0,0:0:0:0:
235,49,3840,6,0,L|212:188,1,112.500000715256
436,103,4048,1,0,0:0:0:0:
481,299,4152,1,0,0:0:0:0:
281,89,4256,1,0,0:0:0:0:
279,331,4360,1,0,0:0:0:0:
151,53,4464,1,0,0:0:0:0:
91,335,4567,1,0,0:0:0:0:
46,21,4671,6,0,L|-4:128,1,112.500000715256
295,125,4879,1,0,0:0:0:0:
205,244,4983,1,0,0:0:0:0:
350,182,5087,1,0,0:0:0:0:
148,186,5191,1,0,0:0:0:0:
392,251,5295,1,0,0:0:0:0:
108,117,5399,1,0,0:0:0:0:
430,317,5503,6,0,P|389:354|334:362,1,112.500000715256
155,51,5711,1,0,0:0:0:0:
336,29,5814,1,0,0:0:0:0:
106,147,5918,1,0,0:0:0:0:
391,173,6022,1,0,0:0:0:0:
76,268,6126,1,0,0:0:0:0:
406,340,6230,1,0,0:0:0:0:
321,198,6334,6,0,P|265:180|211:202,1,112.500000715256
211,312,6542,1,0,0:0:0:0:
328,84,6646,1,0,0:0:0:0:
141,204,6750,1,0,0:0:0:0:
397,191,6854,1,0,0:0:0:0:
200,90,6957,1,0,0:0:0:0:
338,305,7061,1,0,0:0:0:0:
328,84,7165,6,0,P|272:68|218:86,1,112.500000715256
0,149,7373,1,0,0:0:0:0:
120,265,7477,1,0,0:0:0:0:
50,90,7581,1,0,0:0:0:0:
69,322,7685,1,0,0:0:0:0:
111,46,7789,1,0,0:0:0:0:
3,363,7893,1,0,0:0:0:0:
394,157,7997,6,0,P|344:125|287:130,1,112.500000715256
188,236,8204,1,0,0:0:0:0:
293,128,8308,1,0,0:0:0:0:
134,162,8412,1,0,0:0:0:0:
347,200,8516,1,0,0:0:0:0:
100,84,8620,1,0,0:0:0:0:
383,278,8724,1,0,0:0:0:0:
192,352,8828,6,0,L|90:280,1,112.500000715256
320,352,9036,2,0,L|421:280,1,112.500000715256
144,212,9244,2,0,L|72:110,1,112.500000715256
368,212,9451,2,0,L|439:110,1,112.500000715256
256,88,9659,6,0,L|256:200,1,112.500000715256
352,68,9867,1,0,0:0:0:0:
162,105,9971,1,0,0:0:0:0:
387,160,10075,1,0,0:0:0:0:
136,208,10179,1,0,0:0:0:0:
436,260,10283,1,0,0:0:0:0:
112,316,10387,1,0,0:0:0:0:
476,360,10491,6,0,P|421:370|372:345,1,112.500000715256
120,68,10698,1,0,0:0:0:0:
296,72,10802,1,0,0:0:0:0:
128,52,10906,1,0,0:0:0:0:
292,192,11010,1,0,0:0:0:0:
136,40,11114,1,0,0:0:0:0:
248,296,11218,1,0,0:0:0:0:
152,32,11322,1,0,0:0:0:0:
264,204,11530,5,0,0:0:0:0:
264,204,11634,1,0,0:0:0:0:
264,204,11738,2,0,P|236:164|204:204,1,112.500000715256
124,208,12153,2,0,P|232:84|344:208,1,374.999988079071
464,339,12985,6,0,P|409:349|360:324,1,112.500000715256
382,91,13192,1,0,0:0:0:0:
198,179,13296,1,0,0:0:0:0:
467,148,13400,1,0,0:0:0:0:
283,236,13504,1,0,0:0:0:0:
299,33,13608,1,0,0:0:0:0:
116,121,13712,1,0,0:0:0:0:
100,324,13816,6,0,L|188:250,1,112.500000715256
467,148,14024,1,0,0:0:0:0:
116,121,14128,1,0,0:0:0:0:
299,33,14231,1,0,0:0:0:0:
283,236,14335,1,0,0:0:0:0:
380,92,14439,1,0,0:0:0:0:
199,183,14543,1,0,0:0:0:0:
100,324,14647,6,0,L|71:211,1,112.500000715256
118,21,14855,1,0,0:0:0:0:
299,33,14959,1,0,0:0:0:0:
199,183,15063,1,0,0:0:0:0:
380,196,15167,1,0,0:0:0:0:
280,346,15271,1,0,0:0:0:0:
99,333,15375,1,0,0:0:0:0:
199,183,15478,6,0,L|56:176,1,112.500000715256
130,119,15894,6,0,L|181:105,1,46.8749985098839
328,66,15998,2,0,L|342:117,1,46.8749985098839
381,264,16102,2,0,L|330:278,1,46.8749985098839
183,317,16206,2,0,L|169:266,1,46.8749985098839
130,119,16310,5,0,0:0:0:0:
210,27,16414,1,0,0:0:0:0:
249,142,16518,1,0,0:0:0:0:
169,234,16621,1,0,0:0:0:0:
50,211,16725,1,0,0:0:0:0:
89,326,16829,1,0,0:0:0:0:
208,349,16933,1,0,0:0:0:0:
288,257,17037,1,0,0:0:0:0:
169,234,17141,1,0,0:0:0:0:
249,142,17245,1,0,0:0:0:0:
368,165,17349,1,0,0:0:0:0:
288,257,17453,1,0,0:0:0:0:
407,280,17557,1,0,0:0:0:0:
327,372,17661,1,0,0:0:0:0:
288,257,17765,1,0,0:0:0:0:
368,165,17868,1,0,0:0:0:0:
487,188,17972,5,0,0:0:0:0:
448,73,18076,1,0,0:0:0:0:
329,50,18180,1,0,0:0:0:0:
249,142,18284,1,0,0:0:0:0:
368,165,18388,1,0,0:0:0:0:
288,257,18492,1,0,0:0:0:0:
169,234,18596,1,0,0:0:0:0:
208,349,18700,1,0,0:0:0:0:
89,326,18804,1,0,0:0:0:0:
50,211,18908,1,0,0:0:0:0:
130,119,19012,1,0,0:0:0:0:
210,27,19115,1,0,0:0:0:0:
249,142,19219,1,0,0:0:0:0:
329,50,19323,1,0,0:0:0:0:
368,165,19427,1,0,0:0:0:0:
288,257,19531,1,0,0:0:0:0:
407,280,19635,5,0,0:0:0:0:
327,372,19739,1,0,0:0:0:0:
208,349,19843,1,0,0:0:0:0:
288,257,19947,1,0,0:0:0:0:
368,165,20051,1,0,0:0:0:0:
329,50,20155,1,0,0:0:0:0:
210,27,20258,1,0,0:0:0:0:
249,142,20362,1,0,0:0:0:0:
130,119,20466,1,0,0:0:0:0:
169,234,20570,1,0,0:0:0:0:
50,211,20674,1,0,0:0:0:0:
2,96,20778,1,0,0:0:0:0:
82,4,20882,1,0,0:0:0:0:
210,27,20986,1,0,0:0:0:0:
128,121,21090,1,0,0:0:0:0:
249,142,21194,1,0,0:0:0:0:
329,50,21298,5,0,0:0:0:0:
448,72,21402,1,0,0:0:0:0:
368,165,21505,1,0,0:0:0:0:
408,280,21609,1,0,0:0:0:0:
327,372,21713,1,0,0:0:0:0:
288,257,21817,1,0,0:0:0:0:
208,349,21921,1,0,0:0:0:0:
169,234,22025,1,0,0:0:0:0:
249,142,22129,1,0,0:0:0:0:
368,165,22233,1,0,0:0:0:0:
329,50,22337,1,0,0:0:0:0:
210,27,22441,1,0,0:0:0:0:
128,121,22545,1,0,0:0:0:0:
50,211,22649,1,0,0:0:0:0:
89,326,22752,1,0,0:0:0:0:
208,349,22856,1,0,0:0:0:0:
327,372,22960,6,0,B|275:225|275:225|285:179|363:182,1,225.000001430512
448,72,23272,1,0,0:0:0:0:
296,24,23376,2,0,B|143:-6|143:-6|99:9|113:86,1,225.000001430512
50,211,23688,1,0,0:0:0:0:
208,349,23792,2,0,B|255:312|255:312|263:282|263:282|306:299|306:299|313:269|313:269|358:235,1,225.000001430512
512,344,24103,1,0,0:0:0:0:
358,235,24207,2,0,B|357:175|357:175|338:151|338:151|378:127|378:127|358:103|358:103|358:47,1,225.000001430512
232,148,24519,1,0,0:0:0:0:
124,36,24623,6,0,B|87:18|63:58|63:58|64:214,1,225.000001430512
232,148,24935,1,0,0:0:0:0:
358,235,25039,2,0,B|375:271|335:295|335:295|179:294,1,225.000001430512
232,148,25350,1,0,0:0:0:0:
120,112,25454,6,0,P|108:28|152:104,1,225.000001430512
372,184,25662,6,0,P|399:103|342:170,1,225.000001430512
88,276,25870,6,0,P|40:205|113:254,1,225.000001430512
404,352,26078,6,0,P|465:293|383:325,1,225.000001430512
248,243,26286,6,0,L|196:54,1,187.499994039536
380,107,26597,1,0,0:0:0:0:
198,62,26701,2,0,B|385:110,1,187.499994039536
248,243,27013,1,0,0:0:0:0:
380,107,27117,2,0,B|233:255,1,187.499994039536
198,61,27429,1,0,0:0:0:0:
248,243,27532,2,0,L|222:153,1,93.7499970197678
198,61,27740,2,0,L|221:152,1,93.7499970197678
198,62,27948,6,0,P|230:330|266:62,1,787.500005006791
95,49,29611,2,0,P|66:82|47:116,1,74.9999976158143
31,183,29923,1,0,0:0:0:0:
42,261,30026,1,0,0:0:0:0:
233,195,30234,1,0,0:0:0:0:
403,317,30650,1,0,0:0:0:0:
457,133,30858,6,0,P|413:128|374:132,1,74.9999976158143
313,149,31273,2,0,P|274:169|244:194,1,74.9999976158143
178,205,31585,1,0,0:0:0:0:
204,136,31689,1,0,0:0:0:0:
65,251,31897,1,0,0:0:0:0:
125,67,32105,1,0,0:0:0:0:
255,205,32313,1,0,0:0:0:0:
335,170,32520,2,0,L|427:170,1,74.9999976158143
130,256,32936,6,0,L|37:256,1,74.9999976158143
372,256,33352,1,0,0:0:0:0:
372,256,33559,1,0,0:0:0:0:
372,256,33767,2,0,P|367:212|371:173,1,74.9999976158143
457,138,34183,1,0,0:0:0:0:
191,186,34599,1,0,0:0:0:0:
119,29,34806,1,0,0:0:0:0:
0,156,35014,6,0,L|33:223,1,74.9999976158143
140,108,35430,1,0,0:0:0:0:
208,276,35638,1,0,0:0:0:0:
292,53,35846,1,0,0:0:0:0:
395,318,36054,1,0,0:0:0:0:
462,1,36261,1,0,0:0:0:0:
256,192,36469,12,0,39587,0:0:0:0:
