osu file format v14

[General]
AudioFilename: Brad Breeck - I'm From Another Dimension (Star vs The Forces of Evil).mp3
AudioLeadIn: 0
PreviewTime: 16309
Countdown: 0
SampleSet: Soft
StackLeniency: 0.7
Mode: 0
LetterboxInBreaks: 1
WidescreenStoryboard: 1

[Editor]
DistanceSpacing: 1.3
BeatDivisor: 4
GridSize: 4
TimelineZoom: 3.299999

[Metadata]
Title:I'm From Another Dimension
TitleUnicode:I'm From Another Dimension
Artist:Brad Breeck
ArtistUnicode:Brad Breeck
Creator:Clarity
Version:Aeril's Extra
Source:Star vs. The Forces of Evil
Tags:star butterfly marco diaz vs the forces of evil i'm from another dimension brad breeck bradbreeck disney xd daron nefcy megatrook89 phoenixmaster5 skyflame idkie megatron is bad silence aeril pyrowar56 havkz mapper squilly lukermaster lkr Shiney01
BeatmapID:1025644
BeatmapSetID:326220

[Difficulty]
HPDrainRate:6
CircleSize:4.5
OverallDifficulty:8.5
ApproachRate:9.3
SliderMultiplier:2.10000000596047
SliderTickRate:2

[Events]
//Background and Video events
0,0,"starpls.jpg",0,0
//Break Periods
//Storyboard Layer 0 (Background)
//Storyboard Layer 1 (Fail)
//Storyboard Layer 2 (Pass)
//Storyboard Layer 3 (Foreground)
//Storyboard Sound Samples

[TimingPoints]
-316,415.656390717007,4,2,0,70,1,0
3009,-83.3333333333333,4,2,0,70,0,0
5503,-76.9230769230769,4,2,0,70,0,0
5919,-71.4285714285714,4,2,0,70,0,0
6335,-83.3333333333333,4,2,0,70,0,0
8829,-76.9230769230769,4,2,0,70,0,0
9244,-71.4285714285714,4,2,0,70,0,0
9868,-83.3333333333333,4,2,0,70,0,0
12154,-100,4,2,0,70,0,0
12985,-83.3333333333333,4,2,0,70,0,0
15479,-100,4,2,0,70,0,0
16310,-66.6666666666667,4,2,0,70,0,1
29611,-100,4,2,0,70,0,0

[HitObjects]
141,79,516,6,0,L|151:9,1,52.5000001490117
371,305,931,2,0,L|361:375,1,52.5000001490117
217,119,1347,6,0,L|287:129,1,52.5000001490117
295,265,1762,2,0,L|225:255,1,52.5000001490117
333,180,2178,6,0,L|389:137,1,52.5000001490117
179,204,2386,2,0,L|122:246,1,52.5000001490117
342,190,2594,2,0,L|398:147,1,52.5000001490117
170,194,2802,2,0,L|113:236,1,52.5000001490117
436,235,3009,6,0,P|474:190|465:109,1,125.999996512413
404,80,3321,1,0,0:0:0:0:
285,113,3425,2,0,L|178:106,1,62.9999982562067
165,37,3633,2,0,P|191:23|232:20,1,62.9999982562067
221,258,3841,6,0,P|195:272|97:217,1,125.999996512413
173,192,4152,1,0,0:0:0:0:
355,147,4256,2,0,L|345:248,1,62.9999982562067
204,337,4464,2,0,P|207:264|225:229,1,62.9999982562067
441,237,4672,6,0,P|401:292|305:292,1,125.999996512413
286,249,4984,1,0,0:0:0:0:
123,305,5088,2,0,L|55:305,1,62.9999982562067
172,108,5296,2,0,P|184:157|173:190,1,62.9999982562067
62,90,5503,6,0,P|96:33|139:17,1,68.2499970694784
275,185,5711,2,0,P|241:242|198:258,1,68.2499970694784
223,25,5919,6,0,P|251:14|317:27,1,73.4999979655745
289,359,6127,2,0,P|261:370|195:357,1,73.4999979655745
271,102,6335,6,0,P|339:129|356:199,1,125.999996512413
330,251,6646,1,0,0:0:0:0:
179,211,6750,2,0,L|177:137,1,62.9999982562067
223,25,6958,2,0,P|251:14|317:27,1,62.9999982562067
269,307,7166,6,0,P|254:224|290:181,1,125.999996512413
357,174,7478,1,0,0:0:0:0:
479,277,7582,2,0,L|463:364,1,62.9999982562067
301,112,7789,2,0,P|329:91|369:91,1,62.9999982562067
285,329,7997,6,0,P|232:352|143:315,1,125.999996512413
146,257,8309,1,0,0:0:0:0:
205,143,8413,2,0,L|205:77,1,62.9999982562067
82,11,8621,2,0,P|69:41|70:85,1,62.9999982562067
174,232,8829,6,0,P|194:236|250:226,1,68.2499970694784
357,121,9036,2,0,P|337:117|281:127,1,68.2499970694784
98,293,9244,6,0,P|80:261|77:225,1,73.4999979655745
422,277,9452,2,0,P|403:308|374:330,1,73.4999979655745
246,4,9660,2,0,P|283:5|316:20,1,73.4999979655745
326,200,9868,5,0,0:0:0:0:
329,229,9972,1,0,0:0:0:0:
305,294,10076,2,0,L|229:319,1,62.9999982562067
126,253,10283,2,0,P|167:244|205:259,1,62.9999982562067
42,321,10491,6,0,P|21:252|52:182,1,125.999996512413
113,172,10803,1,0,0:0:0:0:
223,231,10907,2,0,L|295:228,1,62.9999982562067
453,298,11115,2,0,P|456:338|447:370,1,62.9999982562067
367,178,11323,6,0,P|408:143|506:163,1,125.999996512413
445,218,11634,1,0,0:0:0:0:
284,144,11738,2,0,L|279:74,1,62.9999982562067
485,7,11946,2,0,P|491:57|476:92,1,62.9999982562067
405,217,12154,6,0,P|330:217|392:133,1,210.000000596047
296,299,12985,6,0,P|243:245|234:167,1,125.999996512413
277,129,13297,1,0,0:0:0:0:
403,159,13401,2,0,L|460:133,1,62.9999982562067
229,0,13609,2,0,P|215:48|220:78,1,62.9999982562067
501,299,13817,6,0,P|433:263|385:270,1,125.999996512413
316,312,14128,1,0,0:0:0:0:
180,251,14232,2,0,L|106:264,1,62.9999982562067
21,132,14440,2,0,P|24:82|45:53,1,62.9999982562067
259,19,14648,6,0,P|228:92|168:112,1,125.999996512413
173,29,14960,1,0,0:0:0:0:
338,61,15063,2,0,L|413:51,1,62.9999982562067
315,235,15271,2,0,P|267:224|251:176,1,62.9999982562067
381,131,15479,6,0,P|384:166|380:192,1,52.5000001490117
306,313,15687,2,0,P|303:278|307:252,1,52.5000001490117
468,185,15895,5,0,0:0:0:0:
451,233,15998,1,0,0:0:0:0:
409,263,16102,1,0,0:0:0:0:
357,263,16206,1,0,0:0:0:0:
295,214,16310,5,0,0:0:0:0:
253,190,16414,1,0,0:0:0:0:
198,195,16518,1,0,0:0:0:0:
148,234,16622,1,0,0:0:0:0:
78,249,16726,1,0,0:0:0:0:
10,207,16830,1,0,0:0:0:0:
1,120,16934,1,0,0:0:0:0:
47,37,17038,1,0,0:0:0:0:
148,22,17142,6,0,P|185:15|240:56,1,78.7500032275918
364,362,17350,2,0,P|327:369|272:328,1,78.7500032275918
175,101,17557,2,0,P|183:129|169:187,1,78.7500032275918
337,283,17765,2,0,P|329:255|343:197,1,78.7500032275918
259,337,17973,5,0,0:0:0:0:
226,302,18077,1,0,0:0:0:0:
216,247,18181,1,0,0:0:0:0:
230,185,18285,1,0,0:0:0:0:
280,135,18389,1,0,0:0:0:0:
358,133,18493,1,0,0:0:0:0:
423,189,18597,1,0,0:0:0:0:
425,282,18700,1,0,0:0:0:0:
352,354,18804,6,0,P|310:350|276:363,1,78.7500032275918
140,144,19012,2,0,P|182:148|216:135,1,78.7500032275918
430,42,19220,6,0,P|455:91|446:144,1,78.7500032275918
82,342,19428,2,0,P|57:293|66:240,1,78.7500032275918
241,151,19636,5,0,0:0:0:0:
259,194,19740,1,0,0:0:0:0:
304,225,19844,1,0,0:0:0:0:
366,232,19947,1,0,0:0:0:0:
428,198,20051,1,0,0:0:0:0:
460,126,20155,1,0,0:0:0:0:
435,42,20259,1,0,0:0:0:0:
343,17,20363,1,0,0:0:0:0:
244,45,20467,6,0,P|195:52|147:38,1,78.7500032275918
268,339,20675,2,0,P|317:332|365:346,1,78.7500032275918
352,92,20883,2,0,P|362:125|353:184,1,78.7500032275918
160,292,21090,2,0,P|150:259|159:200,1,78.7500032275918
376,198,21298,5,0,0:0:0:0:
334,174,21402,1,0,0:0:0:0:
279,181,21506,1,0,0:0:0:0:
226,215,21610,1,0,0:0:0:0:
156,230,21714,1,0,0:0:0:0:
78,216,21818,1,0,0:0:0:0:
28,144,21922,1,0,0:0:0:0:
44,50,22026,1,0,0:0:0:0:
141,19,22130,6,0,P|174:9|227:32,1,78.7500032275918
314,66,22337,2,0,P|350:78|388:68,1,78.7500032275918
336,305,22545,2,0,P|306:330|296:368,1,78.7500032275918
117,204,22753,2,0,P|110:166|82:139,1,78.7500032275918
404,96,22961,6,0,P|425:159|362:232,1,157.500006455184
280,185,23273,1,0,0:0:0:0:
116,237,23377,2,0,L|23:232,1,78.7500032275918
176,42,23584,2,0,P|189:103|178:142,1,78.7500032275918
168,307,23792,6,0,P|253:328|309:267,1,157.500006455184
280,185,24104,1,0,0:0:0:0:
393,85,24208,2,0,L|381:0,1,78.7500032275918
320,306,24416,2,0,P|359:316|399:307,1,78.7500032275918
266,75,24624,6,0,P|249:166|304:216,1,157.500006455184
389,197,24935,1,0,0:0:0:0:
487,341,25039,2,0,L|408:334,1,78.7500032275918
187,234,25247,2,0,P|143:278|154:353,1,78.7500032275918
255,330,25455,6,0,L|350:317,1,78.7500032275918
483,207,25663,2,0,L|388:220,1,78.7500032275918
205,174,25871,6,0,P|201:213|212:251,1,78.7500032275918
505,121,26078,2,0,P|507:81|493:45,1,78.7500032275918
338,96,26286,6,0,P|278:34|206:28,1,157.500006455184
142,105,26598,1,0,0:0:0:0:
142,269,26702,2,0,L|253:276,1,78.7500032275918
384,239,26910,2,0,P|320:212|263:228,1,78.7500032275918
422,321,27118,6,0,P|471:268|446:177,1,157.500006455184
367,140,27429,1,0,0:0:0:0:
224,197,27533,2,0,L|131:191,1,78.7500032275918
274,7,27741,2,0,P|297:50|286:111,1,78.7500032275918
50,239,27949,6,0,P|39:181|99:102,1,157.500006455184
145,191,28261,1,0,0:0:0:0:
155,350,28364,2,0,L|258:365,1,78.7500032275918
379,241,28572,2,0,P|389:196|374:147,1,78.7500032275918
129,28,28780,6,0,P|92:54|56:125,1,78.7500032275918
412,94,28988,2,0,P|388:63|357:40,1,78.7500032275918
48,155,29196,2,0,P|53:200|85:237,1,78.7500032275918
423,249,29404,2,0,P|439:191|432:145,1,78.7500032275918
341,190,29611,5,0,0:0:0:0:
255,14,29819,1,0,0:0:0:0:
254,64,29923,1,0,0:0:0:0:
253,114,30027,1,0,0:0:0:0:
424,155,30235,1,0,0:0:0:0:
339,60,30443,1,0,0:0:0:0:
202,215,30651,1,0,0:0:0:0:
21,113,30858,2,0,L|247:92,1,210.000000596047
346,260,31482,5,0,0:0:0:0:
304,253,31586,1,0,0:0:0:0:
262,246,31690,1,0,0:0:0:0:
409,190,31898,1,0,0:0:0:0:
446,351,32105,1,0,0:0:0:0:
316,283,32313,1,0,0:0:0:0:
211,346,32521,2,0,L|100:365,2,105.000000298023
149,214,33145,5,0,0:0:0:0:
217,314,33352,1,0,0:0:0:0:
262,150,33560,1,0,0:0:0:0:
501,271,33768,2,0,L|251:236,2,210.000000596047
421,148,34807,5,0,0:0:0:0:
406,357,35015,1,0,0:0:0:0:
471,244,35223,1,0,0:0:0:0:
292,275,35431,1,0,0:0:0:0:
236,160,35638,1,0,0:0:0:0:
197,325,35846,5,0,0:0:0:0:
400,176,36054,1,0,0:0:0:0:
170,74,36262,1,0,0:0:0:0:
256,192,36366,12,0,39587,0:0:0:0:
