osu file format v14

[General]
AudioFilename: audio.mp3
AudioLeadIn: 0
PreviewTime: -1
Countdown: 1
SampleSet: None
StackLeniency: 0.7
Mode: 0
LetterboxInBreaks: 0
WidescreenStoryboard: 1

[Editor]
DistanceSpacing: 1
BeatDivisor: 4
GridSize: 8
TimelineZoom: 1.5

[Metadata]
Title:Gravity Falls Theme Song
TitleUnicode:Gravity Falls Theme Song
Artist:Brad Breeck
ArtistUnicode:Brad Breeck
Creator:zPeanut
Version:Normal
Source:
Tags:
BeatmapID:1683861
BeatmapSetID:797193

[Difficulty]
HPDrainRate:2
CircleSize:3
OverallDifficulty:4
ApproachRate:5
SliderMultiplier:0.9
SliderTickRate:1

[Events]
//Background and Video events
0,0,"7535.jpg",0,0
//Break Periods
//Storyboard Layer 0 (Background)
//Storyboard Layer 1 (Fail)
//Storyboard Layer 2 (Pass)
//Storyboard Layer 3 (Foreground)
//Storyboard Sound Samples

[TimingPoints]
70,361.881785283474,4,2,0,40,1,0
29020,-100,4,2,0,40,0,1
29132,-100,4,1,0,60,0,1
34720,-100,4,1,0,80,0,1
35082,-100,4,1,0,85,0,1
35443,-100,4,1,0,90,0,1
35805,-100,4,1,0,100,0,1
36167,-100,4,2,0,30,0,1
37615,-100,4,2,0,15,0,1
38067,-66.6666666666667,4,2,0,15,0,0
38341,-66.6666666666667,4,3,0,20,0,0

[Colours]
Combo1 : 187,187,119
Combo2 : 255,160,66
Combo3 : 112,182,99
Combo4 : 162,74,20
Combo5 : 121,121,0
Combo6 : 172,172,172
Combo7 : 255,176,138

[HitObjects]
96,64,70,6,0,P|160:80|264:144,1,180,0|0,0:0|0:0,0:0:0:0:
304,216,1155,1,8,0:0:0:0:
248,288,1517,2,0,P|216:272|104:160,1,180,0|0,0:0|0:0,0:0:0:0:
152,88,2603,1,8,0:0:0:0:
240,64,2965,6,0,P|312:88|272:176,1,180,0|0,0:0|0:0,0:0:0:0:
216,224,4050,1,8,0:0:0:0:
128,256,4412,2,0,P|120:200|136:152,1,90,0|8,0:0|0:0,0:0:0:0:
168,88,5136,2,0,P|216:64|264:72,1,90,0|8,0:0|0:0,0:0:0:0:
328,120,5860,6,0,L|240:296,2,180,0|0|0,0:0|0:0|0:0,0:0:0:0:
368,40,7669,1,8,0:0:0:0:
424,112,8031,1,0,0:0:0:0:
400,200,8393,1,8,0:0:0:0:
312,232,8755,6,0,P|288:176|168:144,1,180,0|0,0:0|0:0,0:0:0:0:
96,160,9840,2,0,L|128:264,1,90,8|0,0:0|0:0,0:0:0:0:
176,320,10564,1,8,0:0:0:0:
264,304,10926,1,0,0:0:0:0:
320,232,11288,1,8,0:0:0:0:
312,144,11650,6,0,P|224:136|192:48,1,180,4|0,0:0|0:0,0:0:0:0:
280,56,12735,1,8,0:0:0:0:
384,80,13097,2,0,P|403:109|346:224,1,180,0|0,0:0|0:0,0:0:0:0:
264,264,14183,1,8,0:0:0:0:
176,288,14545,5,4,0:0:0:0:
96,256,14907,1,8,0:0:0:0:
168,200,15269,1,4,0:0:0:0:
88,168,15630,1,8,0:0:0:0:
168,120,15992,6,0,P|280:104|416:192,1,270,4|8,0:0|0:0,0:0:0:0:
352,248,17440,1,4,0:0:0:0:
280,296,17802,6,2,L|208:240,1,90,8|0,0:0|0:0,0:0:0:0:
136,184,18525,1,8,0:0:0:0:
200,120,18887,2,0,L|272:176,1,90,0|8,0:0|0:0,0:0:0:0:
344,232,19611,2,0,L|416:288,1,90,0|8,0:0|0:0,0:0:0:0:
440,200,20335,1,4,0:2:0:0:
424,112,20697,6,0,P|344:104|328:120,2,90,8|0|8,0:0|0:0|0:0,0:0:0:0:
344,112,21782,1,0,0:0:0:0:
264,152,22144,1,8,0:0:0:0:
192,104,22506,1,0,0:0:0:0:
120,152,22868,1,8,0:0:0:0:
120,240,23230,5,4,0:0:0:0:
192,296,23592,2,0,P|256:288|288:264,4,90,8|0|8|0|8,0:0|0:0|0:0|0:0|0:0,0:0:0:0:
144,224,25401,1,0,0:0:0:0:
160,136,25763,1,8,0:0:0:0:
232,80,26125,5,4,0:2:0:0:
277,159,26487,2,0,P|301:223|293:263,2,90,8|0|8,0:0|0:0|0:0,0:0:0:0:
220,83,27573,1,4,0:0:0:0:
301,71,27934,2,0,P|333:87|365:143,2,90,8|0|8,0:0|0:0|0:0,0:0:0:0:
209,38,29020,1,4,0:0:0:0:
122,83,29382,5,0,0:0:0:0:
65,150,29743,1,0,0:0:0:0:
59,239,30105,1,0,0:0:0:0:
103,315,30467,1,0,0:0:0:0:
184,352,30829,1,0,0:0:0:0:
271,336,31191,1,0,0:0:0:0:
334,273,31553,1,0,0:0:0:0:
376,192,31915,5,4,3:1:0:0:
376,104,32277,2,0,P|333:110|281:149,2,90,8|0|8,3:1|3:1|3:1,0:0:0:0:
480,80,33363,6,0,P|472:144|416:256,1,180,0|0,3:1|3:1,0:0:0:0:
336,280,34448,1,8,3:1:0:0:
252,235,34810,5,0,0:0:0:0:
213,156,35171,1,0,0:0:0:0:
247,75,35533,1,0,0:0:0:0:
329,46,35895,1,0,0:0:0:0:
421,88,36258,6,0,P|397:176|165:288,1,360,0|4,0:0|0:0,0:0:0:0:
112,184,38429,2,0,P|104:152|232:184,1,270.000010299683,0|4,0:1|0:1,0:0:0:0:
