osu file format v14

[General]
AudioFilename: audio.mp3
AudioLeadIn: 0
PreviewTime: -1
Countdown: 1
SampleSet: None
StackLeniency: 0.7
Mode: 0
LetterboxInBreaks: 0
WidescreenStoryboard: 1

[Editor]
DistanceSpacing: 1
BeatDivisor: 4
GridSize: 8
TimelineZoom: 1.5

[Metadata]
Title:Gravity Falls Theme Song
TitleUnicode:Gravity Falls Theme Song
Artist:Brad Breeck
ArtistUnicode:Brad Breeck
Creator:zPeanut
Version:Hard
Source:
Tags:
BeatmapID:1677831
BeatmapSetID:797193

[Difficulty]
HPDrainRate:4.5
CircleSize:3.5
OverallDifficulty:6
ApproachRate:8
SliderMultiplier:1.4
SliderTickRate:1

[Events]
//Background and Video events
0,0,"7535.jpg",0,0
//Break Periods
//Storyboard Layer 0 (Background)
//Storyboard Layer 1 (Fail)
//Storyboard Layer 2 (Pass)
//Storyboard Layer 3 (Foreground)
//Storyboard Sound Samples

[TimingPoints]
70,361.881785283474,4,2,0,70,1,0
29132,-100,4,1,0,60,0,0
34720,-100,4,1,0,80,0,0
35082,-100,4,1,0,85,0,0
35443,-100,4,1,0,90,0,0
35805,-100,4,1,0,100,0,0
36167,-100,4,2,0,30,0,0
37615,-100,4,2,0,15,0,0
38067,-66.6666666666667,4,2,0,15,0,0
38341,-66.6666666666667,4,3,0,20,0,0

[Colours]
Combo1 : 187,187,119
Combo2 : 255,160,66
Combo3 : 112,182,99
Combo4 : 135,74,20
Combo5 : 121,121,0
Combo6 : 172,172,172
Combo7 : 255,176,138

[HitObjects]
90,59,70,6,0,P|96:107|109:148,1,70,0|0,0:0|0:0,0:0:0:0:
149,275,431,2,0,P|164:229|160:206,1,70,8|0,0:0|0:0,0:0:0:0:
212,51,793,2,0,P|218:99|231:140,1,70,0|0,0:0|0:0,0:0:0:0:
271,267,1154,2,0,P|286:221|282:198,1,70,8|0,0:0|0:0,0:0:0:0:
468,25,1517,6,0,P|475:71|465:123,1,70,0|0,0:0|0:0,0:0:0:0:
443,181,1879,1,8,0:0:0:0:
395,258,2060,1,0,0:0:0:0:
347,181,2241,1,0,0:0:0:0:
299,101,2422,1,0,0:0:0:0:
251,181,2603,1,8,0:0:0:0:
203,261,2784,1,0,0:0:0:0:
133,326,2965,6,0,P|102:275|90:241,1,70,0|0,0:0|0:0,0:0:0:0:
77,177,3326,1,8,0:0:0:0:
128,94,3507,1,0,0:0:0:0:
216,37,3688,2,0,P|230:85|266:122,1,70,0|0,0:0|0:0,0:0:0:0:
297,172,4050,1,8,0:0:0:0:
386,217,4231,1,0,0:0:0:0:
416,305,4412,6,0,P|381:318|344:355,3,70,0|0|8|0,0:0|0:0|0:0|0:0,0:0:0:0:
256,334,5136,2,0,P|239:294|196:258,1,70,0|0,0:0|0:0,0:0:0:0:
137,228,5498,2,0,L|158:202,5,17.5,8|0|0|0|0|0,0:0|0:0|0:0|0:0|0:0|0:0,0:0:0:0:
169,196,5769,6,0,P|225:158|350:149,1,175,0|8,0:0|0:0,0:0:0:0:
329,144,6402,1,0,0:0:0:0:
396,187,6583,1,0,0:0:0:0:
445,251,6764,1,0,0:0:0:0:
470,325,6945,1,8,0:0:0:0:
88,217,7307,5,0,0:0:0:0:
199,58,7669,1,8,0:0:0:0:
267,142,7850,1,0,0:0:0:0:
317,58,8031,1,0,0:0:0:0:
373,147,8212,1,0,0:0:0:0:
424,59,8393,1,8,0:0:0:0:
482,153,8574,1,0,0:0:0:0:
270,66,8755,6,0,P|258:120|283:213,1,140,0|8,0:0|0:0,0:0:0:0:
355,158,9297,2,0,P|352:226|309:280,1,140,0|0,0:0|0:0,0:0:0:0:
400,300,9840,2,0,P|353:351|286:364,1,140,8|0,0:0|0:0,0:0:0:0:
96,320,10383,1,0,0:0:0:0:
96,160,10564,1,8,0:0:0:0:
224,256,10745,1,0,0:0:0:0:
223,92,10926,1,0,0:0:0:0:
403,190,11288,1,8,0:0:0:0:
461,55,11650,6,0,P|399:47|320:84,1,140,4|8,0:0|0:0,0:0:0:0:
423,184,12193,1,0,0:0:0:0:
330,288,12373,2,0,P|379:336|446:353,1,140,0|8,0:0|0:0,0:0:0:0:
423,184,12916,1,0,0:0:0:0:
328,76,13097,5,0,0:0:0:0:
330,288,13278,1,0,0:0:0:0:
215,116,13459,2,0,P|184:172|203:265,1,140,8|0,0:0|0:0,0:0:0:0:
330,288,14183,1,8,0:0:0:0:
368,108,14545,6,0,P|334:115|307:137,3,70,4|0|8|0,0:0|0:0|0:0|0:0,0:0:0:0:
205,137,15269,2,0,P|177:115|143:108,3,70,4|0|8|0,0:0|0:0|0:0|0:0,0:0:0:0:
256,224,15992,2,0,L|255:301,3,70,4|0|8|0,0:0|0:0|0:0|0:0,0:0:0:0:
256,160,16716,1,4,0:0:0:0:
256,128,16897,1,0,0:0:0:0:
256,96,17078,1,8,0:0:0:0:
256,64,17259,1,0,0:0:0:0:
256,288,17440,5,4,0:0:0:0:
379,284,17802,2,0,P|363:242|343:206,1,70,8|0,0:0|0:0,0:0:0:0:
132,284,18164,2,0,P|144:251|160:219,1,70,0|0,0:0|0:0,0:0:0:0:
161,121,18525,2,0,P|145:90|134:57,1,70
353,121,18887,2,0,P|368:90|380:57,1,70,8|0,0:0|0:0,0:0:0:0:
280,208,19249,6,0,P|248:240|240:296,2,70
352,176,19792,1,0,0:0:0:0:
416,128,19973,1,0,0:0:0:0:
440,56,20154,1,0,0:0:0:0:
248,104,20335,5,4,0:0:0:0:
291,336,20697,2,0,P|363:320|419:272,2,140,8|0|8,0:0|0:0|0:0,0:0:0:0:
208,336,21782,5,0,0:0:0:0:
138,329,21962,1,0,0:0:0:0:
80,291,22143,1,0,0:0:0:0:
47,231,22324,1,0,0:0:0:0:
46,161,22505,1,0,0:0:0:0:
77,99,22686,1,0,0:0:0:0:
133,59,22867,1,0,0:0:0:0:
202,50,23048,1,0,0:0:0:0:
256,192,23230,5,4,0:0:0:0:
385,217,23592,2,0,P|400:176|314:117,2,140,8|0|8,0:0|0:0|0:0,0:0:0:0:
332,287,24677,2,0,P|291:311|190:308,1,140,0|8,0:0|0:0,0:0:0:0:
126,270,25220,1,0,0:0:0:0:
72,197,25400,1,0,0:0:0:0:
73,107,25581,1,0,0:0:0:0:
128,36,25762,1,0,0:0:0:0:
359,238,26125,5,4,0:2:0:0:
426,148,26487,2,0,P|430:99|357:111,2,140,8|0|8,0:0|0:0|0:0,0:0:0:0:
359,238,27573,1,4,0:0:0:0:
307,331,27934,2,0,P|248:349|239:288,2,140,8|0|8,0:0|0:0|0:0,0:0:0:0:
359,238,29020,1,4,0:0:0:0:
104,88,29382,6,0,P|119:123|166:137,1,70,8|0,3:1|3:1,0:0:0:0:
218,97,29744,2,0,P|237:59|273:56,1,70,0|0,3:1|3:1,0:0:0:0:
331,80,30106,2,0,P|319:111|287:123,1,70,8|0,3:1|3:1,0:0:0:0:
219,180,30468,2,0,L|273:224,1,70,0|0,3:1|3:1,0:0:0:0:
365,246,30829,2,0,L|365:170,1,70,8|0,3:1|3:1,0:0:0:0:
368,96,31191,1,0,3:1:0:0:
368,96,31372,1,0,3:1:0:0:
261,171,31553,1,8,3:1:0:0:
191,33,31734,1,0,3:1:0:0:
144,216,31915,5,4,3:1:0:0:
461,89,32277,2,0,P|462:136|387:185,2,140
280,190,33363,5,0,0:0:0:0:
346,210,33543,1,0,0:0:0:0:
402,252,33724,1,0,0:0:0:0:
445,307,33905,1,0,0:0:0:0:
317,301,34086,5,0,0:0:0:0:
250,280,34266,1,0,0:0:0:0:
194,238,34447,1,0,0:0:0:0:
151,183,34628,1,0,0:0:0:0:
187,98,34810,5,0,0:0:0:0:
249,49,34990,1,0,0:0:0:0:
261,124,35171,1,0,0:0:0:0:
318,72,35352,1,0,0:0:0:0:
417,92,35534,5,0,0:0:0:0:
359,205,35714,1,0,0:0:0:0:
256,279,35895,1,0,0:0:0:0:
135,319,36076,1,0,0:0:0:0:
256,192,36258,12,4,37705,0:0:0:0:
360,32,38429,6,0,B|286:63|302:100|302:100|317:136|274:148|274:148|230:160|242:204|242:204|253:247|214:252|214:252|174:257|182:308|182:308|186:347,1,420.000016021729,0|4,0:1|0:1,0:0:0:0:
