osu file format v14

[General]
AudioFilename: audio.mp3
AudioLeadIn: 0
PreviewTime: 17870
Countdown: 1
SampleSet: None
StackLeniency: 0.7
Mode: 0
LetterboxInBreaks: 0
WidescreenStoryboard: 1

[Editor]
Bookmarks: 5559,5921,7366,8812,26162,29776,39174
DistanceSpacing: 1
BeatDivisor: 4
GridSize: 8
TimelineZoom: 1.4

[Metadata]
Title:Gravity Falls Theme Song
TitleUnicode:Gravity Falls Theme Song
Artist:Brad Breeck
ArtistUnicode:Brad Breeck
Creator:someguy33
Version:Normal
Source:Gravity Falls
Tags:
BeatmapID:1597717
BeatmapSetID:759624

[Difficulty]
HPDrainRate:3
CircleSize:3
OverallDifficulty:4
ApproachRate:3
SliderMultiplier:1.2
SliderTickRate:1

[Events]
//Background and Video events
0,0,"7532.jpg",0,0
//Break Periods
//Storyboard Layer 0 (Background)
//Storyboard Layer 1 (Fail)
//Storyboard Layer 2 (Pass)
//Storyboard Layer 3 (Foreground)
//Storyboard Sound Samples

[TimingPoints]
138,361.881785283474,4,1,0,100,1,0
39174,-100,4,1,0,33,0,0

[HitObjects]
60,153,138,6,0,P|108:138|180:158,1,120
240,253,680,1,0,0:0:0:0:
240,253,861,2,0,P|297:267|354:251,1,120
449,178,1585,6,0,L|454:57,1,120
342,102,2128,1,0,0:0:0:0:
342,102,2309,2,0,P|283:91|223:97,1,120
171,206,3033,6,0,P|162:271|175:325,1,120
223,357,3575,1,0,0:0:0:0:
223,357,3756,2,0,P|281:367|341:361,1,120
400,255,4480,2,0,L|486:247,2,60
291,202,5023,5,0,0:0:0:0:
291,202,5204,2,0,L|220:201,1,60
199,252,5566,2,0,L|128:251,1,60
118,307,5928,6,0,P|105:248|120:191,1,120
221,126,6651,2,0,P|232:67|213:11,1,120
104,63,7375,2,0,B|244:39|191:103|349:63,1,240
457,36,8462,1,0,0:0:0:0:
457,36,8642,1,0,0:0:0:0:
457,36,8823,6,0,L|442:183,1,120
422,211,9365,1,0,0:0:0:0:
422,211,9546,2,0,P|351:221|292:191,1,120
372,101,10270,6,0,P|291:18|172:67,1,240
268,136,11355,1,0,0:0:0:0:
157,183,11718,2,0,P|133:239|138:322,1,120
246,261,12441,2,0,P|302:285|385:280,1,120
468,238,13165,2,0,P|466:297|442:352,2,120
353,274,14251,1,0,0:0:0:0:
250,336,14613,2,0,P|237:276|254:208,1,120
367,238,15337,2,0,P|379:179|366:121,1,120
272,46,16060,6,0,L|139:53,2,120
325,75,16966,1,0,0:0:0:0:
325,75,17146,1,0,0:0:0:0:
378,182,17508,1,0,0:0:0:0:
484,127,17870,6,0,P|490:67|474:10,1,120
382,87,18593,1,0,0:0:0:0:
277,27,18955,2,0,P|210:11|155:24,1,120
228,120,19679,2,0,L|225:242,1,120
276,348,20403,1,0,0:0:0:0:
353,256,20765,6,0,P|408:244|469:256,2,120
251,319,21850,2,0,L|124:315,1,120
72,210,22574,2,0,L|191:213,1,120
299,267,23298,1,0,0:0:0:0:
376,358,23660,6,0,P|419:372|505:366,2,120
338,244,24745,2,0,P|346:184|342:125,1,120
240,59,25469,2,0,L|102:52,1,120
145,170,26193,1,0,0:0:0:0:
145,170,26374,1,0,0:0:0:0:
145,170,26555,6,0,L|280:164,1,120
384,148,27279,1,0,0:0:0:0:
484,82,27641,1,0,0:0:0:0:
484,82,27821,1,0,0:0:0:0:
484,82,28002,6,0,P|491:148|474:222,1,120
386,273,28726,1,0,0:0:0:0:
292,197,29088,1,0,0:0:0:0:
292,197,29269,1,0,0:0:0:0:
292,197,29450,6,0,P|235:178|176:186,1,120
105,285,30174,1,0,0:0:0:0:
206,348,30536,2,0,L|335:336,2,120
123,260,31621,1,0,0:0:0:0:
188,159,31983,6,0,P|242:150|315:173,1,120
399,240,32708,1,0,0:0:0:0:
466,141,33069,1,0,0:0:0:0:
256,192,33431,12,0,36326,0:0:0:0:
256,192,38497,5,0,0:0:0:0:
