osu file format v14

[General]
AudioFilename: audio.mp3
AudioLeadIn: 0
PreviewTime: 17870
Countdown: 1
SampleSet: None
StackLeniency: 0.7
Mode: 0
LetterboxInBreaks: 0
WidescreenStoryboard: 1

[Editor]
Bookmarks: 5559,5921,7366,8812,26162,29776,39174
DistanceSpacing: 1.3
BeatDivisor: 4
GridSize: 8
TimelineZoom: 1.4

[Metadata]
Title:Gravity Falls Theme Song
TitleUnicode:Gravity Falls Theme Song
Artist:Brad Breeck
ArtistUnicode:Brad Breeck
Creator:someguy33
Version:Hard
Source:Gravity Falls
Tags:
BeatmapID:1597714
BeatmapSetID:759624

[Difficulty]
HPDrainRate:4.5
CircleSize:3.5
OverallDifficulty:7
ApproachRate:7
SliderMultiplier:1.3
SliderTickRate:1

[Events]
//Background and Video events
0,0,"7532.jpg",0,0
//Break Periods
//Storyboard Layer 0 (Background)
//Storyboard Layer 1 (Fail)
//Storyboard Layer 2 (Pass)
//Storyboard Layer 3 (Foreground)
//Storyboard Sound Samples

[TimingPoints]
138,361.881785283474,4,1,0,100,1,0

[HitObjects]
185,100,138,6,0,L|101:93,2,65
255,164,680,1,0,0:0:0:0:
316,224,861,2,0,L|400:231,2,65
255,164,1404,1,0,0:0:0:0:
192,240,1585,6,0,P|157:242|113:231,2,65
255,164,2128,1,0,0:0:0:0:
316,100,2309,2,0,P|351:98|395:109,2,65
255,164,2852,1,0,0:0:0:0:
180,64,3033,6,0,L|104:58,1,65
62,164,3394,2,0,L|138:158,1,65
201,252,3756,2,0,L|125:246,1,65
62,338,4118,2,0,L|138:332,1,65
204,367,4480,5,0,0:0:0:0:
255,300,4661,1,0,0:0:0:0:
203,233,4842,1,0,0:0:0:0:
265,175,5023,1,0,0:0:0:0:
209,111,5204,2,0,L|134:107,1,65
48,243,5566,2,0,L|56:195,3,32.5
76,175,5928,6,0,P|139:171|194:205,1,130
117,253,6470,1,0,0:0:0:0:
188,310,6651,2,0,L|280:314,1,65
326,233,7013,2,0,L|234:229,1,65
219,139,7375,6,0,P|164:105|100:108,1,130
136,188,7918,1,0,0:0:0:0:
167,262,8099,2,0,L|248:259,1,65
306,307,8461,2,0,L|387:304,1,65
419,373,8823,6,0,P|449:320|432:236,1,130
331,202,9365,2,0,L|252:198,2,65
395,136,9908,2,0,L|474:140,1,65
335,54,10270,6,0,L|180:44,1,130
164,115,10813,1,0,0:0:0:0:
209,186,10994,2,0,P|199:229|202:266,1,65
276,316,11356,2,0,P|285:272|282:235,1,65
339,194,11718,6,0,P|393:227|456:222,1,130
409,148,12261,1,0,0:0:0:0:
325,62,12441,2,0,L|250:55,1,65
167,154,12803,2,0,L|241:147,1,65
93,93,13165,2,0,P|81:158|110:243,1,130
177,290,13708,1,0,0:0:0:0:
240,223,13889,2,0,P|302:207|366:219,1,130
457,299,14432,1,0,0:0:0:0:
457,299,14522,1,0,0:0:0:0:
457,299,14613,6,0,L|463:223,1,65
408,154,14975,2,0,L|402:89,1,65
315,160,15337,2,0,L|328:313,1,130
274,362,15879,1,0,0:0:0:0:
200,316,16060,6,0,P|196:271|206:233,1,65,0|0,0:0|3:0,3:0:0:0:
247,161,16422,2,0,P|251:128|247:96,1,65,0|0,0:0|3:0,3:0:0:0:
170,123,16784,2,0,L|40:128,1,130
0,203,17327,1,0,0:0:0:0:
112,255,17508,1,0,0:0:0:0:
216,205,17870,6,0,P|226:236|222:294,1,65
325,317,18232,2,0,P|314:285|318:227,1,65
384,176,18593,2,0,P|394:207|390:265,1,65
285,121,18955,2,0,L|140:132,2,130
372,174,20041,1,0,0:0:0:0:
344,253,20222,5,0,0:0:0:0:
272,207,20403,1,0,0:0:0:0:
209,264,20584,1,0,0:0:0:0:
124,224,20765,6,0,L|59:219,1,65
186,159,21127,2,0,L|250:154,1,65
376,223,21489,2,0,L|311:218,1,65
250,153,21850,6,0,P|236:193|254:281,2,130
348,94,22936,1,0,0:0:0:0:
390,167,23117,5,0,0:0:0:0:
344,238,23298,1,0,0:0:0:0:
259,240,23479,1,0,0:0:0:0:
185,195,23660,6,0,L|178:115,1,65,0|0,3:0|3:0,3:0:0:0:
277,47,24022,2,0,L|277:112,1,65,0|0,3:0|3:0,3:0:0:0:
369,195,24384,2,0,L|375:120,1,65,0|0,3:0|3:0,3:0:0:0:
280,186,24745,2,0,L|269:322,2,130,0|0|0,3:0|3:0|3:0,0:0:0:0:
329,112,25831,1,0,0:0:0:0:
373,273,26193,5,0,0:0:0:0:
302,194,26374,1,0,0:0:0:0:
218,216,26555,2,0,P|218:183|228:152,1,65
152,67,26917,2,0,P|141:97|141:130,1,65
51,219,27279,2,0,P|51:186|61:155,1,65
148,83,27641,5,0,0:0:0:0:
221,202,27821,1,0,0:0:0:0:
296,95,28002,6,0,B|332:128|332:128|306:131,1,65
341,205,28364,2,0,B|325:206|325:206|362:239,1,65
329,341,28726,2,0,B|344:339|344:339|307:306,1,65
201,352,29088,5,0,0:0:0:0:
156,247,29269,1,0,0:0:0:0:
80,132,29450,6,0,P|75:163|84:194,1,65
156,163,29812,2,0,P|187:167|218:158,1,65
287,202,30174,2,0,P|282:233|291:264,1,65
369,342,30536,5,0,0:0:0:0:
415,271,30717,1,0,0:0:0:0:
358,208,30897,1,0,0:0:0:0:
416,147,31078,1,0,0:0:0:0:
358,85,31259,2,0,L|279:86,1,65
222,151,31621,2,0,L|143:152,1,65
79,83,31983,5,0,0:0:0:0:
43,208,32164,1,0,0:0:0:0:
134,285,32345,6,0,P|138:243|120:198,1,65
214,157,32707,2,0,P|209:198|227:243,1,65
293,309,33069,2,0,P|297:267|279:222,1,65
342,167,33431,6,0,L|407:161,1,65,0|0,3:0|3:0,3:0:0:0:
280,106,33793,2,0,L|215:100,1,65
109,177,34154,2,0,L|174:171,1,65,0|0,3:0|3:0,3:0:0:0:
65,100,34516,2,0,L|0:94,1,65
40,226,34878,6,0,B|49:244|49:244|30:284,1,65
121,197,35240,2,0,B|111:178|111:178|130:138,1,65
217,92,35602,2,0,P|259:83|386:240,1,260
229,292,38497,5,0,0:0:0:0:
