osu file format v14

[General]
AudioFilename: audio.mp3
AudioLeadIn: 0
PreviewTime: -1
Countdown: 1
SampleSet: Soft
StackLeniency: 0.7
Mode: 0
LetterboxInBreaks: 0
WidescreenStoryboard: 1

[Editor]
DistanceSpacing: 0.8
BeatDivisor: 4
GridSize: 4
TimelineZoom: 1

[Metadata]
Title:Gravity Falls Theme Song
TitleUnicode:Gravity Falls Theme Song
Artist:Brad Breeck
ArtistUnicode:Brad Breeck
Creator:Yeecat
Version:Remade Mystery
Source:Gravity Falls
Tags:gravity falls alphabet osu tv show film kids
BeatmapID:2028210
BeatmapSetID:968562

[Difficulty]
HPDrainRate:6.2
CircleSize:4.9
OverallDifficulty:9.3
ApproachRate:9
SliderMultiplier:1.8
SliderTickRate:1

[Events]
//Background and Video events
0,0,"luminaty.jpg",0,0
//Break Periods
//Storyboard Layer 0 (Background)
//Storyboard Layer 1 (Fail)
//Storyboard Layer 2 (Pass)
//Storyboard Layer 3 (Foreground)
//Storyboard Sound Samples

[TimingPoints]
70,361.44578313253,4,2,0,100,1,0
70,-125,4,2,1,40,0,0
1515,-125,4,2,1,40,0,0
4412,-125,4,2,1,45,0,0
5136,-111.111111111111,4,2,1,50,0,0
5498,-111.111111111111,4,2,1,40,0,0
5860,-100,4,2,1,55,0,0
17440,-83.3333333333333,4,2,1,70,0,1
29020,-83.3333333333333,4,2,1,65,0,0
34810,-76.9230769230769,4,2,1,70,0,0
36214,-181.818181818182,4,2,1,35,0,0
38292,-250,4,2,1,35,0,0
39153,-250,4,2,1,10,0,0

[HitObjects]
193,229,70,6,0,P|132:235|92:227,2,72,2|0|0,0:0|0:0|0:0,0:0:0:0:
260,120,612,1,8,0:0:0:0:
340,219,793,2,0,P|388:235|428:227,2,72,10|0|8,0:0|0:0|0:0,0:0:0:0:
332,118,1336,1,0,0:0:0:0:
260,267,1517,6,0,L|260:339,2,72,10|0|0,0:0|0:0|0:0,0:0:0:0:
168,106,2060,1,8,0:0:0:0:
260,75,2241,2,0,L|260:3,2,72,10|0|8,0:0|0:0|0:0,0:0:0:0:
357,152,2784,1,0,0:0:0:0:
180,115,2965,6,0,L|148:51,1,72,10|0,0:0|0:0,0:0:0:0:
260,3,3326,2,0,L|260:75,1,72,0|8,0:0|0:0,0:0:0:0:
344,112,3688,2,0,L|376:48,1,72,10|0,0:0|0:0,0:0:0:0:
387,23,4050,1,8,0:0:0:0:
420,203,4231,1,0,0:0:0:0:
496,68,4412,5,8,0:0:0:0:
504,230,4593,1,8,0:0:0:0:
438,284,4774,1,8,0:0:0:0:
377,146,4955,1,8,0:0:0:0:
270,145,5136,5,8,0:0:0:0:
329,310,5317,1,8,0:0:0:0:
217,227,5498,1,8,0:0:0:0:
217,227,5588,1,8,0:0:0:0:
217,227,5679,1,8,0:0:0:0:
217,227,5769,1,8,0:0:0:0:
217,227,5860,6,0,P|137:203|33:243,1,180,4|2,0:0|0:0,0:0:0:0:
129,277,6402,1,0,0:0:0:0:
47,231,6583,2,0,L|31:335,1,90,8|0,0:0|0:0,0:0:0:0:
91,82,6945,1,2,0:0:0:0:
217,264,7126,1,0,0:0:0:0:
296,179,7307,6,0,P|312:111|220:41,1,180,8|2,0:0|0:0,0:0:0:0:
129,165,7850,1,0,0:0:0:0:
260,251,8031,2,0,P|356:235|372:215,1,90,8|0,0:0|0:0,0:0:0:0:
393,12,8393,1,2,0:0:0:0:
188,101,8574,1,0,0:0:0:0:
206,102,8664,1,0,0:0:0:0:
199,114,8755,6,0,B|159:190|159:190|155:306,1,180,8|2,0:0|0:0,0:0:0:0:
37,187,9297,2,0,L|33:283,1,90,0|8,0:0|0:0,0:0:0:0:
144,144,9659,1,0,0:0:0:0:
144,144,9840,2,0,L|136:248,1,90,2|0,0:0|0:0,0:0:0:0:
45,311,10202,6,0,L|24:218,1,90,8|0,0:0|0:0,0:0:0:0:
391,51,10564,1,2,0:0:0:0:
321,164,10745,1,0,0:0:0:0:
512,323,10926,1,8,0:0:0:0:
508,204,11107,1,8,0:0:0:0:
384,284,11288,2,0,P|336:292|288:276,1,90,2|0,0:0|0:0,0:0:0:0:
217,74,11650,6,0,P|237:146|145:210,1,180,8|2,0:0|0:0,0:0:0:0:
118,104,12193,1,0,0:0:0:0:
216,310,12373,1,8,0:0:0:0:
167,211,12554,1,0,0:0:0:0:
345,188,12735,2,0,L|381:284,1,90,2|0,0:0|0:0,0:0:0:0:
48,114,13097,6,0,P|96:78|220:134,1,180,8|2,0:0|0:0,0:0:0:0:
273,257,13640,1,0,0:0:0:0:
49,167,13821,6,0,P|97:131|217:187,1,180,8|2,0:0|0:0,0:0:0:0:
235,88,14364,1,8,0:0:0:0:
248,104,14454,1,8,0:0:0:0:
243,97,14545,6,0,P|259:49|297:63,1,90,8|0,0:0|0:0,0:0:0:0:
182,208,14907,2,0,P|174:251|187:296,1,90,2|0,0:0|0:0,0:0:0:0:
459,151,15269,1,8,0:0:0:0:
244,120,15449,1,0,0:0:0:0:
332,325,15630,1,2,0:0:0:0:
380,61,15811,1,0,0:0:0:0:
224,288,15992,5,8,0:0:0:0:
458,286,16173,1,0,0:0:0:0:
161,66,16354,1,2,0:0:0:0:
345,343,16535,1,0,0:0:0:0:
387,116,16716,5,8,0:0:0:0:
170,291,16897,1,0,0:0:0:0:
20,95,17078,1,10,0:0:0:0:
233,187,17259,1,8,0:0:0:0:
206,190,17349,1,8,0:0:0:0:
220,187,17440,6,0,L|236:75,1,107.999996704102,12|0,0:0|0:0,0:0:0:0:
100,203,17802,2,0,L|116:309,1,107.999996704102,2|0,0:0|0:0,0:0:0:0:
308,187,18164,2,0,P|324:139|308:59,1,107.999996704102,10|0,0:0|0:0,0:0:0:0:
36,147,18525,2,0,P|20:195|46:274,1,107.999996704102,2|0,0:0|0:0,0:0:0:0:
39,201,18887,5,8,0:0:0:0:
167,153,19068,1,0,0:0:0:0:
120,268,19249,2,0,L|107:375,1,107.999996704102,2|0,0:0|0:0,0:0:0:0:
172,75,19611,2,0,L|185:182,1,107.999996704102,8|0,0:0|0:0,0:0:0:0:
136,315,19973,1,2,0:0:0:0:
264,123,20154,1,8,0:0:0:0:
270,138,20244,1,8,0:0:0:0:
268,131,20335,6,0,B|324:115|324:115|380:131,1,107.999996704102,8|0,0:0|0:0,0:0:0:0:
332,291,20697,2,0,P|308:227|332:179,1,107.999996704102,2|0,0:0|0:0,0:0:0:0:
460,175,21059,2,0,P|417:227|364:231,1,107.999996704102,10|0,0:0|0:0,0:0:0:0:
296,123,21421,2,0,P|364:134|393:179,1,107.999996704102,2|0,0:0|0:0,0:0:0:0:
339,280,21782,5,8,0:0:0:0:
158,111,21963,1,0,0:0:0:0:
306,225,22144,2,0,P|296:299|260:327,1,107.999996704102,2|0,0:0|0:0,0:0:0:0:
124,221,22506,2,0,L|108:115,1,107.999996704102,8|0,0:0|0:0,0:0:0:0:
292,35,22868,2,0,L|276:147,1,107.999996704102,2|8,0:0|0:0,0:0:0:0:
305,261,23139,1,8,0:0:0:0:
299,277,23230,6,0,P|355:293|427:253,1,107.999996704102,8|0,0:0|0:0,0:0:0:0:
401,227,23592,2,0,L|409:347,1,107.999996704102,2|0,0:0|0:0,0:0:0:0:
354,148,23954,2,0,L|346:28,1,107.999996704102,10|0,0:0|0:0,0:0:0:0:
319,224,24316,2,0,L|327:344,1,107.999996704102,2|0,0:0|0:0,0:0:0:0:
75,305,24677,5,8,0:0:0:0:
208,132,24858,1,0,0:0:0:0:
308,259,25039,2,0,L|236:347,1,107.999996704102,2|0,0:0|0:0,0:0:0:0:
0,256,25401,1,8,0:0:0:0:
222,192,25582,1,0,0:0:0:0:
61,80,25763,1,2,0:0:0:0:
92,311,25944,1,8,0:0:0:0:
119,302,26035,1,8,0:0:0:0:
92,296,26125,5,8,0:0:0:0:
203,119,26306,1,0,0:0:0:0:
268,322,26487,1,2,0:0:0:0:
60,195,26668,1,0,0:0:0:0:
322,127,26849,5,10,0:0:0:0:
155,308,27030,1,0,0:0:0:0:
86,61,27211,1,2,0:0:0:0:
236,243,27392,1,8,0:0:0:0:
236,243,27482,1,8,0:0:0:0:
236,243,27573,5,8,0:0:0:0:
471,280,27753,1,0,0:0:0:0:
307,79,27934,1,2,0:0:0:0:
280,346,28115,1,0,0:0:0:0:
456,110,28296,5,10,0:0:0:0:
319,91,28477,1,0,0:0:0:0:
376,313,28658,1,2,0:0:0:0:
498,211,28839,1,8,0:0:0:0:
464,195,28930,1,8,0:0:0:0:
484,203,29020,6,0,P|500:147|476:79,1,107.999996704102,12|0,0:0|0:0,0:0:0:0:
467,32,29382,1,2,0:0:0:0:
392,257,29563,1,0,0:0:0:0:
407,47,29744,1,10,0:0:0:0:
322,262,29925,1,0,0:0:0:0:
352,54,30106,1,2,0:0:0:0:
184,207,30287,1,0,0:0:0:0:
36,99,30468,6,0,P|84:67|172:83,1,107.999996704102,10|0,0:0|0:0,0:0:0:0:
178,204,30829,2,0,P|127:178|97:94,1,107.999996704102,2|0,0:0|0:0,0:0:0:0:
204,27,31191,2,0,P|208:84|150:152,1,107.999996704102,10|0,0:0|0:0,0:0:0:0:
73,66,31553,1,2,0:0:0:0:
177,194,31734,1,8,0:0:0:0:
182,228,31825,1,8,0:0:0:0:
180,211,31915,6,0,L|300:195,1,107.999996704102,8|0,0:0|0:0,0:0:0:0:
507,191,32277,1,2,0:0:0:0:
288,35,32458,1,0,0:0:0:0:
332,288,32639,1,10,0:0:0:0:
442,76,32820,1,0,0:0:0:0:
236,139,33001,1,2,0:0:0:0:
428,235,33182,1,0,0:0:0:0:
300,75,33363,6,0,P|235:50|144:148,1,215.999993408203,10|8,0:0|0:0,0:0:0:0:
260,298,33905,1,0,0:0:0:0:
77,71,34086,2,0,P|178:54|236:138,1,215.999993408203,10|8,0:0|0:0,0:0:0:0:
196,259,34629,1,0,0:0:0:0:
20,195,34810,6,0,L|156:171,1,116.999994644165,10|0,0:0|0:0,0:0:0:0:
312,279,35172,2,0,L|176:255,1,116.999994644165,8|0,0:0|0:0,0:0:0:0:
364,147,35534,1,10,0:0:0:0:
404,283,35715,1,0,0:0:0:0:
268,155,35896,1,8,0:0:0:0:
436,99,36077,1,8,0:0:0:0:
436,99,36167,1,8,0:0:0:0:
436,99,36304,6,0,B|260:99|260:99|340:-13|340:-13|362:32,1,346.500010574341,8|0,0:0|0:0,0:0:0:0:
359,28,37660,1,0,0:0:0:0:
189,66,38383,6,0,P|190:135|244:179,1,144,2|0,0:0|0:0,0:0:0:0:
