osu file format v14

[General]
AudioFilename: audio.mp3
AudioLeadIn: 0
PreviewTime: 17446
Countdown: 0
SampleSet: Soft
StackLeniency: 0.7
Mode: 2
LetterboxInBreaks: 0
WidescreenStoryboard: 1

[Editor]
DistanceSpacing: 2
BeatDivisor: 4
GridSize: 8
TimelineZoom: 1.8

[Metadata]
Title:Gravity Falls Theme Song (TV Size)
TitleUnicode:Gravity Falls Theme Song (TV Size)
Artist:Brad Breeck
ArtistUnicode:Brad Breeck
Creator:Nelly
Version:Salad
Source:Gravity Falls
Tags:bradbreeck cartoon animated tv television alex hirsch dipper mabel grunkle stan animation disney xd channel reel walt records main xetopia
BeatmapID:1327681
BeatmapSetID:629031

[Difficulty]
HPDrainRate:4
CircleSize:3
OverallDifficulty:7
ApproachRate:7
SliderMultiplier:1.4
SliderTickRate:2

[Events]
//Background and Video events
0,0,"bg.jpg",0,0
Video,0,"gravityfalls.avi"
//Break Periods
//Storyboard Layer 0 (Background)
//Storyboard Layer 1 (Fail)
//Storyboard Layer 2 (Pass)
//Storyboard Layer 3 (Foreground)
//Storyboard Sound Samples

[TimingPoints]
76,361.881785283474,4,2,2,40,1,0
4418,-100,4,2,2,45,0,0
5142,-100,4,2,2,50,0,0
5504,-100,4,2,2,40,0,0
5866,-100,4,2,2,60,0,0
17446,-100,4,2,2,70,0,1
28845,-100,4,2,2,70,0,0
29026,-100,4,2,2,70,0,1
36264,-200,4,2,2,35,0,0
38616,-200,4,2,2,30,0,0
38797,-200,4,2,2,24,0,0
38978,-200,4,2,2,17,0,0
39158,-200,4,2,2,10,0,0

[Colours]
Combo1 : 36,128,112
Combo2 : 123,176,40
Combo3 : 209,79,16
Combo4 : 220,194,48

[HitObjects]
144,64,76,6,0,P|96:80|144:192,1,210,8|8,0:0|0:0,0:0:0:0:
232,191,799,1,8,0:0:0:0:
79,308,1161,1,8,0:0:0:0:
256,320,1523,6,0,L|416:160,1,210,8|8,0:0|0:0,0:0:0:0:
315,81,2247,1,8,0:0:0:0:
139,81,2609,1,8,0:0:0:0:
288,64,2971,6,0,P|336:80|288:192,1,210,8|8,0:0|0:0,0:0:0:0:
199,194,3694,2,0,P|146:198|110:270,1,140,8|8,0:0|0:0,0:0:0:0:
328,336,4418,6,0,L|344:176,1,140,8|8,0:0|0:0,0:0:0:0:
272,176,4961,1,8,0:0:0:0:
208,168,5142,1,8,0:0:0:0:
379,64,5504,2,0,L|384:144,1,70,8|8,0:0|0:0,0:0:0:0:
188,182,5866,6,0,L|76:70,1,140,14|8,0:0|0:0,0:0:0:0:
303,33,6589,2,0,L|374:39,2,70,0|0|10,0:0|0:0|0:0,0:0:0:0:
112,272,7313,6,0,L|224:160,1,140,2|8,0:0|0:0,0:0:0:0:
384,140,8037,2,0,L|464:140,2,70,0|0|8,0:0|0:0|0:0,0:0:0:0:
101,151,8761,6,0,P|56:189|100:241,1,140,2|8,0:0|0:0,0:0:0:0:
197,240,9303,2,0,L|337:240,1,140,2|0,0:0|0:0,0:0:0:0:
444,228,9846,2,0,P|436:186|358:133,1,140,10|2,0:0|0:0,0:0:0:0:
163,141,10570,5,8,0:0:0:0:
344,134,10932,2,0,L|426:132,2,70,0|0|8,0:0|0:0|0:0,0:0:0:0:
25,243,11656,6,0,L|9:99,1,140,2|8,0:0|0:0,0:0:0:0:
191,38,12379,1,0,0:0:0:0:
261,38,12559,1,0,0:0:0:0:
331,38,12740,1,10,0:0:0:0:
52,323,13103,6,0,L|196:307,1,140,2|8,0:0|0:0,0:0:0:0:
385,274,13827,2,0,P|417:258|385:178,1,140,2|8,0:0|0:0,0:0:0:0:
286,168,14370,1,0,0:0:0:0:
110,160,14551,6,0,P|69:209|114:255,1,140,2|8,0:0|0:0,0:0:0:0:
316,318,15275,2,0,L|328:168,1,140,2|8,0:0|0:0,0:0:0:0:
127,50,15998,6,0,L|272:46,1,140,2|8,0:0|0:0,0:0:0:0:
442,89,16722,2,0,P|489:146|464:198,1,140,2|8,0:0|0:0,0:0:0:0:
361,231,17265,1,8,0:0:0:0:
189,225,17446,5,12,0:0:0:0:
50,127,17808,2,0,L|174:56,1,140,10|2,0:0|0:0,0:0:0:0:
332,121,18531,1,10,0:0:0:0:
153,139,18893,2,0,L|141:283,1,140,2|10,0:0|0:0,0:0:0:0:
322,315,19617,2,0,L|462:304,1,140,2|10,0:0|0:0,0:0:0:0:
381,222,20160,1,8,0:0:0:0:
192,215,20341,6,0,L|48:231,2,140,12|10|2,0:2|0:0|0:0,0:0:0:0:
373,116,21427,1,10,0:0:0:0:
201,335,21788,2,0,L|62:328,1,140,2|10,0:0|0:0,0:0:0:0:
242,235,22512,2,0,L|382:242,1,140,2|10,0:0|0:0,0:0:0:0:
316,144,23055,1,8,0:0:0:0:
119,174,23236,6,0,L|105:33,1,140,12|10,0:0|0:0,0:0:0:0:
260,17,23960,2,0,L|404:17,1,140,2|10,0:0|0:0,0:0:0:0:
214,274,24683,1,2,0:0:0:0:
407,280,25045,1,10,0:0:0:0:
214,274,25407,2,0,L|70:274,1,140,2|10,0:0|0:0,0:0:0:0:
167,178,25950,1,8,0:0:0:0:
354,265,26131,6,0,P|386:249|354:169,1,140,12|10,0:0|0:0,0:0:0:0:
167,178,26855,2,0,P|128:144|176:88,1,140,2|10,0:0|0:0,0:0:0:0:
383,75,27579,1,12,0:0:0:0:
176,64,27940,2,0,L|32:64,2,140,10|2|10,0:0|0:0|0:0,0:0:0:0:
256,64,28845,1,8,0:0:0:0:
459,60,29026,6,0,L|475:204,1,140,12|10,0:0|0:0,0:0:0:0:
280,257,29750,2,0,L|136:257,1,140,2|10,0:0|0:0,0:0:0:0:
322,256,30474,1,2,0:0:0:0:
140,257,30835,2,0,L|124:113,1,140,10|2,0:0|0:0,0:0:0:0:
336,79,31559,2,0,L|261:75,1,70,10|8,0:0|0:0,0:0:0:0:
85,70,31921,6,0,P|41:110|57:182,1,140,12|10,0:0|0:0,0:0:0:0:
256,192,32645,1,2,0:0:0:0:
47,246,33007,1,10,0:0:0:0:
355,207,33369,6,0,P|435:223|355:335,1,280,2|2,0:0|0:0,0:0:0:0:
139,332,34454,1,8,0:0:0:0:
117,252,34635,1,0,0:0:0:0:
303,97,34816,2,0,P|380:121|301:246,1,280,6|2,0:0|0:0,0:0:0:0:
137,201,35902,1,8,0:0:0:0:
224,184,36083,1,8,0:0:0:0:
320,160,36264,5,8,0:0:0:0:
256,192,36626,12,0,37711,0:0:0:0:
224,48,38435,6,0,P|208:80|272:160,1,140,2|0,0:0|0:0,0:0:0:0:
