osu file format v14

[General]
AudioFilename: audio.mp3
AudioLeadIn: 0
PreviewTime: 70
Countdown: 0
SampleSet: Normal
StackLeniency: 0.7
Mode: 1
LetterboxInBreaks: 0
WidescreenStoryboard: 1

[Editor]
Bookmarks: 5853,17419
DistanceSpacing: 1.1
BeatDivisor: 2
GridSize: 32
TimelineZoom: 2

[Metadata]
Title:Gravity Falls Theme Song (TV Size)
TitleUnicode:Gravity Falls Theme Song (TV Size)
Artist:Brad Breeck
ArtistUnicode:Brad Breeck
Creator:[-E S I A-]
Version:Futsuu
Source:Gravity Falls
Tags:disney xd channel television tv show opening op intro cartoon animation anime bradbreeck dipper pines mabel wendy grunkle stan instrumental E_S_I_A [-E_S_I_A-] ESIA [-ESIA-]
BeatmapID:3638600
BeatmapSetID:1776745

[Difficulty]
HPDrainRate:9
CircleSize:2
OverallDifficulty:3
ApproachRate:10
SliderMultiplier:1.4
SliderTickRate:1

[Events]
//Background and Video events
0,0,"f.jpg",0,-130
Video,0,"grayyvity.mp4"
//Break Periods
//Storyboard Layer 0 (Background)
//Storyboard Layer 1 (Fail)
//Storyboard Layer 2 (Pass)
//Storyboard Layer 3 (Foreground)
//Storyboard Layer 4 (Overlay)
//Storyboard Sound Samples

[TimingPoints]
70,361.881785283474,4,1,0,60,1,0
70,-100,4,1,0,60,0,0
4316,-100,4,1,0,70,0,0
5807,-100,4,1,0,80,0,0
17374,-100,4,1,0,90,0,0
17440,-100,4,1,0,90,0,1
36167,-100,4,1,0,80,0,1
36258,-100,4,1,0,80,0,0
36439,-100,4,1,0,75,0,0
36620,-100,4,1,0,70,0,0
36981,-100,4,1,0,65,0,0
37343,-100,4,1,0,60,0,0
37705,-100,4,1,0,55,0,0
38292,-100,4,1,0,80,0,0

[HitObjects]
334,268,70,5,8,0:0:0:0:
334,268,793,1,8,0:0:0:0:
334,268,1155,1,0,0:0:0:0:
334,268,1517,1,8,0:0:0:0:
334,268,2241,1,0,0:0:0:0:
334,268,2603,1,0,0:0:0:0:
334,268,2965,1,8,0:0:0:0:
334,268,3688,1,8,0:0:0:0:
334,268,4412,1,0,0:0:0:0:
334,268,4774,1,0,0:0:0:0:
334,268,5136,1,8,0:0:0:0:
390,215,5498,1,8,0:0:0:0:
323,175,5679,1,8,0:0:0:0:
334,268,5860,1,4,0:0:0:0:
334,268,6945,1,8,0:0:0:0:
334,268,7307,1,8,0:0:0:0:
276,215,8031,1,0,0:0:0:0:
344,328,8393,1,0,0:0:0:0:
334,268,8755,1,8,0:0:0:0:
334,268,9297,1,8,0:0:0:0:
334,268,9840,1,8,0:0:0:0:
334,268,10202,1,0,0:0:0:0:
328,191,10926,1,8,0:0:0:0:
334,268,11288,1,8,0:0:0:0:
334,268,11650,1,0,0:0:0:0:
334,268,12735,1,8,0:0:0:0:
334,268,13097,1,0,0:0:0:0:
334,268,13821,1,8,0:0:0:0:
334,268,14183,1,0,0:0:0:0:
334,268,14545,1,8,0:0:0:0:
334,268,15269,1,8,0:0:0:0:
334,268,15992,1,0,0:0:0:0:
334,268,16354,1,0,0:0:0:0:
334,268,16716,1,8,0:0:0:0:
420,140,17078,1,8,0:0:0:0:
398,65,17259,1,8,0:0:0:0:
334,190,17440,1,4,0:0:0:0:
460,102,17802,1,8,0:0:0:0:
334,268,18164,1,0,0:0:0:0:
361,232,18345,1,0,0:0:0:0:
334,268,18525,1,8,0:0:0:0:
334,268,18887,1,8,0:0:0:0:
334,268,19249,1,8,0:0:0:0:
306,196,19430,1,8,0:0:0:0:
364,193,19611,1,0,0:0:0:0:
334,268,19973,1,8,0:0:0:0:
334,268,20697,1,8,0:0:0:0:
334,268,21059,1,8,0:0:0:0:
382,225,21240,1,0,0:0:0:0:
394,148,21421,1,8,0:0:0:0:
334,268,21782,1,8,0:0:0:0:
334,268,22144,1,0,0:0:0:0:
264,234,22325,1,0,0:0:0:0:
334,268,22506,1,8,0:0:0:0:
334,268,22868,1,8,0:0:0:0:
334,268,23592,1,8,0:0:0:0:
334,268,23954,1,0,0:0:0:0:
376,210,24135,1,0,0:0:0:0:
334,268,24316,1,8,0:0:0:0:
334,268,24677,1,8,0:0:0:0:
334,268,25039,1,8,0:0:0:0:
334,268,25401,1,0,0:0:0:0:
265,232,25582,1,0,0:0:0:0:
334,268,25763,1,8,0:0:0:0:
334,268,26487,1,8,0:0:0:0:
334,268,26849,1,0,0:0:0:0:
261,241,27030,1,0,0:0:0:0:
334,268,27211,1,8,0:0:0:0:
199,193,27573,1,0,0:0:0:0:
334,268,27934,1,8,0:0:0:0:
334,268,28296,1,8,0:0:0:0:
392,218,28477,1,0,0:0:0:0:
450,167,28658,1,8,0:0:0:0:
334,268,29020,1,4,0:0:0:0:
334,268,29382,1,8,0:0:0:0:
334,268,29744,1,0,0:0:0:0:
299,209,29925,1,0,0:0:0:0:
319,278,30106,1,8,0:0:0:0:
334,268,30468,1,8,0:0:0:0:
334,268,30829,1,8,0:0:0:0:
371,200,31010,1,8,0:0:0:0:
334,268,31191,1,0,0:0:0:0:
334,268,31553,1,8,0:0:0:0:
334,268,32277,1,0,0:0:0:0:
367,117,32639,1,8,0:0:0:0:
274,219,32820,1,0,0:0:0:0:
341,181,33001,1,8,0:0:0:0:
334,268,33363,1,8,0:0:0:0:
467,242,33725,1,0,0:0:0:0:
407,175,34086,1,8,0:0:0:0:
407,253,34267,1,0,0:0:0:0:
308,266,34448,1,0,0:0:0:0:
334,268,34810,1,8,0:0:0:0:
351,114,35172,1,0,0:0:0:0:
334,268,35534,1,8,0:0:0:0:
334,268,35715,1,8,0:0:0:0:
173,260,35896,1,0,0:0:0:0:
334,268,36258,1,8,0:0:0:0:
256,192,36439,12,0,37705,0:0:0:0:
334,268,38429,5,8,0:0:0:0:
