osu file format v14

[General]
AudioFilename: audio.mp3
AudioLeadIn: 0
PreviewTime: 17426
Countdown: 0
SampleSet: Soft
StackLeniency: 0.3
Mode: 0
LetterboxInBreaks: 0
WidescreenStoryboard: 0

[Editor]
DistanceSpacing: 0.6
BeatDivisor: 4
GridSize: 4
TimelineZoom: 2.6

[Metadata]
Title:Gravity Falls Theme Song
TitleUnicode:Gravity Falls Theme Song
Artist:Brad Breeck
ArtistUnicode:Brad Breeck
Creator:Chimel
Version:Insane
Source:Gravity Falls
Tags:gravity falls brad breeck cartoon
BeatmapID:1786249
BeatmapSetID:854839

[Difficulty]
HPDrainRate:3.3
CircleSize:3.8
OverallDifficulty:5
ApproachRate:8
SliderMultiplier:1.4
SliderTickRate:1

[Events]
//Background and Video events
0,0,"gravity-falls-finale-1280jpg-c74659_1280w.jpg",0,0
//Break Periods
//Storyboard Layer 0 (Background)
//Storyboard Layer 1 (Fail)
//Storyboard Layer 2 (Pass)
//Storyboard Layer 3 (Foreground)
//Storyboard Sound Samples

[TimingPoints]
56,361.881785283474,4,2,0,40,1,0
4941,-66.6666666666667,4,2,0,55,0,0
5846,-50,4,2,0,55,0,0
8741,-66.6666666666667,4,2,0,55,0,0
10731,-57.1428571428571,4,2,0,55,0,0
11636,-50,4,2,0,55,0,0
17426,-50,4,2,0,55,0,1
20683,-50,4,2,0,55,0,1
29006,-50,4,2,0,55,0,0
36244,-133.333333333333,4,2,0,35,0,0
38415,-66.6666666666667,4,2,0,35,0,0
39139,-66.6666666666667,4,2,0,5,0,0

[Colours]
Combo1 : 23,209,116
Combo2 : 0,64,128
Combo3 : 241,198,48
Combo4 : 244,29,23

[HitObjects]
270,219,56,5,2,0:0:0:0:
316,149,236,1,2,3:0:0:0:
247,104,417,1,2,3:0:0:0:
204,174,598,1,2,2:0:0:0:
149,253,779,2,0,L|229:311,3,70
289,346,1503,5,2,0:0:0:0:
362,384,1683,1,2,3:0:0:0:
400,310,1864,1,2,3:0:0:0:
326,275,2045,1,2,2:0:0:0:
242,228,2227,2,0,L|192:313,3,70
389,102,2951,6,0,L|419:166,3,70,2|2|2|2,3:3|3:3|3:3|3:3,0:3:0:0:
340,246,3674,2,0,P|338:188|314:160,3,70
265,220,4398,5,0,0:0:0:0:
184,221,4579,1,0,0:0:0:0:
224,134,4760,1,0,0:0:0:0:
216,21,4941,2,8,P|275:48|328:77,1,105.000004005432,2|8,3:3|0:0,0:0:0:0:
372,104,5303,1,2,3:3:0:0:
436,167,5484,5,2,3:3:0:0:
443,219,5574,1,2,3:3:0:0:
431,270,5665,1,2,3:3:0:0:
401,313,5755,1,2,3:3:0:0:
355,338,5846,6,0,P|268:337|88:259,1,280
18,214,6388,2,0,P|1:132|64:128,1,140,2|0,0:0|0:0,0:0:0:0:
213,104,6750,5,0,0:0:0:0:
336,137,6931,1,0,0:0:0:0:
246,248,7112,1,2,0:3:0:0:
207,169,7293,2,0,B|109:95|109:95|210:55|210:55|213:112,1,280,2|0,0:0|0:0,0:0:0:0:
276,214,7836,5,0,0:0:0:0:
322,144,8017,1,0,0:0:0:0:
253,99,8198,1,0,0:0:0:0:
207,169,8379,1,2,0:3:0:0:
127,305,8741,2,0,P|209:336|404:237,1,315.000012016297,2|0,0:0|0:0,0:0:0:0:
446,115,9464,5,0,0:0:0:0:
343,33,9645,1,0,0:0:0:0:
345,164,9826,1,2,0:3:0:0:
252,228,10007,5,0,0:0:0:0:
185,276,10188,1,0,0:0:0:0:
136,208,10369,1,0,0:0:0:0:
203,160,10550,1,2,0:3:0:0:
263,94,10731,2,0,B|341:102|341:102|298:168,1,122.500001168251
251,202,11093,1,0,0:0:0:0:
179,161,11274,1,0,0:0:0:0:
137,231,11455,1,0,0:0:0:0:
214,283,11636,6,0,P|317:307|351:153,1,280,2|0,0:3|0:0,0:0:0:0:
293,104,12179,1,0,0:0:0:0:
220,62,12359,1,0,0:0:0:0:
179,133,12540,1,0,0:0:0:0:
251,175,12721,1,2,0:3:0:0:
334,221,12902,5,0,0:0:0:0:
446,285,13083,1,0,0:0:0:0:
323,331,13264,1,2,0:3:0:0:
218,360,13445,5,0,0:0:0:0:
101,300,13626,1,0,0:0:0:0:
222,247,13807,2,0,B|381:187|381:187|265:129,1,280
201,83,14350,1,0,0:0:0:0:
111,39,14531,2,0,B|-8:24|-8:24|183:150,1,280
265,149,15074,5,0,0:0:0:0:
175,250,15255,1,0,0:0:0:0:
70,161,15435,1,0,0:0:0:0:
158,56,15616,1,2,0:3:0:0:
163,146,15797,5,0,0:0:0:0:
74,250,15978,1,0,0:0:0:0:
179,340,16159,1,0,0:0:0:0:
269,239,16340,1,2,0:3:0:0:
372,332,16521,1,0,0:0:0:0:
433,274,16702,2,0,B|423:52|423:52|344:164|344:164|257:165,1,420,2|0,0:0|0:0,0:0:0:0:
256,177,17426,6,0,B|192:240|192:240|109:200,1,140,4|0,0:0|0:0,0:0:0:0:
73,176,17788,2,0,B|3:132|3:132|39:252,1,140,4|0,0:0|0:0,0:0:0:0:
48,266,18150,2,0,B|126:337|126:337|216:303,1,140,4|0,0:0|0:0,0:0:0:0:
150,241,18511,2,0,B|193:163|193:163|265:162,1,140,4|0,0:0|0:0,0:0:0:0:
306,219,18873,2,0,B|300:280|300:280|182:279,1,140,4|0,0:0|0:0,0:0:0:0:
111,215,19235,5,0,0:0:0:0:
228,134,19416,1,2,0:3:0:0:
308,109,19597,2,0,B|425:95|425:95|471:227|471:227|428:264,1,280
384,294,20140,5,0,0:0:0:0:
261,261,20321,1,0,0:0:0:0:
350,150,20502,1,2,0:0:0:0:
264,126,20683,2,4,B|166:98|166:98|197:215|197:215|248:154,1,280,6|6,0:0|0:0,0:0:0:0:
350,150,21226,5,2,0:0:0:0:
420,190,21407,1,2,0:0:0:0:
381,262,21587,1,2,0:3:0:0:
308,224,21768,1,0,0:3:0:0:
208,230,21949,5,2,0:0:0:0:
179,315,22130,1,2,0:3:0:0:
104,248,22311,1,2,0:0:0:0:
135,165,22492,5,2,0:0:0:0:
177,90,22673,1,2,0:3:0:0:
104,52,22854,1,2,0:0:0:0:
65,124,23035,1,2,0:3:0:0:
86,246,23216,2,4,B|201:295|201:295|214:191|214:191|117:206,2,280,6|6|6,0:0|0:0|0:0,0:0:0:0:
86,246,24121,5,2,0:0:0:0:
135,174,24302,1,2,0:0:0:0:
65,131,24483,1,0,0:3:0:0:
20,199,24663,1,2,0:0:0:0:
2,283,24844,5,2,0:0:0:0:
85,314,25025,1,2,0:3:0:0:
79,134,25206,5,2,0:0:0:0:
160,171,25387,1,2,0:0:0:0:
86,239,25568,1,2,0:3:0:0:
229,275,25749,5,2,0:0:0:0:
307,311,25930,1,2,0:0:0:0:
337,234,26111,1,0,0:3:0:0:
262,200,26291,1,2,0:0:0:0:
174,156,26473,2,0,B|53:71|53:71|217:55,2,280
240,210,27378,5,2,0:0:0:0:
324,250,27559,1,2,0:0:0:0:
390,188,27740,1,2,0:0:0:0:
295,153,27920,2,0,B|208:66|208:66|199:248,2,280,4|0|0,0:0|0:0|0:0,0:0:0:0:
267,277,28825,5,2,0:0:0:0:
200,221,29006,2,0,B|111:100|111:100|246:100,3,280,8|0|8|0,0:0|0:0|0:0|0:0,0:0:0:0:
292,176,30454,6,0,B|292:115|292:115|392:177|392:177|324:253,3,280,8|0|8|0,0:0|0:0|0:0|0:0,0:0:0:0:
223,381,31901,5,2,0:0:0:0:
142,344,32082,1,2,0:0:0:0:
216,276,32263,1,2,0:3:0:0:
270,200,32444,5,2,0:0:0:0:
331,120,32625,1,2,0:0:0:0:
355,220,32806,1,2,0:3:0:0:
337,299,32987,5,2,0:0:0:0:
276,378,33168,1,2,0:0:0:0:
187,341,33349,6,0,B|84:242|84:242|229:196,3,280,12|12|12|12,0:0|0:0|0:0|0:0,0:0:0:0:
313,89,34796,2,0,B|412:184|412:184|277:228,3,280,12|12|12|12,0:0|0:0|0:0|0:0,0:0:0:0:
167,247,36244,6,0,B|199:280|216:269|229:290,1,52.5000020027161
305,298,36606,5,2,0:0:0:0:
412,238,36787,1,2,0:0:0:0:
303,192,36968,1,2,0:0:0:0:
223,209,37148,2,0,B|228:215|211:204|179:237,3,52.5000020027161
255,109,38415,6,0,B|291:169|328:230|328:230|186:230|186:230|255:109,1,420.000016021729,2|2,0:0|0:0,0:0:0:0:
