osu file format v14

[General]
AudioFilename: audio.mp3
AudioLeadIn: 0
PreviewTime: 17426
Countdown: 0
SampleSet: Soft
StackLeniency: 0.3
Mode: 0
LetterboxInBreaks: 0
WidescreenStoryboard: 1

[Editor]
Bookmarks: 38415,39139
DistanceSpacing: 1.5
BeatDivisor: 4
GridSize: 4
TimelineZoom: 2.6

[Metadata]
Title:Gravity Falls Theme Song
TitleUnicode:Gravity Falls Theme Song
Artist:Brad Breeck
ArtistUnicode:Brad Breeck
Creator:Chimel
Version:Easy
Source:Gravity Falls
Tags:gravity falls brad breeck cartoon
BeatmapID:1788542
BeatmapSetID:854839

[Difficulty]
HPDrainRate:2
CircleSize:3
OverallDifficulty:2
ApproachRate:2.5
SliderMultiplier:0.8
SliderTickRate:1

[Events]
//Background and Video events
0,0,"gravity-falls-finale-1280jpg-c74659_1280w.jpg",0,0
//Break Periods
//Storyboard Layer 0 (Background)
//Storyboard Layer 1 (Fail)
//Storyboard Layer 2 (Pass)
//Storyboard Layer 3 (Foreground)
//Storyboard Sound Samples

[TimingPoints]
56,361.881785283474,4,2,0,55,1,0
17426,-100,4,2,0,55,0,1
29006,-100,4,2,0,55,0,0

[Colours]
Combo1 : 23,209,116
Combo2 : 0,64,128
Combo3 : 241,198,48
Combo4 : 244,29,23

[HitObjects]
77,207,56,6,0,P|123:236|161:224,1,80,8|0,0:0|0:0,0:0:0:0:
213,184,779,2,0,P|260:150|295:146,1,80
360,137,1503,2,0,P|385:135|416:181,1,80,8|0,0:0|0:0,0:0:0:0:
419,254,2227,2,0,P|412:282|359:301,1,80
291,326,2951,5,8,0:0:0:0:
209,320,3312,1,0,0:0:0:0:
143,274,3674,1,0,0:0:0:0:
200,217,4036,1,0,0:0:0:0:
263,168,4398,2,0,P|310:100|458:100,1,240,8|4,0:0|0:0,0:0:0:0:
403,174,5846,6,0,P|376:237|360:248,1,80,2|0,0:0|0:0,0:0:0:0:
300,284,6569,1,0,0:0:0:0:
223,259,6931,1,0,0:0:0:0:
228,179,7293,2,0,P|265:121|355:82,1,160,2|0,0:0|0:0,0:0:0:0:
390,148,8379,1,0,0:0:0:0:
395,226,8741,6,0,P|366:279|266:288,1,160,2|0,0:0|0:0,0:0:0:0:
200,259,9826,1,0,0:0:0:0:
208,179,10188,2,0,P|228:123|328:108,1,160,2|0,0:0|0:0,0:0:0:0:
392,244,11636,6,0,P|382:321|313:313,1,160,2|0,0:0|0:0,0:0:0:0:
247,272,12721,1,0,0:0:0:0:
172,242,13083,1,2,0:0:0:0:
103,200,13445,6,0,P|88:135|99:126,1,80,2|0,0:0|0:0,0:0:0:0:
184,118,14169,2,0,P|199:53|188:44,1,80,2|0,0:0|0:0,0:0:0:0:
117,46,14893,2,0,P|92:74|89:125,1,80,2|0,0:0|0:0,0:0:0:0:
108,191,15616,2,0,P|150:255|162:257,1,80,2|0,0:0|0:0,0:0:0:0:
220,222,16340,5,0,0:0:0:0:
290,184,16702,2,0,P|327:229|358:220,1,80,2|0,0:0|0:0,0:0:0:0:
408,181,17426,6,0,P|461:172|472:266,1,160,8|0,0:0|0:0,0:0:0:0:
422,311,18511,5,0,0:0:0:0:
346,338,18873,1,0,0:0:0:0:
271,308,19235,1,0,0:0:0:0:
281,228,19597,2,0,P|272:198|320:178,1,80,0|8,0:0|0:0,0:0:0:0:
386,157,20321,1,0,0:0:0:0:
408,80,20683,5,0,0:0:0:0:
328,67,21045,2,0,P|282:43|251:45,1,80
198,100,21768,2,0,P|154:138|148:166,1,80
145,237,22492,2,0,P|171:271|220:267,1,80,0|8,0:0|0:0,0:0:0:0:
284,266,23216,5,0,0:0:0:0:
360,245,23578,2,0,P|426:204|438:193,1,80
458,86,24302,2,0,P|407:86|379:92,1,80
300,108,25025,5,0,0:0:0:0:
215,123,25387,1,8,0:0:0:0:
270,182,25749,1,0,0:0:0:0:
193,308,26473,6,0,P|141:319|119:304,1,80
104,219,27197,2,0,P|52:208|30:223,1,80
51,298,27920,5,0,0:0:0:0:
110,351,28282,1,0,0:0:0:0:
179,310,28644,1,8,0:0:0:0:
234,252,29006,6,0,P|266:278|300:254,1,80
350,202,29730,2,0,P|386:146|383:133,1,80
297,144,30454,5,0,0:0:0:0:
217,145,30815,1,0,0:0:0:0:
221,224,31177,1,0,0:0:0:0:
301,224,31538,1,8,0:0:0:0:
141,235,32263,6,2,P|147:295|160:295,1,80
226,304,32987,2,2,P|257:294|241:257,1,80
136,200,34072,6,2,P|64:224|53:300,1,160
91,376,35520,2,2,P|119:347|138:312,1,80
215,331,36244,6,0,P|268:350|290:344,1,80
341,284,36967,2,0,P|399:262|401:264,2,80
255,191,38415,1,4,0:0:0:0:
