osu file format v14

[General]
AudioFilename: gravityfalls.mp3
AudioLeadIn: 0
PreviewTime: 17446
Countdown: 0
SampleSet: None
StackLeniency: 0.7
Mode: 3
LetterboxInBreaks: 0
SpecialStyle: 0
WidescreenStoryboard: 0

[Editor]
DistanceSpacing: 1
BeatDivisor: 4
GridSize: 4
TimelineZoom: 1.7

[Metadata]
Title:Gravity Falls Theme Song
TitleUnicode:Gravity Falls Theme Song
Artist:Brad Breeck
ArtistUnicode:Brad Breeck
Creator:Ayachi Meme
Version:EZ
Source:Gravity Falls
Tags:bradbreeck disney tv television animated animation
BeatmapID:711049
BeatmapSetID:313844

[Difficulty]
HPDrainRate:5
CircleSize:4
OverallDifficulty:5
ApproachRate:5
SliderMultiplier:1.4
SliderTickRate:1

[Events]
//Background and Video events
0,0,"bg.jpg",0,0
//Break Periods
//Storyboard Layer 0 (Background)
//Storyboard Layer 1 (Fail)
//Storyboard Layer 2 (Pass)
//Storyboard Layer 3 (Foreground)
//Storyboard Sound Samples

[TimingPoints]
76,361.881785283474,4,3,0,45,1,0
17446,-100,4,3,0,65,0,1
36264,-100,4,3,0,30,0,0
39159,-100,4,3,0,5,0,0

[HitObjects]
64,192,76,5,4,0:0:0:0:
320,192,76,1,4,0:0:0:0:
448,192,437,1,0,0:0:0:0:
320,192,799,1,0,0:0:0:0:
192,192,1161,1,2,0:0:0:0:
64,192,1523,1,4,0:0:0:0:
448,192,1523,1,4,0:0:0:0:
320,192,1885,1,0,0:0:0:0:
192,192,2247,1,0,0:0:0:0:
64,192,2609,1,2,0:0:0:0:
192,192,2971,1,4,0:0:0:0:
448,192,2971,1,4,0:0:0:0:
320,192,3332,1,0,0:0:0:0:
64,192,3694,1,0,0:0:0:0:
192,192,4056,1,2,0:0:0:0:
64,192,4418,1,4,0:0:0:0:
448,192,4418,1,4,0:0:0:0:
192,192,4599,1,4,0:0:0:0:
320,192,4780,1,4,0:0:0:0:
448,192,4961,1,4,0:0:0:0:
320,192,5142,1,4,0:0:0:0:
192,192,5323,1,4,0:0:0:0:
64,192,5504,128,4,5866:0:0:0:0:
320,192,5866,1,4,0:0:0:0:
192,192,6227,1,2,0:0:0:0:
448,192,6227,1,2,0:0:0:0:
64,192,6589,1,0,0:0:0:0:
320,192,6951,1,2,0:0:0:0:
448,192,6951,1,2,0:0:0:0:
192,192,7313,1,0,0:0:0:0:
64,192,7675,1,2,0:0:0:0:
448,192,7675,1,2,0:0:0:0:
320,192,8037,1,0,0:0:0:0:
64,192,8399,1,2,0:0:0:0:
192,192,8399,1,2,0:0:0:0:
320,192,8761,1,0,0:0:0:0:
64,192,9123,1,2,0:0:0:0:
448,192,9123,1,2,0:0:0:0:
192,192,9484,1,0,0:0:0:0:
320,192,9846,1,2,0:0:0:0:
448,192,9846,1,2,0:0:0:0:
192,192,10208,1,0,0:0:0:0:
64,192,10570,1,2,0:0:0:0:
320,192,10570,1,2,0:0:0:0:
192,192,10932,1,0,0:0:0:0:
64,192,11294,1,2,0:0:0:0:
448,192,11294,1,2,0:0:0:0:
320,192,11656,1,0,0:0:0:0:
192,192,12018,1,2,0:0:0:0:
448,192,12018,1,2,0:0:0:0:
320,192,12379,1,0,0:0:0:0:
448,192,12741,1,2,0:0:0:0:
64,192,12741,1,2,0:0:0:0:
192,192,13103,1,0,0:0:0:0:
64,192,13465,1,2,0:0:0:0:
320,192,13465,1,2,0:0:0:0:
192,192,13827,1,0,0:0:0:0:
320,192,14189,1,2,0:0:0:0:
448,192,14189,1,2,0:0:0:0:
192,192,14551,1,0,0:0:0:0:
64,192,14913,1,2,0:0:0:0:
448,192,14913,1,2,0:0:0:0:
320,192,15275,1,0,0:0:0:0:
192,192,15636,1,2,0:0:0:0:
448,192,15636,1,2,0:0:0:0:
320,192,15998,1,0,0:0:0:0:
64,192,16360,1,2,0:0:0:0:
192,192,16360,1,2,0:0:0:0:
320,192,16722,1,0,0:0:0:0:
192,192,17084,1,2,0:0:0:0:
448,192,17084,1,2,0:0:0:0:
64,192,17446,1,0,0:0:0:0:
448,192,17808,128,2,18170:0:0:0:0:
320,192,18170,128,0,18531:0:0:0:0:
192,192,18531,128,2,18893:0:0:0:0:
64,192,18893,128,0,19255:0:0:0:0:
320,192,19255,128,2,19617:0:0:0:0:
448,192,19617,128,0,19979:0:0:0:0:
64,192,19979,128,2,20341:0:0:0:0:
192,192,20341,1,0,0:0:0:0:
448,192,20703,128,2,21065:0:0:0:0:
320,192,21065,128,0,21427:0:0:0:0:
448,192,21427,128,2,21788:0:0:0:0:
192,192,21788,128,0,22150:0:0:0:0:
64,192,22150,128,2,22512:0:0:0:0:
320,192,22512,128,0,22874:0:0:0:0:
448,192,22874,128,2,23236:0:0:0:0:
64,192,23236,1,0,0:0:0:0:
192,192,23598,128,2,23960:0:0:0:0:
64,192,23960,128,0,24322:0:0:0:0:
320,192,24322,128,2,24683:0:0:0:0:
448,192,24683,128,0,25045:0:0:0:0:
192,192,25045,128,2,25407:0:0:0:0:
64,192,25407,128,0,25769:0:0:0:0:
320,192,25769,128,2,26131:0:0:0:0:
192,192,26131,1,0,0:0:0:0:
448,192,26493,128,2,26855:0:0:0:0:
320,192,26855,128,0,27217:0:0:0:0:
192,192,27217,128,2,27579:0:0:0:0:
320,192,27579,1,0,0:0:0:0:
64,192,27940,128,2,28302:0:0:0:0:
192,192,28302,128,0,28664:0:0:0:0:
448,192,28664,128,2,29026:0:0:0:0:
192,192,29026,1,0,0:0:0:0:
64,192,29388,128,2,29750:0:0:0:0:
448,192,29750,128,0,30112:0:0:0:0:
192,192,30112,128,2,30474:0:0:0:0:
320,192,30474,128,0,30835:0:0:0:0:
64,192,30835,128,2,31197:0:0:0:0:
448,192,31197,128,0,31559:0:0:0:0:
192,192,31559,128,2,31921:0:0:0:0:
320,192,31921,1,0,0:0:0:0:
64,192,32283,128,2,32645:0:0:0:0:
320,192,32645,128,0,33007:0:0:0:0:
448,192,33007,128,2,33369:0:0:0:0:
192,192,33369,128,2,34092:0:0:0:0:
320,192,34092,128,2,34816:0:0:0:0:
64,192,34816,128,2,35540:0:0:0:0:
448,192,35540,128,2,36264:0:0:0:0:
64,192,36264,1,0,0:0:0:0:
192,192,36445,1,0,0:0:0:0:
448,192,36626,1,0,0:0:0:0:
320,192,36807,1,0,0:0:0:0:
64,192,36987,1,0,0:0:0:0:
320,192,37168,1,0,0:0:0:0:
192,192,37349,1,0,0:0:0:0:
64,192,37530,1,0,0:0:0:0:
448,192,37711,1,0,0:0:0:0:
320,192,38435,128,4,39159:0:0:0:0:
