osu file format v14

[General]
AudioFilename: audio.mp3
AudioLeadIn: 0
PreviewTime: 68
Countdown: 0
SampleSet: Soft
StackLeniency: 0.7
Mode: 0
LetterboxInBreaks: 0
WidescreenStoryboard: 1

[Editor]
DistanceSpacing: 1
BeatDivisor: 4
GridSize: 4
TimelineZoom: 1.5

[Metadata]
Title:Gravity Falls Theme Song
TitleUnicode:Gravity Falls Theme Song
Artist:Brad Breeck
ArtistUnicode:Brad Breeck
Creator:Alphabet
Version:Normal
Source:Gravity Falls
Tags:bradbreeck cartoon animated TV television Alex Hirsch Dipper Mabel Grunkle Stan animation Disney XD Channel Bubblun Reel Walt Records Main Title
BeatmapID:1119785
BeatmapSetID:527431

[Difficulty]
HPDrainRate:4
CircleSize:3
OverallDifficulty:3.6
ApproachRate:4.6
SliderMultiplier:1.2
SliderTickRate:1

[Events]
//Background and Video events
0,0,"luminaty.jpg",0,0
//Break Periods
//Storyboard Layer 0 (Background)
//Storyboard Layer 1 (Fail)
//Storyboard Layer 2 (Pass)
//Storyboard Layer 3 (Foreground)
//Storyboard Sound Samples

[TimingPoints]
70,361.881785283474,4,2,1,40,1,0
70,-125,4,2,1,40,0,0
1515,-125,4,2,1,40,0,0
4412,-125,4,2,1,45,0,0
5136,-125,4,2,1,50,0,0
5860,-100,4,2,1,60,0,0
15992,-100,4,2,1,65,0,0
17440,-100,4,2,1,70,0,1
29020,-100,4,2,1,65,0,0
34810,-100,4,2,1,70,0,0
36258,-100,4,2,1,35,0,0
37705,-100,4,2,1,10,0,0
38067,-100,4,2,1,15,0,0
38429,-100,4,2,1,20,0,0

[Colours]
Combo1 : 183,0,0
Combo2 : 215,107,0
Combo3 : 158,158,158
Combo4 : 128,225,128

[HitObjects]
336,248,70,6,0,P|376:256|440:232,2,96,2|0|10,0:0|0:0|0:0,0:0:0:0:
256,192,1155,1,8,0:0:0:0:
176,248,1517,2,0,P|136:256|72:232,2,96,10|0|10,0:0|0:0|0:0,0:0:0:0:
256,192,2603,1,8,0:0:0:0:
256,96,2965,6,0,P|304:80|360:104,1,96,10|0,0:0|0:0,0:0:0:0:
346,188,3688,2,0,P|298:204|242:180,1,96,10|8,0:0|0:0,0:0:0:0:
176,144,4412,2,0,L|168:248,1,96,8|8,0:0|0:0,0:0:0:0:
200,328,5136,1,8,0:0:0:0:
288,288,5498,2,0,P|312:280|336:280,1,48,8|8,0:0|0:0,0:0:0:0:
384,312,5860,6,0,P|328:200|384:96,1,240,4|8,0:0|0:0,0:0:0:0:
480,40,6945,1,2,0:0:0:0:
360,16,7307,2,0,P|288:32|224:8,1,120,8|2,0:0|0:0,0:0:0:0:
128,16,8031,2,0,B|128:160,1,120,8|2,0:0|0:0,0:0:0:0:
184,240,8755,6,0,P|240:264|304:240,1,120,8|2,0:0|0:0,0:0:0:0:
344,216,9297,1,0,0:0:0:0:
384,176,9478,2,0,L|400:312,1,120,8|2,0:0|0:0,0:0:0:0:
484,208,10202,2,0,P|484:144|320:92,1,240,8|8,0:0|0:0,0:0:0:0:
232,124,11288,1,2,0:0:0:0:
128,64,11650,6,0,L|0:80,1,120,8|2,0:0|0:0,0:0:0:0:
0,196,12373,2,0,P|0:260|40:316,1,120,8|2,0:0|0:0,0:0:0:0:
144,340,13097,2,0,B|200:364|264:340|264:340|320:316|384:348,1,240,8|8,0:0|0:0,0:0:0:0:
460,256,14183,1,2,0:0:0:0:
404,148,14545,6,0,B|346:176|290:152|290:152|226:128|170:152,1,240,8|8,0:0|0:0,0:0:0:0:
120,260,15630,1,2,0:0:0:0:
200,348,15992,2,0,P|232:300|224:220,1,120,8|2,0:0|0:0,0:0:0:0:
172,136,16716,1,8,0:0:0:0:
292,128,17078,2,0,L|369:115,1,60,10|8,0:0|0:0,0:0:0:0:
392,160,17440,6,0,P|410:218|386:298,2,120,12|2|10,0:0|0:0|0:0,0:0:0:0:
288,224,18525,1,2,0:0:0:0:
188,292,18887,2,0,L|52:300,1,120,8|2,0:0|0:0,0:0:0:0:
44,243,19430,1,0,0:0:0:0:
20,188,19611,2,0,L|156:180,1,120,8|2,0:0|0:0,0:0:0:0:
260,168,20335,5,8,0:0:0:0:
368,224,20697,2,0,P|384:160|357:96,2,120,2|10|2,0:0|0:0|0:0,0:0:0:0:
252,260,21782,2,0,L|116:268,1,120,8|2,0:0|0:0,0:0:0:0:
98,217,22325,1,0,0:0:0:0:
68,164,22506,2,0,L|204:156,1,120,8|2,0:0|0:0,0:0:0:0:
308,144,23230,5,8,0:0:0:0:
268,32,23592,2,0,P|220:24|148:40,2,120,2|10|2,0:0|0:0|0:0,0:0:0:0:
384,64,24677,2,0,L|392:192,1,120,8|2,0:0|0:0,0:0:0:0:
351,229,25220,1,0,0:0:0:0:
308,272,25401,2,0,L|300:144,1,120,8|2,0:0|0:0,0:0:0:0:
200,88,26125,5,8,0:0:0:0:
128,184,26487,2,0,P|80:192|-8:168,2,120,2|10|2,0:0|0:0|0:0,0:0:0:0:
248,172,27573,1,8,0:0:0:0:
352,232,27934,2,0,L|352:104,2,120,2|10|2,0:0|0:0|0:0,0:0:0:0:
349,292,28839,1,8,0:0:0:0:
348,352,29020,5,12,0:0:0:0:
252,280,29382,1,2,0:0:0:0:
216,168,29744,2,0,P|208:120|240:56,1,120,10|2,0:0|0:0,0:0:0:0:
356,36,30468,2,0,P|392:56|484:28,1,120,10|2,0:0|0:0,0:0:0:0:
470,103,31010,1,0,0:0:0:0:
478,162,31191,2,0,L|470:282,1,120,10|2,0:0|0:0,0:0:0:0:
376,356,31915,5,8,0:0:0:0:
268,300,32277,1,2,0:0:0:0:
164,356,32639,2,0,P|108:356|44:308,1,120,10|2,0:0|0:0,0:0:0:0:
24,208,33363,2,0,B|80:240|144:208|144:208|200:176|264:208,1,240,10|10,0:0|0:0,0:0:0:0:
472,104,34810,6,0,B|416:136|352:104|352:104|296:72|232:104,1,240,10|10,0:0|0:0,0:0:0:0:
316,328,36258,1,8,0:0:0:0:
256,192,36439,12,2,38429,0:0:0:0:
